#TITLE:Dance With Me;
#ARTIST:Yuki Shibasaki feat. Ai Takekawa;
#GENRE:ミュージックガンガン3×NonStopDance ~2022夏のMUSIC CHOICE!~;
#MUSIC:Dance With Me.ogg;
#BANNER:Dance With Me.png;
#BACKGROUND:Dance With Me-bg.png;
#CDTITLE:./CDTitles/Music Gun Gun 3 -Shoot Away!-.png;
#SAMPLESTART:76.451;
#SAMPLELENGTH:15.000;
#SELECTABLE:YES;
#OFFSET:0.000;
#BPMS:0.000=127.892;
#STOPS:;
#BGCHANGES:;
#FGCHANGES:;

//--------------- dance-single - ----------------
#NOTES:
     dance-single:
     :
     Beginner:
     2:
     0,0,0,0,0:
0000
0000
0000
0000
,
0000
0000
0000
0000
,
0000
0000
0000
0000
,
0000
0000
0000
0000
,
0000
0000
0000
0000
,
0001
0000
0000
0000
,
1000
0000
0000
0000
,
0010
0000
0000
0000
,
1000
0000
0000
0000
,
0001
0000
0000
0000
,
1000
0000
0000
0000
,
0001
0000
0000
0000
,
0010
0000
0000
0000
,
0100
0000
0000
0000
,
0010
0000
0000
0000
,
1000
0000
0000
0000
,
0000
0000
0000
0000
,
0001
0000
0010
0000
,
0100
0000
1000
0000
,
0100
0000
0010
0000
,
0001
0000
0000
0000
,
0001
0000
0010
0000
,
0100
0000
1000
0000
,
0100
0010
0001
0010
,
0100
0000
0000
0000
,
1001
0100
0010
0000
,
1000
0000
0001
0000
,
0001
0010
0100
0000
,
1000
0000
0001
0000
,
0010
0100
1000
0000
,
0010
0000
0100
0000
,
1000
0001
0100
0010
,
2000
0000
3000
0000
,
0001
0010
0100
0000
,
0010
0000
0100
0000
,
1000
0001
0100
0000
,
0010
0000
0100
0000
,
2000
3001
0010
0100
,
1000
0000
0001
0000
,
0001
0010
0100
1000
,
0001
0000
0010
0100
,
1001
0100
0010
1000
,
0000
0001
0010
0100
,
1000
0001
0100
0010
,
0000
0001
0000
1000
,
0001
0010
1000
0000
,
1000
0001
0100
0000
,
0010
0000
0100
0000
,
0001
1000
0001
0000
,
1001
0000
0110
0000
,
1000
0100
0010
0000
,
0011
0000
1100
0000
,
0010
0100
1000
0000
,
1000
0000
0001
0000
,
0010
0000
0100
0000
,
1000
0000
0010
0000
,
0001
0000
0000
0000
;

//--------------- dance-single - ----------------
#NOTES:
     dance-single:
     :
     Easy:
     4:
     0,0,0,0,0:
0000
0000
0000
0000
,
0000
0000
0000
0000
,
0000
0000
0000
0000
,
0000
0000
0000
0000
,
0000
0000
0000
0000
,
0001
0000
1000
0000
,
0010
0000
0100
0000
,
1000
0000
0001
0000
,
0100
0000
0010
0000
,
1000
0100
0010
0000
,
0001
0010
0100
0000
,
1000
0001
1000
0000
,
0100
0010
0001
0000
,
0010
0100
0010
0000
,
0001
0010
0001
0000
,
1000
0100
1000
0000
,
0001
0000
0000
0000
,
1000
0100
0010
0000
,
0001
0010
0100
0000
,
1000
0001
0100
0000
,
1000
0000
0001
0000
,
0010
0100
1000
0000
,
0001
0010
0100
0000
,
1000
0001
1000
0000
,
0010
0100
1000
0000
,
0010
0100
1000
0000
,
0001
0000
1000
0000
,
0010
0001
1000
0000
,
0010
0000
1000
0000
,
0001
0010
0100
0000
,
0001
1000
0001
0000
,
0100
1000
0010
0001
,
2002
0000
0000
3003
,
0001
0100
0010
0000
,
1000
0000
0001
0000
,
0010
0100
1000
0001
,
0010
0100
0001
0000
,
2000
3001
0010
0100
,
0001
0000
1000
0000
,
0010
0100
0001
0010
,
1000
0000
0001
0000
0100
0010
0100
0000
,
1001
0100
0010
0001
,
1000
0001
0010
0100
,
1000
0001
0100
0010
,
0001
0100
0010
1000
,
0001
0010
0100
0001
,
0010
0100
1000
0001
,
0100
0000
0010
0000
0001
1000
0001
0000
,
0100
0010
1001
0110
,
2001
0100
0010
3001
,
0001
0010
0001
1000
,
1002
0010
0100
1003
,
0010
0001
0100
0001
,
0001
0010
0100
1000
0001
0000
0100
0000
,
0010
1000
0001
0000
0100
0000
0010
0000
,
1000
0000
0100
0000
0010
1000
0001
0000
,
1001
0000
0000
0000
;

//--------------- dance-single - ----------------
#NOTES:
     dance-single:
     :
     Medium:
     7:
     0,0,0,0,0:
0000
0000
0000
0000
,
0000
0000
0000
0000
,
0000
0000
0000
0000
,
0000
0000
0000
0000
,
0000
0000
0000
0000
,
0001
0010
0001
1000
,
0001
0100
0010
0100
,
1000
0001
0010
0100
,
0010
1000
0001
0010
,
2001
0100
0010
3001
,
1002
0010
0100
1003
,
0010
1000
0001
0100
,
0001
1000
0010
0000
0100
0000
1000
0000
,
0001
0010
0100
0001
,
1000
0100
0010
1000
,
0001
0010
0100
1000
0001
0100
0010
1000
,
0001
0100
0010
0000
,
0002
0010
0100
1000
,
0013
0000
1000
0000
0001
1000
0001
0000
,
0002
0100
1000
1000
,
0103
0000
1000
0000
0001
1000
0001
0000
,
0010
0100
0001
1000
,
0010
0100
1000
0001
,
0010
0100
1000
0001
0100
1000
0001
0000
,
0010
0100
1001
0000
,
0001
0010
0100
0001
1000
0001
0100
0010
,
1000
0001
0010
0100
,
0001
1000
0001
0100
0010
1000
0100
0010
,
0001
0010
0100
0001
,
1000
0001
0100
0010
1000
0001
0100
0010
,
1000
0001
0010
0100
,
1000
0001
0100
0010
0001
0010
0100
1000
,
0001
0000
0000
1000
0000
0000
0001
0000
0100
0000
0010
0000
1000
0000
0000
0000
,
0101
0000
1010
0000
0100
0010
1000
0001
,
0100
0010
0001
0100
,
0010
0100
1000
0001
0100
0010
1000
0000
,
0001
0010
0100
0001
,
2000
0000
3001
0010
0100
1000
0001
0000
,
0100
0010
0001
1000
,
0001
0010
0100
1000
0001
0010
0100
0001
,
1000
0000
0000
0100
0000
0000
0010
0000
0001
0000
0000
0000
1001
0000
0000
0000
,
0110
0000
1000
0000
0010
0100
1000
0001
,
0100
0000
0010
0000
1000
0001
0100
0000
,
0010
0000
0100
0000
0001
0100
0001
1000
,
0001
0100
0010
0100
,
1000
0001
0100
0010
0001
1000
0001
0010
,
0100
0000
0001
1000
0001
0100
0010
0000
,
1000
0001
0100
0000
0010
0100
1000
0001
,
0100
0010
0100
1000
,
1001
0110
0002
0010
,
0100
1003
0010
0100
,
0001
0010
0100
1000
,
0100
0010
1000
0001
,
0010
0100
1000
0001
,
0010
0100
1000
0001
,
0010
0100
1000
0001
0100
0010
1000
0001
,
1001
0000
0000
0000
;

//--------------- dance-single - ----------------
#NOTES:
     dance-single:
     :
     Hard:
     12:
     0,0,0,0,0:
0000
0000
0000
0000
,
0000
0000
0000
0000
,
0000
0000
0000
0000
,
0000
0000
0000
0000
,
0000
0000
0000
0000
,
2000
0100
0010
3001
,
0002
0010
0100
1003
,
0020
0100
1030
0200
,
0010
0301
0000
0000
,
0001
0000
0010
0000
0100
0000
1000
0001
,
0100
0000
0010
0000
0100
0000
1000
0001
,
0100
0010
0001
0010
,
0100
0000
1000
0000
0001
0010
0100
0000
,
1000
0000
0001
0000
0001
1000
0001
0000
,
0100
0000
0010
0000
0001
0010
0001
0000
,
0010
0100
1000
0000
0010
0100
1000
0000
,
0001
1000
0001
0000
,
0002
0010
0100
1003
,
0100
0010
0001
1001
,
0100
1000
0010
0001
,
2000
0100
0010
3001
,
0002
0010
0100
1003
,
1000
0001
0010
0100
,
1000
0100
0010
0001
0010
0100
1000
0001
,
0010
1000
0001
1001
,
0010
0100
0010
0100
0010
0100
0010
0100
,
0001
0100
0001
0100
1000
0100
1000
0100
,
0001
0010
1000
0010
0001
0010
1000
0010
,
0001
0010
1000
0010
0001
0110
0000
0000
,
0001
0000
0000
0100
0000
0000
1000
0000
0000
0100
0000
0000
0001
0000
1000
0001
0000
0000
0100
0000
0000
0001
0000
0000
,
1000
0000
0001
1000
0000
0000
0100
0000
0000
1000
0000
0000
0010
0000
0000
0010
0000
0000
0110
0000
0000
0000
0000
0000
,
0001
0000
0000
0000
0000
0000
0011
0000
0000
0000
0000
0101
0000
0000
0000
1010
0000
0000
0000
0000
1100
0000
0000
0000
,
2002
0000
0000
3003
,
0010
0100
0010
0100
0010
0100
0010
0100
,
0001
0100
0010
0100
1000
0100
0010
0100
,
0001
0010
1000
0010
0001
0010
1000
0010
,
0001
0100
1000
0100
0010
0001
0010
1000
,
0200
0000
0310
0100
0010
0100
0010
0100
,
1000
0100
0010
0100
0001
0100
0010
0100
,
1000
0010
0001
0010
1000
0010
0001
0010
,
0200
0000
0000
0310
,
1001
0001
0010
0001
0010
0001
0010
0100
,
1000
0001
1000
0001
1000
0001
1000
0000
,
0001
0010
0001
0010
0001
0010
0001
0010
,
0100
0010
1000
0010
1000
0010
1000
0001
,
0100
0010
0100
0010
0100
0010
0100
0010
,
0100
1000
0001
1000
0001
1000
0001
0100
,
0010
0100
1000
0001
0010
0100
1000
0001
,
0010
0010
0110
1001
,
1002
0010
0100
1003
,
2001
0100
0010
3001
,
0010
0100
1000
0001
,
0100
0001
1000
0001
,
0100
1000
0001
0100
0010
1000
0001
0000
,
0010
1000
0001
0100
0010
1000
0001
0000
,
0010
0100
1000
0001
0100
0010
1000
0001
,
0010
0000
0000
0000
;
