
//----- song ID: dayl -----//
#TITLE:大勇者リネンくん ~最強のDDRパッド伝説~;
#ARTIST:NAMCO Sound Team "Kawagen Kollagen";
#TITLETRANSLIT:Daiyusha Linen-Kun ~Saikyo no DDR Pad Densetsu~;
#GENRE:ナムコオリジナル;
#MUSIC:Daiyusha Linen-Kun -Saikyo no DDR Pad Densetsu-.ogg;
#BANNER:Daiyusha Linen-Kun -Saikyo no DDR Pad Densetsu-.png;
#BACKGROUND:Daiyusha Linen-Kun -Saikyo no DDR Pad Densetsu--bg.png;
#CDTITLE:./CDTitles/NSD A3.png;
#SAMPLESTART:11.880;
#SAMPLELENGTH:15.000;
#SELECTABLE:YES;
#OFFSET:0.000;
#BPMS:0.000=120.000
,6.000=135.000
,26.000=140.000
,66.000=70.000
,67.000=120.000
,83.000=140.000
,99.000=125.000
,111.000=150.000
,111.500=154.000
,112.000=130.000
,113.000=140.000
,114.000=153.000
,115.000=165.000
,116.000=182.000
,117.000=202.000
,118.000=223.000
,119.000=270.000
,120.000=152.000
,150.000=120.000
,158.000=152.000
,178.000=105.000
,194.000=152.000
,214.000=105.000
,276.000=100.000
,277.000=84.000
,278.000=123.160
;
#STOPS:;
#DISPLAYBPM:105.000:152.000;
#BGCHANGES:;
#FGCHANGES:;

//--------------- dance-single - ----------------
#NOTES:
     dance-single:
     :
     Beginner:
     3:
     0,0,0,0,0:
0000
0000
0000
0000
,
0000
0000
0000
0000
,
0000
0000
0000
0000
,
0000
0000
0000
0000
,
0000
0000
0000
0000
,
0000
0000
0000
0000
,
0000
0000
0000
0000
,
0000
0000
0000
0000
,
0000
0000
0000
0000
,
0100
0000
0000
0110
,
0000
0000
1000
0000
,
0000
0000
0001
0000
,
0000
0100
0000
0000
,
0100
0000
0000
0001
,
0000
1000
0001
0000
,
0010
0000
0100
0000
,
1000
0000
0000
0010
,
0000
0000
0000
0000
0000
0100
0000
0000
,
0000
0000
0010
0000
,
0000
1001
0000
0000
0100
0010
0000
0000
,
0000
0000
0000
1000
,
0000
0001
0000
0100
,
0000
0010
0000
0001
,
0000
1000
0000
0001
,
0000
0100
0000
0000
,
0000
0000
0000
0000
,
0000
0000
0000
0000
,
0000
0000
0000
0000
,
2002
0000
0000
0000
,
0000
0000
0000
3003
,
0100
0000
1000
0000
,
0100
0000
0010
0000
,
0001
0000
1000
0000
,
0001
0000
1000
0000
,
0001
0000
0100
0000
,
0010
1000
0001
0000
,
1000
0001
1000
0000
,
0100
0001
2002
0000
,
0000
0000
0000
3003
,
0000
0000
1001
0000
,
0100
0000
0010
0000
,
0100
0000
0001
0000
,
1000
0000
0001
0000
,
0100
0000
0010
0000
,
0001
0000
1000
0000
,
0001
0000
0110
0000
,
0001
0000
1000
0000
,
0001
0000
0100
0000
,
0010
0000
1000
0000
,
0001
0000
0100
0000
,
1000
0000
0001
0000
,
0000
0000
0000
0000
0000
0000
0000
0000
0000
0000
2000
0000
0000
0002
0000
0000
,
0000
0000
0000
0000
0000
0000
0000
3003
,
0000
0000
0000
0000
,
0000
0000
0000
0000
,
0000
0000
0010
0000
,
0100
0000
1000
0001
,
0100
0000
0010
0000
,
0100
0000
1000
0001
,
0100
0000
0101
0000
,
0010
0000
0100
0000
,
1000
0000
1001
0000
,
0100
0000
0101
0000
,
1001
0000
0110
0000
,
1000
0000
0001
0000
,
1000
0000
0000
0000
0000
0000
0000
0000
0000
0000
0000
0000
0001
0000
0000
0000
0000
0000
0000
1000
0000
0000
0000
0000
,
0000
0000
0000
0000
0000
0000
0001
0000
0000
0000
0000
0000
0000
0000
0000
0000
0000
0000
0000
0000
0000
0000
1000
0000
0000
0000
0000
0000
0000
0000
0000
0000
0000
0000
0000
0000
0000
0000
0000
0000
0000
2002
0000
0000
0000
0000
0000
0000
,
0000
0000
0000
0000
,
3003
0000
0000
0000
,
0000
0000
0100
0100
,
0001
0000
0000
0000
;

//--------------- dance-single - ----------------
#NOTES:
     dance-single:
     :
     Easy:
     5:
     0,0,0,0,0:
0000
0000
0000
0000
,
0000
0000
0000
0000
,
0000
0000
0000
0000
,
0000
0000
0000
0000
,
0000
0000
0000
0000
,
0000
0000
0000
0000
,
0000
0000
0000
0000
,
0000
0000
0000
0000
,
0000
0000
0000
0000
,
1000
0001
1000
0000
,
0010
0000
0100
1000
,
0001
0000
0100
0000
,
0010
0000
1000
0001
,
0100
0000
0010
1000
,
0001
0100
0010
1000
,
0001
0010
0100
0010
1000
0100
0001
1000
,
0100
1000
0010
0001
0100
0000
1000
0000
,
0001
0000
0100
0000
0000
1000
0000
0001
,
0000
0100
0000
0000
0001
0000
1000
0000
,
0001
0020
0130
0000
1000
0000
0100
0000
,
0010
1000
0001
0100
1000
0000
0001
0000
,
0010
0100
1000
0001
,
0100
0010
1000
0001
,
0100
0010
1000
0001
,
0100
0000
0000
1001
,
0000
0000
0000
0000
0000
0110
0000
0000
,
0000
0000
0000
0000
0000
0000
0000
0000
0000
0000
0000
0000
0000
1001
0000
0000
0000
0000
0000
0000
0000
0000
0000
0000
,
0000
0000
0000
0000
0000
0000
0000
0110
0000
0000
0000
0000
0000
0000
0000
0000
,
0020
0000
0000
0000
,
0000
0000
0000
0000
,
0130
1000
0001
0100
,
1000
0001
0100
0000
0010
0000
0100
0000
,
1000
0001
0100
0010
,
1000
0001
0100
0000
0010
0000
0100
0000
,
1000
0000
0001
0000
0100
1000
0001
0000
,
0100
0010
1000
0001
,
0100
0000
0010
0000
1000
0000
0001
1000
,
0001
0000
1000
0001
1000
0000
0000
0000
,
0000
0000
0000
0000
,
0000
0000
0101
0010
,
1000
0000
0001
0000
0100
1000
0001
0000
,
0100
0010
0100
1000
,
0001
0100
0010
1000
,
0001
0100
1000
0001
,
1000
0000
0001
1000
,
0001
0100
0010
0000
1010
0000
0001
0000
,
0100
0010
0001
1000
,
0001
0100
0010
0000
1000
0000
0001
0000
,
0100
0010
1000
0000
0001
0000
1000
0000
,
0001
0100
0010
0100
,
1000
0001
1000
0000
,
0000
0000
0000
0000
0000
0000
0000
0000
0000
0000
1001
0000
0000
0220
0000
0000
,
0000
0000
0000
0000
0000
0000
0000
0330
,
0000
0000
1000
0001
,
0100
0000
0000
0001
0000
0000
0000
2002
0000
0000
0000
0000
0000
0000
0000
0000
,
3003
0000
0010
0100
,
1000
0001
0100
0000
0010
0000
0100
0000
,
1000
0000
0001
0000
0100
1000
0001
0000
,
0100
0010
1000
0000
0001
1000
0001
0000
,
0100
0000
0010
0000
0001
0000
1000
0001
,
0100
0010
0110
1000
,
0001
0100
0010
0000
1001
0000
0100
0000
,
0010
0100
1010
0100
,
1001
0010
0101
0000
,
1000
0001
1000
0100
,
0001
0000
0000
0000
0000
0000
0000
0000
0000
0000
0000
0000
0010
0000
0000
0000
0000
0000
0000
1000
0000
0000
0000
0000
,
0000
0000
0000
0000
0000
0000
0001
0000
0000
0000
0000
0000
0000
0000
0000
0000
0000
0000
0000
0000
0000
0000
0110
0000
0000
0000
0000
0000
0000
0000
0000
0000
0000
0000
0000
0000
0000
0000
0000
0000
0000
2002
0000
0000
0000
0000
0000
0000
,
0000
0000
0000
3003
,
1001
0000
0000
0000
,
0000
0000
0100
0100
,
0001
0000
0000
0000
;

//--------------- dance-single - ----------------
#NOTES:
     dance-single:
     :
     Medium:
     10:
     0,0,0,0,0:
0000
0000
0000
0000
,
0000
0000
0000
0000
,
0000
0000
0000
0000
,
0000
0000
0000
0000
,
0000
0000
0000
0000
,
0000
0000
0000
0000
,
0000
0000
0000
0000
,
0000
0000
0000
0000
,
0000
0000
0000
0000
,
0100
0000
0000
0001
0000
0000
0100
0000
0000
0001
0000
0000
0100
0000
0000
0000
0000
0000
1001
0000
0000
0000
0010
0000
,
0100
0000
0000
0010
0000
0000
1000
0000
0010
0001
0000
0000
,
0100
0000
0000
1000
0000
0000
0001
0000
0000
0100
0000
0000
0010
0000
0000
0000
1000
0000
0100
0000
0000
0000
0000
0000
,
1000
0000
0000
0000
0000
0000
0001
0000
0000
0000
0010
0000
1000
0000
0000
0001
0000
0000
0100
0000
0000
0000
0000
0000
,
0010
0000
0000
1000
0000
0000
0001
0000
0000
0100
0000
0000
0010
0000
0000
0000
0010
0000
0100
0000
0000
0000
0000
0000
,
1000
0000
0000
0001
0000
0010
0100
0000
0000
1000
0000
0000
,
0001
0010
0100
1000
0001
0100
0010
0100
,
1000
0001
0100
1000
0010
0000
1000
0000
,
0100
0001
0000
0100
,
1000
0010
0100
1000
,
0010
2000
0002
0000
3003
0000
0010
0000
,
0100
0000
0000
1000
0000
0000
0100
0000
0000
0010
0000
0000
0001
0000
0000
0000
0000
0000
1000
0000
0000
0000
0010
0000
,
0001
0000
0100
1000
0010
0100
0010
0000
,
1000
0000
0000
0000
0010
0000
0001
0000
0000
0000
0000
0000
0100
0000
0000
0010
0000
0000
0100
0000
0000
0000
0000
0000
,
1000
0000
0010
0001
0000
0000
0100
0000
1000
0010
0000
0000
,
1000
0010
0100
2002
,
0000
0000
0000
3003
0000
2002
0000
0000
,
0000
0000
0000
0000
0000
0000
3003
0000
0000
0000
0000
0000
0000
0220
0000
0000
0000
0000
0000
0000
0000
0000
0000
0000
,
0000
0000
0000
0000
0000
0000
0000
0000
0000
0000
0330
0000
0000
0000
0000
0000
0000
0000
0000
0000
0000
2002
0000
0000
0000
0000
0000
0000
0000
0000
0000
0000
0000
0000
0000
0000
3003
0000
0000
0000
0000
0000
0000
0000
0000
0000
0000
0000
,
1000
0001
0100
0010
,
0100
1000
0001
0100
,
0010
0100
1000
0000
0001
1000
0010
0000
,
0100
0001
1000
0010
0001
0010
0100
1000
,
0010
0001
0100
0000
1000
0010
0001
0000
,
1000
0001
0100
0000
0010
1000
0001
0010
,
0100
0010
0100
1000
0001
0010
0100
0000
,
0010
1000
0100
0000
1000
0001
0100
1000
,
0010
1000
0001
0010
0100
0010
0100
0010
,
1000
0001
0100
0010
0100
0000
0000
0000
,
0000
0000
0000
0000
,
0000
0000
1001
0100
,
0010
1000
0001
0100
,
0010
0000
0001
0000
1000
0001
0100
0000
,
0010
0100
1000
0000
0001
0100
0010
0000
,
1000
0001
0100
0010
,
0000
0000
0000
0000
0000
0000
0000
0000
1000
0000
0001
1000
0100
0000
0010
0000
,
0001
0000
1000
0010
0001
0000
0010
0000
0101
0000
0000
1000
0001
0000
0100
0000
,
0010
0001
0100
0001
1000
0000
0100
0000
0010
0000
1000
0001
0100
0000
0010
0000
,
1001
0000
0010
0000
0101
0000
0000
0000
1000
0000
0001
0010
0100
0000
0010
0000
,
0100
0001
1000
0000
0010
0000
0000
0000
1000
0000
0010
0000
0001
0000
1000
0000
,
0100
0010
1000
0010
0001
1000
0001
0100
,
0010
0100
1000
0010
0001
1000
0000
0000
,
0000
0000
0000
0000
0000
0000
0000
0000
0000
0000
1001
0000
0000
0220
0000
0000
,
0000
0000
0000
0000
0000
0000
0000
0330
,
0000
0000
2000
3200
,
2300
0000
0000
3002
0000
0000
0000
2000
0000
0000
0000
0000
0000
0000
0000
0000
,
3003
1000
0000
0000
0001
1000
0001
0000
,
0100
1000
0001
0000
0010
0001
0010
0100
,
1000
0000
0001
0000
0100
0010
1000
0000
,
0001
1000
0001
0000
0100
0010
0001
0010
,
0100
0000
1000
0000
0001
0100
0010
0001
,
1000
0000
0001
0000
0100
0010
0001
0100
,
0010
0000
1000
0000
0001
0100
0010
0000
,
1000
0001
0100
0000
0010
1000
0001
0100
,
0010
0000
0100
0000
1000
0000
0001
0000
0110
0000
0000
0000
1000
0000
0001
0010
,
0100
0000
0000
1000
0000
0000
0010
0000
0000
1000
0000
0000
0001
0000
0000
0100
0000
0000
0010
0000
1000
0000
0100
0000
,
0001
0000
0000
0000
0000
0000
0000
0000
0000
0000
0000
0000
1001
0000
0000
0000
0000
0000
0000
0110
0000
0000
0000
0000
,
0000
0000
0000
0000
0000
0000
1001
0000
0000
0000
0000
0000
0000
0000
0000
0000
0000
0000
0000
0000
0000
0000
0110
0000
0000
0000
0000
0000
0000
0000
0000
0000
0000
0000
0000
0000
0000
0000
0000
0000
0000
2002
0000
0000
0000
0000
0000
0000
,
0000
0000
0000
3003
,
1001
0000
0000
0000
,
0000
0000
0100
0100
,
0001
0000
0000
0000
;

//--------------- dance-single - ----------------
#NOTES:
     dance-single:
     :
     Hard:
     14:
     0,0,0,0,0:
0000
0000
0000
0000
,
0000
0000
0000
0000
,
0000
0000
0000
0000
,
0000
0000
0000
0000
,
0000
0000
0000
0000
,
0000
0000
0000
0000
,
0000
0000
0000
0000
,
0000
0000
0000
0000
,
0000
0000
0000
0000
,
1000
0001
1000
0001
1000
0000
0101
0000
,
0010
0000
0000
0100
0000
0000
1000
0100
0001
1000
0000
0000
,
0010
0000
0000
1000
0000
0000
0010
0000
0000
0100
0000
0000
1000
0000
0000
0000
0000
0000
0001
0000
1000
0000
0001
0000
,
0010
0000
0000
1000
0100
0001
0010
0000
0000
1000
0001
0010
,
0100
0000
0000
0000
0000
0000
1000
0000
0000
0001
0000
0000
0100
0000
0000
0000
0000
0000
1000
0000
0000
0000
0000
0000
0010
0000
0000
0000
0000
0000
0000
0000
0000
0000
0000
0000
0010
0000
0000
0000
0001
0000
0000
0000
1000
0000
0000
0000
,
0100
0000
0000
0001
0000
0000
0100
0000
0000
0001
0000
0000
0100
0000
0000
0000
1000
0000
0000
0000
0001
0000
0000
0000
0200
0000
0000
0000
0000
0000
0000
0000
0000
0000
0000
0000
0301
0000
0000
0000
0010
0000
0000
0000
1000
0000
0000
0000
,
0002
0000
0000
0003
0002
0000
0000
0003
0002
0000
0000
0003
0002
0000
0000
0003
2000
0000
0000
3000
2000
0000
0000
3000
2000
0000
0000
3000
2000
0000
0000
3000
,
1000
0001
0100
0010
0100
0000
0100
0001
,
1000
0100
0010
1000
0001
0100
0010
0100
,
1000
0001
0100
0010
0100
1000
0001
0010
,
0100
0000
0010
1000
0020
0000
0000
0000
1030
0000
0100
0000
0010
0000
1000
0000
,
0001
0100
0010
0100
1000
0000
1001
0000
,
0010
0000
1000
0001
1000
0001
1000
0000
,
0101
0000
0000
0010
0000
0000
0100
0000
0000
1000
0100
0001
,
1000
0000
0010
1000
0010
0100
1000
0000
,
0001
1000
0001
0010
0000
0000
0000
0000
0000
2002
0000
0000
,
0000
0000
0000
0000
3003
0220
0000
0000
,
0000
0000
0000
0000
0000
0330
0000
0000
0000
2002
0000
0000
0000
0000
0000
0000
,
0000
0000
0000
3003
0000
0000
0000
0220
0000
0000
0000
0000
0000
0000
0330
0000
,
0020
0000
0000
0000
0000
0000
0000
0030
0020
0000
0000
0000
0000
0000
0000
0030
0020
0000
0000
0000
0000
0000
0000
0030
0020
0000
0000
0000
0000
0000
0000
0030
,
0020
0000
0000
0000
0000
0000
0000
0030
0020
0000
0000
0000
0000
0000
0000
0030
0020
0000
0000
0000
0000
0000
0000
0030
0020
0000
0000
0000
0000
0000
0000
0030
,
0010
0000
0000
0100
0000
0000
1000
0000
0000
0010
0000
1000
0000
0010
0000
0001
0000
0000
1000
0000
0000
0100
0000
0000
,
0010
0000
0100
0000
0001
0000
1000
0000
0000
0001
0000
0000
0010
0000
0000
0001
0000
0000
0100
0000
1000
0000
0010
0000
,
1000
0000
0000
0001
0000
0000
0100
0000
1000
0000
0001
0000
1000
0000
0000
0001
0000
0000
0010
0000
0000
0100
0000
1000
,
0000
0010
0000
0001
0000
0000
1000
0000
0000
0010
0000
0000
0100
0000
0010
0000
0100
0000
1000
0000
0000
0010
0000
0000
,
0100
0000
0000
0001
0000
1000
0000
0100
0000
0010
0000
0000
1000
0000
0000
0010
0000
0000
0100
0000
0000
0010
0000
0000
,
0100
0000
0001
0000
1000
0000
0010
0000
0100
0000
0001
0000
0100
0000
0001
1000
,
0100
0001
0010
0000
1000
0000
0100
0000
1000
0000
0010
0000
0100
0000
0001
0000
,
1000
0010
0100
0001
1000
0000
0100
0000
2002
0000
0000
0000
0000
0000
0000
0000
,
0000
0000
0000
0000
,
0000
0000
0000
0000
0000
0000
3003
0000
0000
0000
0000
0000
1001
0000
0000
0010
0000
0000
0001
0000
0000
0100
0000
0001
,
0000
0100
0000
1000
0000
0000
0001
0000
0000
0010
0000
0000
0100
0000
0010
0000
1000
0000
0001
0000
0000
1000
0000
0000
,
0100
0000
0000
1000
0000
0100
0000
0001
0000
1000
0000
0000
0001
0000
0000
1000
0000
0000
0010
0000
0001
0000
1000
0000
,
0001
0000
0000
1000
0000
0000
0100
0000
0000
0010
0000
0001
0000
0100
0000
1000
0000
0000
0001
0000
0000
0100
0000
0000
,
0010
0000
0100
0000
0010
0000
0001
0000
0000
0100
0000
0000
0010
0000
0000
1000
0000
0001
0000
0010
0000
0100
0000
0000
,
0000
1000
0000
0000
0010
0000
0000
0000
1000
0000
0001
1000
0100
0010
0001
0000
,
1000
0000
0100
1000
0020
0000
0230
0000
2300
0000
0000
3001
0000
0100
0000
0000
,
0001
0000
1000
0100
0010
1000
0001
0000
1000
0000
0001
1000
0100
0010
0001
0000
,
1000
0000
0100
1000
0010
0001
0100
0000
0001
1000
0100
0001
0000
0010
0100
0001
,
1000
0000
0000
0000
0000
0000
0010
0000
0000
0100
0000
0000
1000
0000
0000
0000
0000
0000
0000
0000
0000
0000
0000
0000
0010
0000
0000
0000
0000
0000
0100
0000
0000
0000
0000
0000
1000
0000
0000
0000
0000
0000
0010
0000
0000
0000
1000
0000
,
0000
0010
0000
0001
0000
0000
1000
0000
0000
0100
0000
0000
0010
0000
0100
0000
0001
0000
1000
0000
0000
0001
0000
0000
,
0010
0000
0000
0001
0000
0000
0100
0000
1000
0000
0010
0000
1000
0000
0000
0001
0000
0000
0000
0000
0000
0000
0000
0000
,
0000
0000
0000
0000
0000
0000
0000
0000
0000
0000
1001
0000
0000
0220
0000
0000
,
0000
0000
0000
0000
0000
0000
0000
0330
,
0000
0000
0000
0000
1000
0010
0100
1000
,
0001
0000
0000
1000
0000
0000
0000
0001
0000
0000
0000
0000
0000
0000
0000
0000
,
0000
0000
0001
0000
1000
0010
0100
1000
0100
0000
1000
0000
0010
0000
1000
0000
,
0001
0000
1000
0000
0001
0010
0100
1000
0001
0000
1000
0000
0100
0000
0010
0000
,
0001
0000
0100
0000
0001
0010
1000
0010
0100
0000
1000
0000
0010
0000
1000
0000
,
0010
0000
0100
0000
0001
0010
1000
0100
0001
0000
0100
0000
0010
0000
0100
0000
,
0001
0100
0001
0010
0101
1000
0010
0100
,
0001
0000
0100
1000
0010
0001
0100
1000
0010
0000
1000
0000
0010
0000
0100
0000
,
0001
0000
1000
0000
0100
0000
0010
0000
0100
0001
1000
0000
0001
0000
0100
0000
,
0001
0000
1000
0000
0100
0000
0010
0000
0001
1000
0100
0000
0001
0000
0100
0000
,
0010
0100
1000
0000
0010
0000
0100
0000
2002
3003
0000
0000
0100
0000
1000
0010
,
0001
0000
0000
1000
0000
0000
0010
0000
0000
0100
0000
0000
1000
0000
0000
0001
0000
0000
1000
0000
0001
0000
1000
0000
,
0001
0000
0000
0000
0000
0000
0001
1000
0001
1000
0001
1000
0001
0000
0000
0000
0000
0000
0000
0110
0000
0000
0000
0000
,
0000
0000
0000
0000
0000
0000
1001
0000
0000
0000
0000
0000
0000
0000
0000
0000
0000
0000
0000
0000
0000
0000
0110
0000
0000
0000
0000
0000
0000
0000
0000
0000
0000
0000
0000
0000
0000
0000
0000
0000
0000
2002
0000
0000
0000
0000
0000
0000
,
0000
0000
3003
0000
,
1001
0000
0000
0000
,
0000
0000
0100
0100
,
0001
0000
0000
0000
;
