#TITLE:Cosmic Lollipop;
#ARTIST:Yupei;
#GENRE:EXTRA SAVIOR A3 始動!;
#MUSIC:Cosmic Lollipop.ogg;
#BANNER:Cosmic Lollipop.png;
#BACKGROUND:Cosmic Lollipop-bg.png;
#CDTITLE:./CDTitles/NSD A3.png;
#SAMPLESTART:84.817;
#SAMPLELENGTH:15.000;
#SELECTABLE:YES;
#OFFSET:0.000;
#BPMS:0.000=116.000
,52.000=232.000
,148.000=116.000
,212.000=232.000
;
#STOPS:;
#BGCHANGES:;
#FGCHANGES:;

//--------------- dance-single - ----------------
#NOTES:
     dance-single:
     :
     Beginner:
     3:
     0,0,0,0,0:
0000
0000
0000
0000
,
0000
0000
0000
0000
,
0000
0000
0000
0000
,
0000
0000
0000
0000
,
0000
0000
0000
0000
,
0001
0000
0010
0000
,
0100
0000
0010
0000
,
1000
0100
1000
0100
,
0010
0000
0001
0000
1000
0100
0010
0000
,
0001
1000
0001
0100
,
0010
0100
0001
0000
,
1000
0001
0010
0001
,
0010
0100
1000
0000
,
0001
0000
0010
0000
,
0100
0000
0001
0000
,
1000
0000
0001
0000
,
0100
0000
0010
0000
,
0100
0000
0000
0000
,
1000
0000
0000
0000
,
0001
0000
0000
0000
,
0010
0000
0100
0000
,
0010
0000
0000
0000
,
1000
0000
0000
0000
,
0001
0000
0000
0000
,
0100
0000
0000
0000
,
1000
0000
0100
0000
,
1000
0000
0010
0000
,
0001
0000
0100
0000
,
1000
0000
0000
0000
,
0001
0000
0100
0000
,
0010
0000
0100
0000
,
1000
0000
0001
0000
,
0100
0000
0010
0000
,
1000
0000
0000
0100
,
0000
0010
0000
0001
,
0100
0000
0010
0000
,
1000
0000
0001
0000
,
0100
0000
0010
0000
,
0100
0000
1000
0000
,
0001
0000
0100
0000
,
0010
0000
0001
0000
,
0100
0010
0001
0000
,
1000
0001
0100
0000
,
0100
0000
0010
0000
,
2002
0000
3003
0000
,
0010
0000
0100
0000
,
0010
0000
0100
0000
,
1000
0000
0100
0000
,
0001
0000
0100
0000
,
0010
0000
0001
0000
,
0010
0000
1000
0000
,
0001
0010
0100
1000
,
2002
0000
3003
0000
,
0010
0000
0100
0000
,
0001
0000
0010
0000
,
0100
0000
1000
0000
,
0001
0100
0010
0000
,
1000
0000
0001
0000
,
0100
0000
0010
0000
,
0100
0000
1000
0000
,
0001
0000
0100
0000
,
0010
0000
0001
0000
,
1000
0000
0001
0000
,
0100
0000
0010
0000
,
0100
0000
1000
0000
,
0001
0000
0000
0010
,
0100
0000
0000
0010
,
1000
0000
0000
0001
,
0000
1000
0000
0100
,
0001
0000
0100
0000
,
0010
0000
1000
0000
,
0001
0000
0010
0000
,
0100
0000
0010
0000
,
1000
0000
0001
0000
,
0100
0000
0010
0000
,
0100
0000
0010
0000
,
1000
0000
0001
0000
,
1001
0000
0100
0000
,
0010
0000
0100
0000
,
0001
0000
1000
0000
,
0001
0000
0100
0000
,
0010
0000
0000
0000
,
0100
0000
0000
0000
,
0010
0000
0000
0000
,
0100
0000
0010
0000
,
1000
0000
0000
0000
,
0001
0000
0000
0000
,
0100
0000
0000
0000
,
0010
0000
0100
0000
,
0001
0000
1000
0000
,
0001
0000
0100
0000
,
0010
0000
0100
0000
,
1000
0000
0001
0000
,
0010
0000
0100
0000
,
1000
0000
0001
0000
,
0100
0000
0010
0000
,
0100
1000
0001
0000
,
0100
0000
0000
0000
,
0010
0000
0000
0000
,
0100
0000
0000
0000
,
0001
0000
0000
0000
,
1000
0000
0100
0000
,
0001
0000
0100
0000
,
0020
0000
0000
0000
,
0130
0000
1000
0000
,
1001
0000
0000
0000
;

//--------------- dance-single - ----------------
#NOTES:
     dance-single:
     :
     Easy:
     5:
     0,0,0,0,0:
0000
0000
0000
0000
,
0000
0000
0000
0000
,
0000
0000
0000
0000
,
0000
0000
0000
0000
,
0000
0000
0000
0000
,
0001
0100
0001
1000
,
0001
0100
0010
0100
,
1000
0001
0100
0000
0010
0100
1000
0001
,
0210
0000
0310
1100
,
0001
0010
0100
0001
,
1000
0001
0100
0010
0100
0000
1000
0000
,
0001
0100
0010
0100
0001
0000
1000
0000
,
0001
0000
0100
0000
0010
0100
1000
0001
,
0110
0000
1000
0000
,
0001
0100
0010
0100
,
1000
0000
0001
0000
,
0100
0001
0010
0100
,
0001
0000
1000
0000
0001
0000
0100
0010
,
0000
0000
0000
0000
1000
0000
0001
0100
,
0000
0000
0000
0000
1000
0000
0001
0100
,
0010
0000
1001
0000
,
0001
0100
0001
1000
,
0001
0100
0010
0100
,
1000
0001
0100
0010
,
0100
1000
0001
0100
,
0000
0010
0000
0100
,
0000
0010
0000
0100
,
2001
0000
3001
0000
,
0100
0001
0010
0100
,
1000
0100
0001
1000
,
0010
0100
0001
1000
,
0001
0100
0010
0001
,
0100
1000
0001
0100
,
1000
0000
0001
0000
,
0100
0000
0010
0100
,
2000
0000
0000
0000
,
3001
0010
0000
0100
0000
1000
0000
0000
,
0001
0100
0010
0100
,
1000
0001
0010
0100
,
0001
1000
0001
0100
,
0010
0100
0001
1000
,
0001
0000
0100
0000
0010
0000
0100
1000
,
0001
0000
0100
0000
0010
0100
0001
1000
,
0001
0000
0100
0000
0010
0100
1000
0001
,
0100
0010
0100
0000
1000
0001
0100
0010
,
0100
1000
0001
0000
0100
0010
0100
1000
,
0001
0100
0010
0000
1000
0001
0100
0010
,
0100
1000
0001
0000
0100
0001
1000
0001
,
0100
0010
0100
0000
1000
0001
0100
0010
,
0001
0010
0100
0001
,
0100
0010
0100
0001
,
0100
0000
1000
0000
0100
0000
0001
0100
,
2002
0000
3003
0000
,
0100
0010
1000
0001
,
0100
0010
0100
1000
,
0001
0100
0010
0100
,
1000
0001
0100
1000
,
1001
0000
0100
0010
,
0100
1000
0001
0100
,
0010
0001
0100
0010
,
1000
0001
0100
0010
,
0100
0001
1000
0001
,
0100
0010
0001
0100
,
0010
0100
1000
0001
,
0100
0010
0100
0001
,
1000
0000
0001
0000
0100
0000
0010
1000
,
0100
0000
0000
0000
0100
0000
0001
1000
,
0000
0000
0000
0000
0010
0000
1000
0100
,
0001
0000
0100
0000
,
0010
1000
0001
1000
,
0100
1000
0100
0010
,
0100
1000
0010
1000
,
0100
0010
0001
0100
,
0010
1000
0001
1000
,
0001
1000
0100
0010
,
0100
1000
0001
0010
,
0001
1000
0100
1000
,
0001
1000
0100
0010
,
0100
0010
0001
0100
,
0010
1000
0100
0010
,
0100
0010
0100
1000
,
0001
0000
0010
0000
0001
0000
1000
0100
,
0000
0000
1000
0000
0010
0000
1000
0001
,
0000
0000
0010
0000
0100
0000
1000
0100
,
0010
0100
0010
0100
,
0001
0000
0010
0000
0100
0000
1000
0100
,
0000
0000
0100
0000
0001
0000
0100
1000
,
0000
1000
0100
0010
,
0100
0000
1001
0000
,
0010
0100
0001
0010
,
0001
0100
0010
0000
,
0010
1000
0001
0100
,
0001
0010
0001
0000
,
0100
1000
0001
0010
,
0100
0010
0100
0000
,
0001
1000
0010
0100
,
0001
0010
0001
0000
,
0001
1000
0010
1000
,
0100
0010
0001
1000
,
0100
1000
0001
1000
,
0100
0010
0001
0100
,
0001
1000
0001
0100
,
0010
1000
0010
0100
,
0020
0000
0000
0000
,
0130
0000
0000
0000
0000
0000
0000
1001
;

//--------------- dance-single - ----------------
#NOTES:
     dance-single:
     :
     Medium:
     10:
     0,0,0,0,0:
0000
0000
0000
0000
,
0000
0000
0000
0000
,
0000
0000
0000
0000
,
0000
0000
0000
0000
,
0000
0000
0000
0000
,
0010
0001
0100
1000
0010
0000
1000
0100
,
0001
0010
0100
1000
0001
0010
1000
0001
,
0100
0001
1000
0100
0001
0010
0100
0010
,
0002
0000
0000
0000
0100
0000
0000
0000
0013
0000
1000
0000
0100
0000
0001
1000
,
0010
0001
1000
0010
0100
1000
0010
0001
,
0100
0001
0010
1000
0200
0000
1300
0010
,
0001
0010
0100
1000
0002
0000
1003
0001
,
0100
0010
1000
0001
0100
1000
0010
0100
,
0001
0100
0001
0100
,
0001
0000
0010
0000
0100
0000
0010
1000
,
0001
1000
0010
0100
,
0001
0010
1000
0000
0001
0000
1000
0000
,
0010
0000
1000
0000
0001
0000
0100
0010
,
0002
0000
1003
0000
0100
0000
1000
0001
,
0020
0000
1030
0000
0010
0000
0100
1000
,
0010
1000
0100
0010
,
0101
1000
0010
0100
,
0010
0000
0100
1000
0001
0000
0010
0000
,
0100
0000
0010
0000
0100
0001
1000
0000
,
0100
0000
1000
0000
0001
0000
0100
0010
,
0001
0000
1000
0001
0100
0000
1000
0001
,
0100
0000
1000
0100
0001
0000
0010
0000
,
0200
1000
0001
1000
,
0301
0000
0100
0000
0010
1000
0100
0000
,
0010
0000
0100
0000
0001
0000
1000
0100
,
0010
0000
0100
0000
0010
0000
0100
0001
,
0010
0000
1000
0000
0100
0000
0010
1000
,
0001
1000
0100
1000
,
0001
0010
0100
0000
0001
1000
0100
0000
,
0001
0010
1000
0000
0010
0000
0100
0000
,
0020
1000
0001
0100
,
0031
1000
0001
0010
,
1001
0000
0010
1000
0011
0000
0100
0001
,
0110
0000
1000
0001
0101
1010
0110
0000
,
0001
0000
0010
1000
0011
0000
1000
0100
,
0011
0000
1000
0001
0110
0000
1001
0000
,
0100
1000
0010
0000
0110
0000
1000
0100
,
0001
0000
1010
0000
0100
1000
0010
0000
,
1001
0000
0010
0001
0100
0000
1001
0010
,
0002
0000
1000
0000
0103
0000
1000
0001
,
0100
0000
0010
1000
0100
0000
0010
1000
,
0001
0000
0010
0100
0001
0000
0100
0010
,
0001
0000
0010
0001
0100
0000
1000
0001
,
0100
0000
0000
0000
1000
0000
0001
0000
0100
0000
0000
0000
0010
1000
0100
0000
,
0001
1000
0100
1000
,
0010
1000
0100
0010
,
0001
1000
0100
0000
0010
0001
1000
0000
,
0020
0100
0031
0100
,
0010
0000
0100
0000
0010
0000
1000
0001
,
0100
1000
0010
1000
,
0100
0001
0010
0000
0100
0000
0010
0000
,
0100
0000
1000
0100
0010
0000
1000
0000
,
0001
0000
0010
0000
0001
0100
1000
0000
,
0010
0000
0100
0000
0001
1000
0010
0000
,
0100
0000
0010
0000
0001
0100
1000
0000
,
0001
1000
0002
0100
,
0013
0000
0100
0000
0001
0000
0010
1000
,
0100
0000
0010
0000
0100
0000
1000
0010
,
0001
0000
0010
0000
0100
0000
0010
1000
,
0001
0000
0100
0000
0001
0000
0010
1000
,
0100
0000
0010
0000
0001
0000
0010
0001
,
0100
0000
1000
0000
0010
0000
1000
0001
,
0010
0000
0100
0000
0001
0000
1000
0100
,
0010
1000
0001
0100
,
0001
0010
1000
0000
0010
0000
1000
0000
,
0010
0001
1000
0000
0001
0000
0010
0000
,
0100
1000
0010
0000
0001
0000
0100
0000
,
0010
0001
1000
0000
0010
0000
0100
0000
,
0001
0100
1000
0000
0100
0000
0010
0000
,
0100
0010
1000
0000
0010
0000
1000
0000
,
0001
0100
1000
0000
0001
0000
0100
0000
,
0001
1000
0010
0000
0100
0000
0010
0000
,
0100
0000
1000
0010
0001
0000
0100
0000
,
0001
0000
1000
0100
0010
0000
1000
0000
,
0010
0000
1000
0010
0001
0000
0010
0001
,
0100
0000
1000
0001
0100
0001
0010
0000
,
0101
0000
1000
0000
0010
0000
0100
1000
,
0002
0000
1003
0000
0010
0000
1000
0001
,
0200
1300
0001
0010
,
0100
1000
0100
1000
,
0101
0000
0010
0000
0001
0000
1000
0100
,
0020
0000
1030
0000
0010
0000
1000
0100
,
0002
0000
0103
0000
0010
0000
1000
0001
,
0100
1001
0010
0110
,
0010
1000
0100
1000
,
0001
1000
0001
0010
,
0100
0010
0100
0010
,
0001
0100
0010
0100
,
0001
1000
0010
0100
,
0010
1000
0001
0010
,
0001
1000
0010
0100
,
0001
0100
0010
0100
,
0001
1000
0010
0000
0001
0000
0100
0000
,
0010
1000
0100
0000
0001
0000
0100
0000
,
0001
0010
1000
0000
0100
0000
1000
0000
,
0001
1000
0010
0000
0100
0000
0010
0000
,
0100
0001
1000
0000
0001
0010
0100
0000
,
0001
1000
0100
0000
0001
1000
0010
0000
,
0020
0000
0000
0000
,
0130
0000
0000
0000
0001
0000
0000
1001
;

//--------------- dance-single - ----------------
#NOTES:
     dance-single:
     :
     Hard:
     16:
     0,0,0,0,0:
0000
0000
0000
0000
,
0000
0000
0000
0000
,
0000
0000
0000
0000
,
0000
0000
0000
0000
,
0000
0000
0000
0000
,
0010
0001
1000
0010
0100
0001
0100
1000
0010
0000
0001
0010
0100
1000
0100
0001
,
0000
0100
0010
0001
1000
0100
0010
1000
0000
0100
0001
1000
0010
1000
0001
0010
,
0100
0001
1000
0100
0000
0010
0001
0010
0000
0100
0001
0100
1000
0100
0001
0010
,
0200
0000
0000
0000
0010
0000
0000
0000
0301
0000
1000
0000
0010
0001
0100
0000
,
0001
0000
1000
0100
0010
0000
0001
0000
0100
0010
0000
0100
1000
0000
0001
0010
,
0200
0000
0300
0000
0010
1000
0010
0000
0100
0000
1000
0100
0020
0000
0031
0000
,
1000
0000
0200
0000
0320
0000
1030
0000
0001
0000
0010
1000
0200
0000
0301
0000
,
0010
0000
0001
0010
0200
0000
2300
0000
3010
0000
0100
0000
1001
0000
0010
0100
,
0010
0100
1000
0100
0001
0010
0100
0000
,
0010
0000
0100
0001
0010
0100
1000
0010
,
0002
0000
0023
0000
0130
0001
1000
0000
,
0010
0100
1000
0001
0010
0100
1000
0001
,
0100
0001
0010
1000
0000
0000
1100
1100
,
0000
0000
0100
1000
0010
0000
0110
0110
,
0000
0000
0100
0010
0001
0000
1000
0000
,
0002
1003
0020
0130
,
0010
0001
1000
0010
0100
0001
0100
1000
,
0010
0000
0001
0010
0100
1000
0100
0001
,
0000
0100
0010
0001
1000
0100
0010
1000
,
0000
0100
0001
1000
0010
1000
0001
0010
,
0100
0001
1000
0100
0000
0010
0001
0010
,
0000
0100
0001
0100
1000
0100
0001
0010
,
2000
0100
0010
0100
,
3001
0000
1000
0000
0010
0001
0100
0000
,
0010
1000
0001
0100
0010
1000
0010
0001
,
0100
0000
1000
0100
0010
0001
0010
1000
,
0000
0010
0100
1000
0001
0010
0100
0001
,
0000
0010
1000
0001
0100
0001
1000
0100
,
0010
1000
0001
0010
0000
0100
1000
0100
,
0000
0010
1000
0010
0001
0010
1000
0100
,
0020
0100
0100
0100
,
1030
0000
0001
0000
0100
1000
0010
0000
,
1100
0000
0010
1000
0011
0000
0100
0001
,
0110
0000
1000
0001
0101
1010
0110
0000
,
0001
0000
0010
1000
0011
0000
1000
0100
,
0011
0000
1000
0001
0110
0000
1001
0000
,
0100
0000
1000
0001
0010
0000
0001
0000
0110
0000
0000
0000
1000
0000
0100
0010
,
0001
0000
0100
0000
1010
0000
0000
0000
0100
0000
1000
0001
0010
0000
0100
0000
,
1001
0000
0000
0000
0010
0000
0001
1000
0100
0000
0010
0000
1001
0000
0010
0000
,
0002
0010
0100
0010
0103
0000
1000
0001
,
0100
1000
0100
0001
0010
0100
1000
0001
,
0010
1000
0100
0010
0001
0010
1000
0001
,
0100
1000
0010
0100
0001
0010
0100
0010
,
0001
0100
1000
0001
0010
1000
0100
0001
,
0010
0001
1000
0010
0100
0001
0100
1000
0010
0000
0001
0010
0100
1000
0100
0001
,
0000
0100
0010
0001
1000
0100
0010
1000
0000
0100
0001
1000
0010
1000
0001
0010
,
0100
0001
1000
0100
0000
0010
0001
0010
0000
0100
0001
0100
1000
0100
0001
0010
,
0200
0000
0000
0000
0010
0000
0000
0000
0301
0000
1000
0000
0010
0001
0100
0000
,
0001
0000
1000
0100
0010
0000
0001
0000
,
0100
0010
0000
0100
1000
0000
0001
0010
,
0200
0000
0300
0000
0010
1000
0010
0000
,
0100
0000
1000
0100
0020
0000
0031
0000
,
1000
0200
0320
1030
,
0001
0000
0010
1000
0200
0000
0301
0000
,
0010
0000
0001
0010
0200
0000
2300
0000
,
3010
0000
0100
0000
1001
0000
0010
0100
,
0010
0100
1000
0100
0001
0010
0100
0000
,
0010
0000
0100
0001
0010
0100
1000
0010
,
0002
0000
0023
0000
0130
0001
1000
0000
,
0010
0100
1000
0001
0010
0100
1000
0001
,
0100
0001
0010
1000
0000
0000
1100
1100
,
0000
0000
0100
1000
0010
0000
0110
0110
,
0000
0000
0100
0010
0001
0000
1000
0000
,
0002
1003
0020
0130
,
0010
0001
1000
0010
0100
0001
0100
1000
,
0010
0000
0001
0010
0100
1000
0100
0001
,
0000
0100
0010
0001
1000
0100
0010
1000
,
0000
0100
0001
1000
0010
1000
0001
0010
,
0100
0001
1000
0100
0000
0010
0001
0010
,
0000
0100
0001
0100
1000
0100
0001
0010
,
2000
0100
0010
0100
,
3001
0000
1000
0000
0010
0001
0100
0000
,
0010
1000
0001
0100
0010
1000
0010
0001
,
0100
0000
1000
0100
0010
0001
0010
1000
,
0000
0010
0100
1000
0001
0010
0100
0001
,
0000
0010
1000
0001
0100
0001
1000
0100
,
0010
1000
0001
0010
0000
0100
1000
0100
,
0000
0010
1000
0010
0001
0010
1000
0100
,
0020
0100
0100
0100
,
1030
0000
0001
0000
0100
1000
1010
0000
,
0100
0001
0010
1000
0000
0000
1100
1100
,
0000
0000
0100
1000
0010
0000
0110
0110
,
0000
0000
0100
0010
0001
0000
1000
0000
,
0002
1003
0020
0130
,
0010
0001
1000
0010
0100
0001
0100
1000
,
0010
0000
0001
0010
0100
1000
0100
0001
,
0000
0100
0010
0001
1000
0100
0010
1000
,
0000
0100
0001
1000
0010
1000
0001
0010
,
0100
0001
1000
0100
0000
0010
0001
0010
,
0000
0100
0001
0100
1000
0100
0001
0010
,
2000
0100
0010
0100
,
3001
0000
1000
0000
0010
0001
0100
0000
,
0010
0001
1000
0010
0100
0001
0100
1000
,
0010
0000
0001
0010
0100
1000
0100
0001
,
0000
0100
0010
0001
1000
0100
0010
1000
,
0000
0100
0001
1000
0010
1000
0001
0010
,
0100
0001
1000
0100
0000
0010
0001
0010
,
0000
0100
0001
0100
1000
0100
0001
1000
,
0220
0000
0000
0000
,
0330
0000
0000
0000
0000
0000
0000
1001
;
