
//----- song ID: corb -----//
#TITLE:Corruption Break;
#ARTIST:NAMCO Sound Team "Massive New Krew VS. RoughSketch" feat. RiraN + Cream;
#GENRE:EXTRA EXCLUSIVE;
#MUSIC:Corruption Break.ogg;
#BANNER:Corruption Break.png;
#BACKGROUND:Corruption Break-bg.png;
#CDTITLE:./CDTitles/NSD A3.png;
#SAMPLESTART:98.274;
#SAMPLELENGTH:15.000;
#SELECTABLE:YES;
#OFFSET:0.000;
#BPMS:0.000=52.500
,18.000=420.000
,34.000=52.500
,35.000=105.000
,36.000=840.000
,40.000=210.000
,41.000=420.000
,67.000=105.000
,68.000=840.000
,72.000=420.000
,88.000=840.000
,92.000=105.000
,93.000=210.000
,94.000=105.000
,95.000=420.000
,129.000=210.000
,130.000=420.000
,154.000=210.000
,155.000=420.000
,157.000=210.000
,158.000=420.000
,160.000=105.000
,168.000=210.000
,188.000=420.000
,196.000=840.000
,198.000=420.000
,200.000=840.000
,204.000=210.000
,205.000=420.000
,269.000=210.000
,275.000=105.000
,278.000=52.500
,290.000=840.000
,298.000=105.000
,323.000=210.000
,329.000=420.000
,347.000=210.000
,348.000=420.000
,476.000=840.000
,496.000=210.000
,497.000=420.000
,503.000=840.000
,519.000=26.250
;
#STOPS:196.000=0.500
,197.000=0.500
,198.000=0.286
,476.000=0.500
,477.000=0.500
,478.000=0.500
,487.000=0.500
,519.000=4.571
;
#DISPLAYBPM:*;
#BGCHANGES:;
#FGCHANGES:;

//--------------- dance-single - ----------------
#NOTES:
     dance-single:
     :
     Beginner:
     4:
     0,0,0,0,0:
0000
0000
0000
0000
,
0002
0000
2003
0000
,
3002
0000
1003
0100
,
0010
0000
0001
0000
1000
0100
0001
1000
,
0100
0000
0010
0000
1000
0000
2002
3003
0220
0000
0000
0000
0000
0000
0000
0000
,
0000
0000
0000
0000
,
0000
0000
0000
0000
,
0000
0000
0000
0000
,
0000
0000
0330
0000
,
0000
0000
0000
0000
,
2002
3003
0000
0000
0000
0000
0000
0000
0000
0000
0000
0000
0000
0000
0000
0000
1000
0000
0000
0000
0000
0000
0000
0000
0000
0000
0000
0000
0000
0000
0000
0000
0000
0000
0000
0000
0000
0000
0000
0000
0000
0000
0000
0000
0000
0000
0000
0000
0100
0000
0000
0000
0000
0000
0000
0000
0000
0000
0000
0000
0000
0000
0000
0000
,
0000
1000
0000
0001
,
0000
0100
0000
0010
,
0000
0100
0000
1000
,
0000
0001
0000
0010
,
0000
0100
0000
0010
,
0000
1000
0000
0000
,
0000
0000
0000
0000
,
0001
0000
0010
0000
,
0100
0000
1000
0000
,
0001
0000
0010
0000
,
0100
0000
0010
0000
,
1000
0000
0000
0000
,
0002
0000
2000
3003
,
0000
0000
0000
1001
,
0000
0100
0000
0001
,
0000
1000
0000
0001
,
0000
0100
0000
0010
,
0000
0100
0000
1000
,
0000
0000
0000
0001
,
0000
0100
0000
0000
0000
1000
0000
0000
0000
0001
0000
0000
,
0000
0000
0000
0000
,
0000
0000
1001
0000
,
0100
0000
0001
0000
,
0010
0000
1000
0000
,
0000
0100
0001
0000
,
1000
0000
0100
0000
,
0010
0000
1000
0000
,
0001
0000
0010
0000
,
0000
0110
0000
0000
,
1001
0000
0000
0000
,
1001
0000
0000
0000
,
1000
0000
0001
0000
,
0100
0000
0010
0000
,
1000
0000
0001
0000
,
0010
0000
0100
0000
,
1000
0001
0010
0100
,
1000
0000
0001
0000
,
0010
0000
0100
0000
,
1001
0100
0010
0000
,
0000
0000
0000
0000
,
2002
3003
0000
0000
0000
0000
0000
0000
0000
0000
0000
0000
0000
0000
0000
0000
1000
0000
0000
0000
0000
0000
0000
0000
0000
0000
0000
0000
0000
0000
0000
0000
0000
0000
0000
0000
0000
0000
0000
0000
0000
0000
0000
0000
0000
0000
0000
0000
0001
0000
0000
0000
0000
0000
0000
0000
0000
0000
0000
0000
0000
0000
0000
0000
,
0000
0100
0000
0010
,
0000
1000
0000
0001
,
0000
0010
0000
0100
,
0000
1000
0000
0001
,
0000
0100
0000
0010
,
0000
1000
0000
0000
,
0000
0000
0000
0000
,
0000
1000
0001
0010
,
0000
0100
0000
1000
,
0000
0010
0000
0100
,
0000
1000
0000
0001
,
0000
0010
0000
0000
,
0000
0100
0000
0000
,
0000
1000
0000
0001
,
0000
0100
0000
0010
,
0000
1001
1000
0100
,
0001
0000
0010
0000
1000
0000
0001
0100
,
1000
0000
0010
0000
0001
0000
0100
0000
1000
0010
0001
1000
0002
0000
0000
0000
,
2000
3003
0000
2000
,
0200
0300
0002
0000
3003
0000
0002
0000
,
0000
2000
3003
0000
,
0000
0000
0000
0000
,
0000
0000
0000
1000
,
0001
0010
0000
1000
,
0001
0100
0000
0010
,
0001
0100
0000
1000
,
0001
0100
0000
0010
,
0100
0001
0000
1000
,
0001
0100
0000
1000
,
0000
0001
0000
0010
,
0000
1000
0000
0000
,
0000
0001
0000
0010
,
0000
0100
0000
1000
,
0000
0002
0000
0000
,
0000
0000
0000
1003
,
1000
0000
0010
0000
,
0100
0000
0101
0000
,
1000
0000
0010
0000
,
0100
0000
1100
0000
,
0010
0000
1000
0000
,
0001
0000
0110
0000
,
1000
0000
1000
0000
,
0001
0000
0001
0000
,
0010
0000
0001
0000
,
1000
0000
0110
0000
,
0100
0000
0001
0000
,
1000
0000
0110
0000
,
0010
0000
1000
0000
,
0001
0000
0100
0000
,
0010
0000
1000
0000
,
0001
1000
0100
0000
,
0010
1000
0100
1000
,
0010
0100
0001
0000
,
0001
0100
0010
0100
,
0001
1000
0100
0000
,
0010
0001
0010
0000
,
0001
0010
0100
0000
,
1000
0100
0010
0100
,
1000
0001
0100
0000
,
0100
0001
0010
0001
,
0100
0010
1000
0000
,
1000
0010
0100
0010
,
1000
0001
0010
0000
,
0100
1000
0100
0000
,
1000
0100
0010
0000
,
0001
1000
0100
0000
,
0001
1000
0001
0000
,
0110
1001
0110
0000
,
0000
0000
0000
0000
,
0000
0000
0000
2002
,
0000
0000
0000
0000
,
0000
0000
0000
0000
,
3003
0000
0000
0000
,
0000
0000
0000
0000
,
0000
0000
0000
0000
,
0000
0000
0000
0000
,
0000
0000
0000
0000
,
0000
0000
0000
0000
0000
0000
0000
0000
0000
0000
0000
0000
0000
0000
0000
0000
0000
0000
0000
0000
0000
0000
0000
0000
0000
0000
0000
0000
0000
0000
0000
0000
0000
0000
0000
0000
0000
0000
0000
0000
0000
0000
0000
0000
0000
0000
0000
0000
0220
0330
0000
0000
0000
0000
0000
0000
0000
0000
0000
0000
0000
0000
0000
0000
;

//--------------- dance-single - ----------------
#NOTES:
     dance-single:
     :
     Easy:
     8:
     0,0,0,0,0:
0000
0000
0000
0000
,
0020
0230
2300
3002
,
0203
0000
0320
0000
1030
0001
0100
0000
,
0001
1000
0010
0000
0100
0001
1000
0100
,
0001
1000
0001
0010
0100
1000
0001
0000
0010
0000
0000
0000
0000
0000
0000
0000
,
1000
0000
0001
0000
,
0100
0000
1000
0000
,
0001
0000
0100
0000
,
1000
0000
0000
0000
2002
3003
0000
0000
,
0000
0000
0000
0000
,
0110
1001
0000
0100
,
0000
1000
0000
0001
,
0000
0010
0000
0100
,
0000
0001
0010
0100
,
0000
1000
0000
0001
,
0000
0010
0000
0100
,
0000
1000
0000
0001
,
0110
0000
0000
0000
,
1000
0001
0100
0000
,
0010
0000
1000
0000
,
0001
0000
0010
0100
,
0001
1000
0000
0000
,
0001
0000
0000
0000
,
2000
3000
0002
0003
,
0000
0000
0000
1000
,
0000
0001
0000
0010
,
0000
0100
0000
1000
,
0000
0001
0000
0010
,
0000
0100
0000
1000
,
0000
0001
0000
1000
,
0000
0100
0000
0000
0000
0001
0000
0000
0000
2000
0000
0000
,
0000
0010
0000
3200
,
0000
0000
1300
0001
,
1000
0000
0100
0000
,
0001
0000
0010
0000
,
0100
1000
0100
0000
,
0001
0000
0100
0000
,
0010
0000
0100
0000
,
1000
0000
0001
0000
,
0000
0010
0000
0000
,
1001
0000
0000
0001
1000
0000
0000
0000
0000
0000
0000
0000
0000
0000
0000
0000
,
0110
0000
0000
1000
0001
0000
0000
0000
0000
0000
0000
0000
0000
0000
0000
0000
,
0010
0100
1000
0010
,
0001
1000
0010
0001
,
0100
0010
1000
0100
,
0001
1000
0100
0001
,
0010
0100
1000
0001
,
0010
1000
0001
0000
,
0010
0100
1000
0000
,
0001
1000
0001
0000
,
0000
0000
0000
0000
,
0110
1001
0000
0000
,
0000
0100
0000
1000
,
0000
0001
0000
0100
,
0000
0010
0000
1000
,
0100
0001
0000
0100
,
0000
0010
0000
0100
,
0000
1000
0000
0200
,
0000
0000
0000
0310
,
1000
0001
0100
0001
,
0000
1000
0000
0001
,
0000
0100
0000
0010
,
0000
1000
0000
0001
,
0000
0010
0000
0100
,
0000
1000
0000
0001
,
0000
0010
1000
0001
,
0000
0010
0100
1000
,
0000
1001
0010
0100
,
0001
0000
1000
0000
0001
0000
0100
0010
,
1000
0000
0001
0000
1000
0000
0001
0000
0100
1000
0001
0100
0020
0000
0000
0000
,
2030
3000
0002
0000
0023
0030
2002
3000
,
0013
2000
3002
0203
,
0320
0030
0000
0000
,
0020
0000
0000
0000
,
0000
0000
0030
1001
,
0100
0000
0001
1000
0001
0000
0100
0000
,
0010
0000
0001
0010
0100
0000
1000
0000
,
0001
0100
0010
0001
,
0010
0000
0100
1000
0001
0000
0110
0000
,
1000
0000
0001
0010
0100
0000
1000
0001
,
0100
0000
0010
0100
1000
0000
1000
0000
,
0000
0001
0000
0100
,
0000
1000
0000
0000
,
0000
0001
0000
0010
,
0000
0100
0000
1000
,
0000
0002
0000
0000
,
0000
0000
0000
1003
,
1000
0000
0010
0000
,
0100
0000
0101
0000
,
1000
0000
0010
0000
,
0100
0000
1100
0000
,
0010
0000
1000
0000
,
0001
0000
0110
0000
,
1000
0000
1000
0000
,
0001
0000
0001
0000
,
0010
0000
0001
0000
,
1000
0000
0110
0000
,
0100
0000
0001
0000
,
1000
0000
0110
0000
,
0010
0000
1000
0000
,
0001
0000
0100
0000
,
0010
0000
1000
0000
,
0001
1000
0100
0000
,
0010
1000
0100
1000
,
0010
0100
0001
0000
,
0001
0100
0010
0100
,
0001
1000
0100
0000
,
0010
0001
0010
0000
,
0001
0010
0100
0000
,
1000
0100
0010
0100
,
1000
0001
0100
0000
,
0100
0001
0010
0001
,
0100
0010
1000
0000
,
1000
0010
0100
0010
,
1000
0001
0010
0000
,
0100
1000
0100
0000
,
1000
0100
0010
0000
,
0001
0010
0100
0000
,
1000
0001
0010
0100
,
1000
0001
1001
0000
,
0000
0000
0000
0000
,
0000
0000
0000
0110
,
2000
0000
0000
0000
,
0000
0000
0000
0000
,
3001
2002
0000
0000
,
0000
0000
0000
0000
,
0000
0000
0000
0000
,
0000
0000
0000
0000
,
0000
0000
0000
0000
,
0000
0000
0000
0000
0000
0000
0000
0000
0000
0000
0000
0000
0000
0000
0000
0000
0000
0000
0000
0000
0000
0000
0000
0000
0000
0000
0000
0000
0000
0000
0000
0000
3003
0000
0000
0000
0000
0000
0000
0000
0000
0000
0000
0000
0000
0000
0000
0000
0220
0330
0000
0000
0000
0000
0000
0000
0000
0000
0000
0000
0000
0000
0000
0000
;

//--------------- dance-single - ----------------
#NOTES:
     dance-single:
     :
     Medium:
     14:
     0,0,0,0,0:
0000
0000
0000
0000
,
2000
3002
0203
0320
,
0230
0000
0000
0000
0000
0000
0320
0000
0000
0000
0000
0000
0031
0000
1000
0010
0000
0001
1000
0000
0000
0110
0000
0000
,
1001
0000
0000
0000
0000
0000
0000
0000
0010
0000
0000
0000
0100
0000
0000
0000
0000
0000
0000
0000
1000
0000
0000
0000
0001
0000
0000
0000
0000
0000
0000
0000
0000
0000
0000
0000
0110
0000
0000
0000
0000
0000
0000
0000
0000
0000
0000
0000
1001
0000
0000
0000
0000
0000
0100
0000
0000
0010
0000
0000
0001
0000
0000
0000
0000
0000
0100
0000
0000
0000
0000
0000
1000
0000
0000
0000
0000
0000
0001
0000
0000
1000
0000
0000
0010
0000
0000
0000
0000
0000
0100
0000
0000
0000
0000
0000
,
1000
0000
0001
0100
0010
0000
0100
0000
1000
0000
0001
1000
0020
0000
0230
0000
0301
0000
0000
0000
0000
0000
0000
0000
0010
0000
0000
0000
0000
0000
0000
0000
,
0100
0010
0100
0010
,
1000
0001
0010
0100
,
0010
0000
0001
0000
0100
1000
0010
0000
,
1000
0100
0001
0000
2002
0000
3003
0000
,
0000
0000
0000
0000
,
0220
0330
0000
0000
1001
0000
0000
0000
0000
0000
0000
0000
0000
0000
0000
0000
,
0000
0000
0000
0000
,
0000
0000
0000
0000
,
0000
0000
0000
0000
,
0000
0000
0000
0000
,
0000
0000
0000
0000
,
0000
0000
0000
0000
,
0000
0000
0000
0000
,
0000
0000
0000
0000
,
0000
0000
0000
0000
,
0000
0000
0000
0000
,
0000
0000
0000
0000
,
0000
0000
0000
0000
,
0010
0000
1001
1000
,
0001
0010
1000
0001
,
0000
1000
0000
0010
,
0000
0001
0000
0000
0000
1000
0000
0000
0000
2000
0000
0000
,
3000
0200
0300
0002
,
0003
0000
0000
0110
0000
0000
0000
1000
0000
0001
0000
0000
,
0000
0100
0000
0000
0000
0001
0000
0000
0000
0100
0000
0000
,
0000
0001
0000
0000
0000
1000
0000
0000
0000
0020
0000
0000
,
0000
0000
0000
0000
0000
0000
0000
0230
,
0000
0000
0301
0000
,
0001
0100
0010
1000
,
0100
1000
0010
0100
,
0001
0010
0001
0100
,
0010
0000
1001
0000
,
1000
0100
0010
0100
,
1000
0010
0100
0001
,
0010
0100
0010
0001
,
0101
0000
0000
2000
3002
0000
0000
0000
0000
0000
0000
0000
0000
0000
0003
0000
,
1001
0000
0000
1000
0020
0000
0000
0000
0000
0000
0000
0000
0030
0000
0000
0000
,
0100
0010
1000
0001
,
0010
0001
0100
0010
,
1000
0100
0010
0001
,
0010
0100
1001
0010
,
0100
0001
1000
0000
0010
0001
1000
0000
,
0100
0000
0010
0000
0001
0000
0100
0010
,
0100
0000
0001
0000
0010
0100
0010
0000
,
0001
0110
1001
0000
,
0000
0000
0000
0000
,
2002
3003
0000
0000
0000
0000
0000
0000
0001
0000
0000
0000
0000
0000
0000
0000
0100
0000
0000
0000
0000
0000
0000
0000
1000
0000
0000
0000
0000
0000
0000
0000
,
0100
1000
0100
0001
,
0010
0001
0100
0001
,
0010
0001
0000
1001
,
0000
1000
0010
0001
,
0100
0000
0001
0000
0100
0000
1000
0001
,
0000
0010
1000
0000
0100
0000
1000
0000
,
0010
1001
0000
1001
,
1000
0001
1000
0000
0100
0000
1000
0000
,
0000
0001
0010
0100
,
1000
0001
0000
0010
,
0000
0000
0100
0000
0001
1000
0010
0000
,
0100
1000
0010
0001
,
0010
0001
0100
0000
1000
0000
0001
0000
,
0010
1000
0100
0000
0001
0000
0010
0000
,
0100
1000
0001
0010
,
0100
0001
1000
0100
,
0010
0000
1000
0000
0001
0000
0100
0010
,
1000
0000
0001
0000
0010
0000
0100
0000
1000
0001
0010
0100
0002
0000
2003
3020
,
0230
0000
0000
0000
0301
0000
0100
0000
0020
0000
0000
0000
1030
0000
0010
0000
0001
1000
0010
0000
1000
0001
0100
0000
1001
0000
0001
0000
1000
0000
0010
0000
,
1001
0000
0200
0000
0302
0000
0000
1003
0002
0000
0000
0000
1003
0000
0001
0000
1000
0000
0010
0000
0010
0000
1000
0000
0200
0000
0000
0000
0000
0000
0000
0000
,
0320
0000
0032
0003
0020
0000
0000
0000
,
0000
0000
0000
0000
,
0000
0000
0000
0000
0030
0000
0100
1000
,
0001
0000
0010
0000
0001
1000
0001
0000
0100
0000
0000
0000
0100
0000
0001
0000
,
1000
0000
0010
0000
1000
0001
1000
0000
0100
0000
0000
0000
0001
0000
0010
0000
,
1000
0000
0010
0000
0001
1000
0100
0000
0010
0000
0000
0000
1000
0000
0010
0000
,
0001
0000
0010
0000
1000
0001
0100
0000
0010
0000
0000
0000
0100
0000
1000
0000
,
0001
0000
0010
0000
0001
1000
0001
0000
0100
0000
0000
0000
0100
0000
0001
0000
,
1000
0000
0010
0000
1000
0001
1000
0000
0100
0000
0000
0000
0001
0000
0000
0000
,
0010
0000
1000
0000
0010
0000
0001
1000
,
0100
0010
0000
1000
,
0010
0000
0001
0000
0010
0000
1000
0001
,
0100
0010
0000
1000
,
0010
0200
0000
0000
,
0000
0000
0000
0301
,
1100
0000
0001
1000
0010
0000
1000
0000
,
0100
0010
0001
0000
0001
0010
0100
0000
,
1100
0000
1010
0000
,
0101
0000
0000
0000
1001
0000
0001
1000
,
0010
0000
1000
0001
0010
0000
0001
0000
,
0100
0010
1000
0000
1000
0010
0100
0000
,
0101
0000
0000
0000
0011
0000
0001
0010
,
0200
0000
0000
0000
1300
0000
0100
0010
,
0002
0000
0000
0000
1003
0000
0010
0100
,
0002
0000
0000
0000
0103
0000
0010
1000
,
0200
0000
0000
0000
1300
0000
0001
0010
,
0200
0000
0000
0000
1300
0000
1000
0010
,
1000
0000
0001
1000
0001
0000
0010
0001
,
0010
0000
0100
0010
0001
0010
0100
1000
,
0020
0000
0100
0000
,
1030
0001
0100
0010
0000
0000
0010
0100
,
0001
0000
1000
0001
0010
0000
0001
0000
,
0100
0010
1000
0000
1000
0010
0100
0000
,
0002
0000
0010
0000
,
0103
0000
0000
0000
1001
0000
1000
0001
,
0010
0000
0001
1000
0010
0000
1000
0000
,
0100
0010
0001
0000
0001
0010
0100
0000
,
1100
0000
1010
0000
,
0210
0000
0000
0000
0301
0000
0100
0010
,
2000
0000
0000
0000
3001
0000
0010
0100
,
2000
0000
0000
0000
3100
0000
0010
0001
,
0200
0000
0000
0000
0301
0000
1000
0010
,
0200
0000
0000
0000
0301
0000
0001
0010
,
0001
0000
1000
0001
1000
0000
0010
1000
,
0010
0000
0100
0010
1000
0010
0100
0001
,
0020
0000
1000
0000
,
0100
0000
0000
0000
0031
1000
0100
0010
,
0001
1001
0110
0000
,
0000
0000
0000
0000
,
0000
0000
0000
1100
,
0010
1000
0001
1000
,
0100
0010
0100
1000
,
0010
0100
0010
1000
,
0001
0010
0100
1000
,
0001
0010
0100
1000
,
0010
1000
0100
0010
,
0001
0010
0100
0010
,
0100
0000
0000
0000
0000
0000
0000
0000
0000
0000
0000
0000
0000
0000
0000
0000
1000
0000
0000
0000
0000
0000
0000
0000
0000
0000
0000
0000
0000
0000
0000
0000
0010
0000
0000
0000
0000
0000
0000
0000
0000
0000
0000
0000
0000
0000
0000
0000
2002
3003
0000
0000
0000
0000
0000
0000
0000
0000
0000
0000
0000
0000
0000
0000
;

//--------------- dance-single - ----------------
#NOTES:
     dance-single:
     :
     Hard:
     18:
     0,0,0,0,0:
0000
0000
0000
0000
,
0002
0023
0230
2300
,
3002
0000
0000
0000
0000
0000
0000
0000
0000
0000
0000
0000
0023
0000
0000
0000
0000
0000
0000
0000
0000
0000
0000
0000
0130
0000
0000
0001
0010
0100
1000
0000
0000
1000
0001
0100
0010
0000
0000
1000
0001
0100
0010
0000
0000
0010
0100
1000
,
0101
0000
0000
1000
0001
0100
0010
0000
0000
1000
0001
0100
0010
0000
0000
1000
0001
0100
0010
0000
0000
1000
0100
0010
1001
0000
0000
0010
0000
0000
1000
0000
0000
0010
0000
0000
0100
0000
0000
1000
0000
0000
0001
0000
0000
0100
0000
0000
,
0010
0001
1000
0001
0010
0100
1002
0000
1003
0000
0000
0000
0001
0000
0000
0000
,
0100
0001
1000
0100
,
0010
0001
0100
0001
,
0010
0000
0100
0000
0100
1000
0100
0010
,
0100
0010
0001
0100
2002
0000
3003
0000
,
0000
0000
0000
0000
,
2002
3003
0000
0000
2002
0000
0000
0000
3003
0000
0000
0000
0001
0000
1000
0000
,
0001
0220
0330
0202
,
0303
0000
0001
1000
0001
0100
0010
0000
,
0000
1001
0000
0101
,
1010
0101
0000
1001
,
0000
0000
1000
0100
0010
0001
1000
0000
,
0000
1001
0000
0020
,
0030
0000
0000
0000
,
1001
0110
1001
0000
,
1010
0000
0000
0000
0101
0000
1000
0100
,
1000
0000
0000
1001
0000
0000
0101
0000
,
1010
0110
1001
0000
,
0020
0000
0000
0000
,
1030
0000
0000
0100
0010
0000
0000
0000
2002
0000
3003
0000
1000
0000
0001
0000
,
0100
0010
1000
0001
0100
0000
2002
0000
,
3003
0000
0000
0000
0000
0000
2002
0000
0000
0000
0000
0000
0000
3003
0000
0000
0000
0000
0110
0000
0000
0000
0000
0000
,
0000
1010
0000
0000
0000
1001
0000
0000
0000
2002
0000
0000
,
3003
2020
3030
2002
,
3003
0000
0000
0110
0000
0000
0000
0001
0000
0010
1000
0001
,
1000
0001
0000
0110
0000
2002
3003
0000
0000
0220
0330
0000
,
0000
2020
3030
0000
0000
2002
3003
0000
0000
0220
0330
0000
,
0001
0000
0100
0000
0000
0010
0000
1000
0000
0001
0000
0010
,
0000
0000
1000
0000
0000
0000
0020
0000
0000
0000
0000
0000
0130
0000
0000
0000
0000
0000
0001
0000
0000
1000
0000
0000
,
0010
0000
0100
1000
0001
0000
1100
0000
,
0001
0100
0010
1000
0001
0100
0000
1000
,
0110
0000
1001
0000
0100
0001
1000
0010
,
0001
0000
1000
0100
1001
0000
0100
1000
,
0001
1000
0010
0000
0100
1000
0010
0100
,
0001
0000
0100
0000
1001
0000
0001
0100
,
0010
0000
1001
0000
1000
0100
0010
0000
,
2001
0000
0000
0000
0000
0000
3002
0000
0023
0000
0000
0000
0000
2030
0000
0000
0000
0000
0000
0000
0000
0000
0000
0000
0001
0000
0000
0000
0000
0000
3000
0000
,
0220
0000
0330
0001
2000
0000
0000
0000
3001
0000
0000
0000
0110
0000
0000
0000
,
0101
0101
0101
0101
,
1001
1001
1001
1001
,
0110
1001
0110
1001
,
0110
1100
1100
1001
,
0001
0100
0001
0000
0100
0001
0010
0100
,
1000
0100
2200
3300
,
1000
1000
0001
0001
,
0010
0000
0000
0000
0100
0000
0000
0000
2001
0001
0000
0000
3000
0000
0000
0000
,
0220
0000
0000
0330
,
0110
0000
0100
0000
1000
0001
0010
0000
,
0100
0010
0100
0001
,
1000
0001
1000
0100
,
1000
0001
0100
0010
,
1000
0001
0100
0010
,
1000
0000
0010
0000
1000
0000
0100
0001
,
0000
1000
0001
0000
0010
0000
0020
0000
,
0000
0000
0000
1030
,
0001
1001
1001
1100
,
0100
1000
0010
1000
,
0100
1000
0010
0000
0001
0000
1000
0000
,
0010
0000
0100
1000
0000
0001
1000
0000
,
0100
1000
0001
0010
,
0100
0001
1000
0000
0001
0000
0010
0000
,
0100
0010
0001
1000
,
0100
1000
0100
0010
,
1000
0001
1001
0101
,
1010
0000
0110
0000
0101
0000
1001
0110
,
0010
0000
0000
0000
0100
0000
0000
0000
0001
0000
0000
0000
1000
0000
0000
0000
0100
0000
0001
0000
1000
0000
0100
0000
2002
0000
3003
0002
2003
0000
3020
0000
,
0230
0000
0000
0000
2300
0000
0000
0000
3001
0000
0000
0000
0100
0001
1000
0000
0010
0000
0100
0000
0000
0000
0000
0000
1000
0000
0001
0000
0010
0000
1000
0000
0001
0000
1000
0000
0010
0000
0100
0000
1000
0000
0001
0000
0100
0000
0000
0000
1001
0000
0000
0000
1000
0000
0001
0100
1000
0000
0000
0000
0010
0000
0000
0000
,
1001
0000
0200
0000
0302
0000
0000
1003
0002
0000
0000
0000
1003
0010
0001
0100
1000
0100
0010
0001
0010
0100
1000
0001
0200
0000
0000
0000
0000
0000
0000
0000
,
0320
0000
0032
0003
0020
0000
0000
0000
,
0000
0000
0000
0000
,
0000
0000
0000
0000
0000
0000
0000
0000
0030
0000
0000
0000
1000
0001
0100
0010
,
1000
0100
0000
0010
0001
0000
0100
0010
0000
1000
0100
0000
0010
0001
0000
0000
1000
0000
0010
0000
1000
0100
1000
0000
0001
0000
1000
0000
0010
0000
0100
0000
,
0001
0100
0000
0010
1000
0000
0001
0100
0000
0000
0010
1000
0000
0100
0010
0000
0001
0010
0100
1000
0100
1000
0100
0000
1000
0001
0100
0000
0010
0000
0100
0000
,
0001
0100
0000
0001
0100
0000
0010
1000
0000
0000
0010
1000
0001
0100
0000
0000
0001
0010
0000
0001
0010
0001
0100
0000
0001
0000
0100
0000
0010
0000
1000
0000
,
0001
0010
0000
0100
0010
0000
0001
0100
0000
0010
0100
0000
0001
0000
1000
0000
0001
0000
0001
0000
0001
0000
0010
0000
1000
0000
0001
0000
0100
0000
0010
0000
,
1000
0100
0000
0010
0001
0000
0100
0010
0000
1000
0100
0000
0010
0001
0000
0000
1000
0000
0010
0000
1000
0100
1000
0000
0001
0000
1000
0000
0010
0000
0100
0000
,
0001
0100
0000
0010
1000
0000
0001
0100
0000
0000
0010
1000
0000
0100
0010
0000
0001
0010
0100
1000
0100
1000
0100
0000
1000
0000
0001
0000
0100
0000
0000
0000
,
0010
0000
0100
0000
0001
0100
0000
0001
0100
0000
0010
1000
0000
0000
0010
1000
,
0001
0100
0000
0000
0001
0000
0010
0000
0000
0000
0001
0000
0010
0000
0001
0000
,
0100
0001
0100
0010
,
1000
0000
0001
0010
0000
0100
0010
0000
,
0001
0100
0020
0000
0000
0000
0000
0000
,
0000
0000
0130
1001
,
0001
0000
1000
0001
0100
0000
0001
0000
,
0010
0100
1000
0000
0010
0100
0010
0000
,
0001
0010
0000
0000
0100
0010
0000
0000
,
0100
0001
1000
0100
,
1000
0000
0001
1000
0100
0000
1000
0000
,
0010
0100
0001
0000
0010
0100
0010
0000
,
0100
1000
0000
0000
0001
0010
0000
0000
,
0001
0100
0001
0000
0100
0000
0010
1000
,
0001
0000
0010
0000
0001
0000
0100
0010
,
1000
0000
0001
0000
0010
0000
0100
1000
,
0010
0000
1000
0000
0001
0000
1000
0100
,
0010
0000
0001
0000
1000
0000
0001
0100
,
0001
0000
1000
0001
1000
0000
0100
1000
,
0100
0000
0010
0100
1000
0100
0010
0001
,
0010
0001
1000
0100
1000
0010
0100
0010
,
1000
0001
0010
0100
0000
0000
1000
0100
,
1000
0000
0001
1000
0100
0000
1000
0000
,
0010
0100
0001
0000
0010
0100
0010
0000
,
1000
0010
0000
0000
0100
0010
0000
0000
,
0100
1000
0001
0100
,
0001
0000
1000
0001
0100
0000
0001
0000
,
0010
0100
1000
0000
0010
0100
0010
0000
,
0100
0001
0000
0000
1000
0010
0000
0000
,
1000
0100
1000
0000
0100
0000
0010
0001
,
1000
0000
0010
0000
1000
0000
0100
0010
,
0001
0000
1000
0000
0010
0000
0100
0001
,
0010
0000
0001
0000
1000
0000
0001
0100
,
0010
0000
1000
0000
0001
0000
1000
0100
,
1000
0000
0001
1000
0001
0000
0100
0001
,
0100
0000
0010
0100
0001
0100
0010
1000
,
0010
0100
0001
1000
0001
0010
0001
0010
,
0001
1000
0010
0100
0001
0010
0001
0010
,
1001
0110
1001
0002
,
0000
0000
0000
2000
,
0000
0000
0000
3003
,
0001
0010
0001
0100
,
0001
1000
0010
0100
,
0010
0100
1000
0010
,
1000
0000
0010
0000
0100
0000
0100
1000
,
0100
0010
0001
0010
0100
0010
0001
0100
,
0001
0100
0010
1000
0001
0100
0010
0100
,
0010
1000
0010
0100
0001
0010
0001
1000
,
0001
0000
0000
0000
0000
0000
0000
0000
0100
0000
0000
0000
0000
0000
0000
0000
0010
0000
0000
0000
0000
0000
0000
0000
0100
0000
0000
0000
0000
0000
0000
0000
0010
0000
0000
0000
0000
0000
0000
0000
1000
0000
0000
0000
0000
0000
0000
0000
2002
3003
0000
0000
0000
0000
0000
0000
0000
0000
0000
0000
0000
0000
0000
0000
;

//--------------- dance-single - ----------------
#NOTES:
     dance-single:
     :
     Challenge:
     19:
     0,0,0,0,0:
0000
0000
0000
0000
,
2001
3002
0023
0230
,
0320
0000
0000
0000
0000
0000
0000
0000
0000
0000
0000
0000
0230
0000
0000
0000
0000
0000
0300
0000
0000
0000
0000
0000
1001
0000
0000
0001
0010
0100
1000
0000
0000
1000
0001
0100
0010
0000
0000
1000
0001
0100
0010
0000
0000
0010
0100
1000
,
0101
0000
0000
1000
0001
0100
0010
0000
0000
1000
0001
0100
0010
0000
0000
1000
0001
0100
0010
0000
0000
1000
0100
0010
1001
0000
0000
0010
0000
0000
1000
0000
0000
0010
0000
0000
0100
0000
0000
1000
0000
0000
0001
0000
0000
0100
0000
0000
,
0010
0001
1000
0001
0010
0100
1002
0000
1003
0000
0100
0000
0001
0000
0100
0000
,
0001
0010
0100
0010
0100
0010
0001
1000
,
0010
0100
0001
0010
0001
0010
0100
0010
,
0100
0000
1000
0000
0001
0100
1000
0100
0001
1000
0010
0001
0100
0010
1000
0100
,
0001
1000
0010
1000
0001
0010
0100
1000
0020
0000
0000
0000
0130
0000
0000
0000
,
0000
0000
0000
0000
,
2002
3003
0000
0000
0000
0000
0000
0000
1010
0000
0000
0000
0000
0000
0000
0000
0110
0000
0000
0000
0000
0000
0000
0000
1001
0000
0000
0000
0000
0000
0000
0000
,
0010
0001
0100
0000
1000
0100
0010
0000
,
0101
0000
0010
0100
1000
0010
0001
0000
,
1100
0000
1001
0000
0010
1000
0100
0000
,
0011
0101
1010
1001
,
0100
1000
0001
0100
0010
1000
0001
0100
,
1000
0000
0110
0000
1001
0000
0002
1003
,
2002
0000
0000
3003
,
0110
1001
0110
0011
,
1001
0000
0001
1000
0010
0000
0001
0010
,
0100
0000
1001
0000
0010
1000
0100
0001
,
1000
0000
0100
0001
0010
1000
0001
0000
,
0220
0000
0000
0330
,
2000
0000
3200
0000
0320
0000
0031
0100
,
1000
0000
0100
0000
0001
0000
1000
0010
0001
0000
0000
0000
2002
0000
0000
0000
,
3003
0000
0000
0000
0000
0000
2002
0000
0000
0000
0000
0000
0000
3003
0000
0000
0000
0000
0110
0000
0000
0000
0000
0000
,
0000
0101
0000
0000
0000
1001
0000
0000
0000
2002
0000
0000
,
3003
0202
0303
2002
,
3003
0000
0000
0110
0000
0000
0000
1000
0000
0100
0001
1000
,
0001
1000
0000
0110
0000
2002
3003
0000
0000
0220
0330
0000
,
0000
0202
0303
0000
0000
2002
3003
0000
0000
0220
0330
0000
,
1000
0000
0010
0000
0000
0100
0000
0001
0000
1000
0000
0100
,
0000
0000
0001
0000
0000
0000
0200
0000
0000
0000
0000
0000
0310
0000
0000
0000
0000
0000
1000
0000
0000
0001
0000
0000
,
0100
0000
0010
0001
1000
0000
0011
0000
,
1000
0010
0100
0001
1000
0010
0000
0001
,
0110
0000
1001
0000
0010
1000
0001
0100
,
1000
0000
0001
0010
1001
0000
0010
0001
,
1000
0001
0100
0000
0010
0001
0100
0010
,
1000
0000
0010
0000
1001
0000
1000
0010
,
0100
0000
1001
0000
0001
0010
0100
0000
,
1002
0000
0000
0000
0000
0000
2003
0000
3200
0000
0000
0000
0000
0302
0000
0000
0000
0000
0000
0000
0000
0000
0000
0000
1000
0000
0000
0000
0000
0000
0003
0000
,
0220
0000
0330
1000
0002
0000
0000
0000
1003
0000
0000
0000
0110
0000
0000
0000
,
0001
0100
0001
0000
0100
0001
0010
0100
,
1001
0000
0101
0000
2200
3300
1100
0000
,
1000
0100
1000
0000
0110
1000
0100
0010
,
0001
1010
1001
0110
,
0001
0100
0001
0000
0100
0001
0010
0100
,
1000
0100
2200
3300
,
1000
1000
0001
0001
,
0010
0000
0000
0000
0100
0000
0000
0000
2001
0001
0000
0000
3000
0000
0000
0000
,
0220
0000
0000
0330
,
0110
0000
1000
0100
0010
0001
0010
0001
,
1000
0100
1000
0000
0010
0000
0001
0000
,
0010
0000
1000
0001
0100
0001
0010
0000
,
0001
0010
0001
0010
,
0100
0000
1000
0100
0010
0001
0010
0001
,
1000
0100
1000
0000
0010
0000
0001
0000
,
0010
0000
0100
0000
0001
1000
0001
0000
,
0010
0100
0010
1000
0010
0000
0110
0000
,
0001
0010
1000
0000
0010
0001
0010
0001
,
1000
0100
1000
0000
0010
0000
0110
0000
,
0110
0000
0001
1000
0100
1000
0010
0000
,
1000
0010
1000
1001
,
1001
1000
0010
0001
,
0010
0000
1000
0001
0010
0100
1000
0001
,
0100
0010
1000
0000
0001
1000
0001
0000
,
0010
0100
0010
1000
0010
1000
0100
1000
,
0100
0010
0001
1000
0100
0010
0100
1000
,
0001
0000
0010
0000
0100
0000
0010
0000
0001
0000
1000
0000
0001
0100
1000
0100
,
0001
0000
1000
0000
0010
0000
0001
0000
0100
0000
0010
0000
1000
0000
0010
0000
0100
1000
0001
0100
0010
0001
1000
0000
2002
0000
3003
0002
2003
0000
3020
0000
,
0230
0000
0000
0000
2300
0000
0000
0000
3001
0000
0000
0000
0100
0001
1000
0000
0010
0000
0100
0000
0000
0000
0000
0000
1000
0000
0001
0000
0010
0000
1000
0000
0001
0000
1000
0000
0010
0000
0100
0000
1000
0000
0001
0000
0100
0000
0000
0000
1001
0000
0000
0000
1000
0000
0001
0100
1000
0000
0000
0000
0010
0000
0000
0000
,
1001
0000
0200
0000
0302
0000
0000
1003
0002
0000
0000
0000
1003
0010
0001
0100
1000
0100
0010
0001
0010
0100
1000
0001
0200
0000
0000
0000
0000
0000
0000
0000
,
0320
0000
0032
0003
0020
0000
0000
0000
,
0000
0000
0000
0000
,
0000
0000
0000
0000
0000
0000
0000
0000
0030
0000
0000
0000
1000
0001
0100
0010
,
1000
0100
0000
0010
0001
0000
0100
0010
0000
1000
0100
0000
0010
0001
0000
0000
1000
0000
0010
0000
1000
0100
1000
0000
0001
0000
1000
0000
0010
0000
0100
0000
,
0001
0100
0000
0010
1000
0000
0001
0100
0000
0000
0010
1000
0000
0100
0010
0000
0001
0010
0100
1000
0100
1000
0100
0000
1000
0001
0100
0000
0010
0000
0100
0000
,
0001
0100
0000
0001
0100
0000
0010
1000
0000
0000
0010
1000
0001
0100
0000
0000
0001
0010
0000
0001
0010
0001
0100
0000
0001
0000
0100
0000
0010
0000
1000
0000
,
0001
0010
0000
0100
0010
0000
0001
0100
0000
0010
0100
0000
0001
0000
1000
0000
0001
0000
0001
0000
0001
0000
0010
0000
1000
0000
0001
0000
0100
0000
0010
0000
,
1000
0100
0000
0010
0001
0000
0100
0010
0000
1000
0100
0000
0010
0001
0000
0000
1000
0000
0010
0000
1000
0100
1000
0000
0001
0000
1000
0000
0010
0000
0100
0000
,
0001
0100
0000
0010
1000
0000
0001
0100
0000
0000
0010
1000
0000
0100
0010
0000
0001
0010
0100
1000
0100
1000
0100
0000
1000
0000
0001
0000
0100
0000
0000
0000
,
0010
0000
0100
0000
0001
0100
0000
0001
0100
0000
0010
1000
0000
0000
0010
1000
,
0001
0100
0000
0000
0001
0000
0010
0000
0000
0000
0001
0000
0010
0000
0001
0000
,
0100
0001
0100
0010
,
1000
0000
0001
0010
0000
0100
0010
0000
,
0001
0100
0020
0000
0000
0000
0000
0000
,
0000
0000
0130
1001
,
0110
0000
1001
0000
1100
0001
0010
1000
,
0010
0000
0001
0100
1000
0100
0110
0000
,
1001
0000
1010
0000
0101
0000
1000
0010
,
0100
0010
0001
0000
1000
0100
0001
0010
,
0110
1001
0011
1100
,
0001
0100
1000
0000
0100
0001
0010
0000
,
0001
0010
0100
0000
1000
0010
0100
0001
,
0101
0000
0001
0010
0100
1000
1100
0000
,
0010
1000
0100
0000
0010
0000
0001
0010
,
1000
0010
0011
0000
0001
0100
1000
0100
,
0101
1010
0101
0110
,
1000
0010
0001
0010
1000
0000
0001
0100
,
1000
0110
1001
0010
,
0100
0001
0010
0001
0101
0000
1000
0010
,
0001
0010
1010
0000
1000
0010
0100
0010
,
1010
0000
0010
0100
0010
0000
0100
0000
,
1001
1001
1001
0000
,
0110
0000
0110
0000
0110
1000
0100
0001
,
0100
0010
1000
0000
0110
0000
0101
0000
,
1001
0000
0000
0000
0010
0000
0000
0000
0100
0000
1000
0000
0010
1000
0100
0001
,
0100
0000
0001
0010
0100
0000
1000
0001
,
0010
0000
0100
1000
0010
0100
0001
0000
,
0010
0100
1000
0001
0010
0001
0100
0000
,
0001
1000
0100
0000
1000
0100
0110
0000
,
0001
0100
0110
0000
1000
0100
0110
0000
,
0001
0100
0110
0000
1000
0010
0001
0010
,
1000
0100
0001
0100
1000
0010
1000
0100
,
0001
0100
1000
0001
0100
1000
0100
0001
,
0010
1000
0010
0001
0100
1000
0100
0001
,
0010
0001
0100
1000
0100
0001
1000
0010
,
0001
0000
0010
0000
1000
0000
0100
0000
0001
0000
0100
0000
1000
0001
0100
1000
,
0010
0000
0001
0000
0010
0100
1000
0010
0001
0000
0100
0000
0010
0000
0100
0000
,
2002
3003
0000
0000
0220
0330
0000
0000
2002
0000
0000
0000
0000
0000
0000
0000
,
0000
0000
0000
0000
,
0000
3003
0000
0110
,
0001
0100
0001
1000
0100
0010
0100
1000
0100
1000
0010
1000
0001
0010
0100
0010
,
0001
1000
0100
0010
0001
0010
0100
0010
0001
1000
0001
0100
0001
0010
0100
0010
,
0002
0000
0000
0000
1003
0100
0010
1000
0010
0100
0001
0010
0100
1000
0010
0100
,
0001
0010
0001
1000
0001
0100
0010
0100
0001
1000
0010
1000
0100
1000
0001
0010
,
0001
1000
0001
0010
0100
0010
0100
1000
0010
0100
0010
1000
0001
0100
0001
1000
,
0001
0010
0100
0010
0001
0010
0100
1000
0010
0100
0001
0100
0001
0100
0010
1000
,
0100
0010
0001
1000
0100
1000
0001
0100
0001
0100
0001
0010
0100
1000
0001
0010
,
0001
0000
0000
0000
1000
0000
0000
0000
0010
0000
0000
0000
0100
0000
0000
0000
0001
0000
0000
0000
0010
0000
0000
0000
0001
0000
0000
0000
1000
0000
0000
0000
0001
0000
0000
0000
0100
0000
0000
0000
0010
0000
0000
0000
1000
0000
0000
0000
2002
3003
0000
0000
0000
0000
0000
0000
0000
0000
0000
0000
0000
0000
0000
0000
;
