
//----- song ID: cxsn -----//
#TITLE:Complex Sense;
#ARTIST:NAMCO Sound Team "Alkome";
#GENRE:ナムコオリジナル;
#MUSIC:Complex Sense.ogg;
#BANNER:Complex Sense.png;
#BACKGROUND:Complex Sense-bg.png;
#CDTITLE:./CDTitles/NSD A3.png;
#SAMPLESTART:84.699;
#SAMPLELENGTH:15.000;
#SELECTABLE:YES;
#OFFSET:0.000;
#BPMS:0.000=170.000;
#STOPS:;
#BGCHANGES:;
#FGCHANGES:;

//--------------- dance-single - ----------------
#NOTES:
     dance-single:
     :
     Beginner:
     6:
     0,0,0,0,0:
0000
0000
0000
0000
,
0000
0000
0000
0000
,
0000
0000
0000
0000
,
0000
0000
0000
0000
,
0000
0000
0000
0000
,
0000
0000
0000
0000
,
1000
0000
0000
0000
,
0001
0000
0000
0000
,
1000
0000
0000
0000
,
0001
0000
0000
0000
,
0010
0000
0100
0000
,
1000
0000
0000
0000
,
1000
0000
0100
0000
,
0001
0000
0000
0000
,
0001
1000
0001
0000
,
1000
0001
1000
0000
,
1000
0100
0010
0001
,
0000
0000
0000
0000
,
1001
0000
0100
0000
,
0100
0000
0100
0000
,
0010
0000
0010
0000
,
0020
0000
0000
0030
,
1000
0000
0010
0000
,
0010
0000
0010
0000
,
1000
0000
0100
0000
,
0100
0000
0001
1000
,
1001
0000
0100
0000
,
0001
0000
0010
0000
,
0100
0000
1000
0000
,
0002
0000
0003
0000
,
1000
0000
0001
0000
,
0100
0000
0010
0000
,
0100
0000
0010
0000
,
1000
0000
0001
0000
,
2000
0000
3001
0000
,
0000
0000
0000
0000
,
0002
0000
0000
0000
,
0003
0000
0000
0000
,
0010
0000
0000
0000
,
0100
0000
0000
0000
,
1000
0000
0000
0000
,
0001
0000
0000
0000
,
1001
0000
0000
0000
,
0000
0000
0000
0000
,
0000
0000
0000
0000
,
0000
0000
0000
0000
,
0100
0000
0000
0000
,
0000
0000
0000
0000
,
0010
0000
0000
0000
,
0000
0000
0000
0000
,
0001
0000
1000
0000
,
0001
0000
0000
0000
,
0100
0000
0010
0000
,
0100
0000
0000
0000
,
1000
0000
0001
0000
,
0100
0000
0010
0000
,
1000
0001
0100
0010
,
1001
0000
0000
0000
,
1001
0000
0100
0000
,
0010
0000
0001
0000
,
1001
0000
0100
0000
,
0010
0000
0001
0000
,
1000
0000
0001
0000
,
0100
0000
0010
0000
,
1000
0000
0001
0000
,
0100
0010
1000
0000
,
0001
0000
1000
0000
,
0001
0000
0010
0000
,
0100
0000
0001
0000
,
1000
0001
1000
0000
,
0100
0000
0010
0000
,
1000
0000
0001
0000
,
1000
0001
1000
0000
,
0100
0010
0100
0000
,
1001
0000
0000
0000
,
0100
0000
0000
0000
,
0010
0000
0000
0000
,
0100
0000
1000
0000
,
0001
0000
0100
0000
,
1000
0000
0001
0000
,
1000
0100
0010
0001
,
1001
0000
0000
0000
,
0110
0000
0000
0000
;

//--------------- dance-single - ----------------
#NOTES:
     dance-single:
     :
     Easy:
     10:
     0,0,0,0,0:
0000
0000
0000
0000
,
0000
0000
0000
0000
,
0000
0000
0000
0000
,
0000
0000
0000
0000
,
0000
0000
0000
0000
,
0000
0000
0000
0000
,
0001
0000
1000
0000
0100
0000
0000
1010
,
0000
0000
0001
1000
0000
0000
0000
0101
,
0000
0000
1000
0001
0100
0000
0000
0101
,
0000
0000
0000
1001
0000
0000
0100
0000
,
0001
1000
0001
0100
,
0010
1000
0001
0100
,
0010
0000
0001
0000
0010
0000
0100
1000
,
0001
0000
0100
0010
1000
0000
0001
0000
,
0100
0010
1000
0000
0001
0100
0010
0000
,
1000
0001
0010
0000
0100
1000
0001
0000
,
0001
0010
0100
1000
,
2002
0000
3003
0000
,
1000
0000
0000
0000
0001
0000
0100
0000
0000
0100
0000
0000
0010
0000
0100
0000
,
0000
0100
0000
0000
1000
0000
0100
0000
0000
0100
0000
0000
0001
0000
0000
0000
,
1010
0000
0000
0000
1000
0000
0010
0000
0000
0010
0000
0000
0001
0000
0010
0000
,
0000
0010
0000
0000
0001
0000
0000
1000
0000
0000
0001
0000
0100
0000
0000
0000
,
0010
0000
0000
0000
0010
0000
1000
0000
0000
1000
0000
0000
0100
0000
0001
0000
,
0000
0001
0000
0000
0010
0000
0100
0000
0000
0100
0000
0000
1000
0000
0000
0000
,
0010
0000
0000
0000
0001
0000
0100
0000
0000
0100
0000
0000
1000
0000
0010
0000
,
0020
0000
0000
1030
,
1001
0010
1000
0001
,
0100
0010
1000
0000
0001
0100
0010
0000
,
1000
0000
0001
0000
0100
0010
0001
0000
,
0010
0000
0100
0000
1000
0001
0100
0000
,
0110
0000
1000
0000
0001
0100
0010
0000
,
0001
0000
0010
0000
0100
1000
0001
0000
,
0110
0000
0001
0000
0010
0100
0001
0000
,
0200
0000
0010
0310
,
0002
0000
1003
0100
,
0010
0001
1000
0001
,
0100
0010
0001
0010
,
0100
0000
1000
0000
0001
1000
0001
0000
,
0100
0010
0001
0010
,
0100
0000
1000
0000
0001
0100
1000
0000
,
0010
0000
0100
0000
0001
0010
0100
0000
,
1000
0000
0001
0000
0100
0010
0100
0000
,
2002
0000
0000
0000
,
0000
0000
0000
0000
,
3003
0000
0000
0000
,
0000
0000
0000
0000
,
0010
0000
0100
0000
,
1000
0000
0000
0000
,
1000
0000
0100
0000
,
0010
0000
0000
0000
,
0001
0000
0000
0000
1000
0000
0000
0100
,
0010
0000
0000
0100
0000
0000
0010
0000
1000
0000
0000
0000
0001
0000
0000
0000
,
0100
0010
1000
0001
,
0100
0000
0010
0000
0001
1000
0001
0000
,
1000
0010
1000
0001
,
0100
0010
0001
1000
,
1000
0100
0010
0001
,
0200
0000
0000
0300
,
0002
0000
0000
0000
,
2003
0000
0000
3001
,
0100
0000
1000
0000
0001
0100
0010
0000
,
1000
0000
0001
0000
0100
0010
1000
0000
,
0001
0000
0100
0000
0010
1000
0001
0000
,
0100
0000
0001
0000
0010
0100
0001
0000
,
0010
0000
0100
0000
1000
0001
0100
0000
,
0010
0000
1000
0000
0001
0100
0010
0000
,
1000
0001
0100
0010
,
0001
0100
1000
0000
0010
0000
1000
0000
,
0001
1000
0001
0000
0100
0000
0010
0000
,
1000
0001
0100
0000
0010
0100
1000
0000
,
0001
0000
0100
0000
0010
0001
0010
0000
,
0100
0000
1000
0000
0001
0100
0010
0000
,
1000
0001
0100
0000
0010
1000
0001
0000
,
1000
0100
0010
0001
,
0110
0000
1000
0000
0001
0000
0100
1000
,
0001
1000
0001
0100
,
0010
1000
0001
0000
0100
0000
0010
0000
,
0001
0100
0010
1000
,
0001
1000
0001
0000
0100
0010
0100
0000
,
1000
0001
0100
0000
0010
1000
0001
0000
,
1000
0100
0010
0001
,
1001
0000
0000
0000
,
0101
0000
0000
0000
;

//--------------- dance-single - ----------------
#NOTES:
     dance-single:
     :
     Medium:
     13:
     0,0,0,0,0:
0000
0000
0000
0000
,
0000
0000
0000
0000
,
0000
0000
0000
0000
,
0000
0000
0000
0000
,
0000
0000
0000
0000
,
0000
0000
0000
0000
,
1010
0000
0001
1000
0010
0000
1000
0101
,
0000
0000
1000
0101
0000
0000
0100
1000
,
0100
0000
0001
1000
0010
0000
0000
1010
,
0000
0000
0000
1001
0000
0000
0110
0000
,
1000
0100
0001
0100
1000
0100
0010
1000
,
0100
0010
0001
0100
1000
0001
0010
1000
,
0100
0001
1000
0010
0100
1000
0010
0001
,
1000
0000
0010
0100
0001
0000
1000
0000
,
0010
0100
0001
0100
1000
0010
0100
0000
,
0001
1000
0100
1000
0010
0001
1000
0000
,
1000
0001
0100
1000
0010
0100
0001
0100
,
2002
0000
3003
0000
,
0001
0000
0100
0000
1000
0000
0010
0000
0000
0010
0000
0000
0100
0000
0010
0000
,
0000
0010
0000
0000
0001
0000
0010
0000
0000
0010
0000
0000
1000
0000
0010
0000
,
0101
0000
0000
0000
0001
0000
0100
0000
0000
0100
0000
0000
1000
0000
0100
0000
,
0000
0100
0000
0000
1000
0000
0000
0001
0000
0000
1000
0000
0010
0000
1000
0000
,
0100
0000
1000
0000
0100
0000
0001
0000
0000
0001
0000
0000
0010
0000
1000
0000
,
0000
1000
0000
0000
0100
0000
0010
0000
0000
0010
0000
0000
0001
0000
1000
0000
,
0100
0000
0000
0000
1000
0000
0010
0000
0000
0010
0000
0000
0000
0000
0100
0000
,
0200
0000
0000
0301
,
1001
0000
0100
0010
0001
0100
1000
0000
,
0010
0100
0001
0100
1000
0010
0100
0000
,
0001
0000
1000
0100
0010
0100
1000
0000
,
0100
1000
0010
0100
0001
1000
0010
0000
,
0110
0000
0001
0100
1000
0010
0100
0000
,
1000
0001
0100
1000
0010
0001
1000
0000
,
0110
0000
1000
0001
0100
0010
1000
0100
,
0020
0100
0100
0130
,
2000
0000
0010
0000
3001
0000
0010
1000
,
0100
0001
1000
0100
0001
0000
1000
0000
,
0010
1000
0100
0001
1000
0010
0100
1000
,
0010
0100
0001
0010
0100
0100
0001
0000
,
1000
0001
0100
0000
1000
0001
0100
0000
,
0010
0000
1000
0000
0001
0000
0000
0100
1000
0000
0010
0000
0001
0000
0000
0000
,
0100
1000
0010
0000
1000
0100
0010
0000
,
0001
0000
0100
0000
1000
0000
0000
0001
0010
0000
0100
0000
0010
0000
0000
0000
,
2002
0000
0000
0000
,
0000
0000
0000
0000
,
3003
0000
0000
0000
,
0000
0000
0000
0000
,
0100
1000
0010
0000
,
0001
0010
0100
0000
,
0001
1000
0010
0000
,
0100
0001
0100
0000
,
1000
0000
0100
0000
0001
0000
1000
0010
,
0100
0000
0000
0010
0000
0000
0100
0000
0001
0000
0000
0000
1000
0000
0000
0000
,
0010
0000
0100
0010
0001
0000
1000
0100
,
0010
0000
0100
0010
1000
0001
1000
0000
,
0001
1000
0100
0000
0001
0100
1000
0000
,
0010
0001
0100
0000
1000
0100
0001
0000
,
0001
1000
0010
0001
0100
0010
1000
0100
,
0020
1000
0000
0031
,
2000
0100
0010
0000
,
3002
0010
0100
1003
,
0010
0100
0001
0100
1000
0010
0100
1000
,
0001
0010
1000
0100
0010
0100
0001
0000
,
1000
0100
0010
1000
0100
0001
1000
0100
,
0010
0001
1000
0010
0100
0010
1000
0000
,
0100
1000
0010
1000
0001
1000
0010
0000
,
0100
1000
0001
0100
1000
0010
0100
0000
,
0001
0010
1000
0100
0010
0001
0100
0000
,
1000
0010
0001
1000
0100
0100
0001
0000
,
1000
0001
1000
0100
0010
0001
0100
0000
,
0001
1000
0010
1000
0100
0010
0001
0000
,
1000
0001
0010
0001
0100
1000
0100
0000
,
0010
1000
0001
0100
1000
0010
0100
0000
,
0001
1000
0010
0000
0100
0001
1000
0000
,
0001
1000
0010
0001
0100
0010
1000
0000
,
0110
0000
0001
0010
1000
0100
0010
0001
,
1000
0000
0001
0100
1000
0000
0010
0001
,
0100
0001
1000
0000
0010
0001
0100
0000
,
1000
0001
0010
1000
0100
0010
0001
0100
,
1000
0001
1000
0000
0010
0100
0010
0000
,
0001
1000
0010
0000
0100
0001
1000
0000
,
0001
1000
0010
0001
0100
0010
1000
0100
,
2000
3200
0320
0031
,
1001
0000
0000
0000
;

//--------------- dance-single - ----------------
#NOTES:
     dance-single:
     :
     Hard:
     16:
     0,0,0,0,0:
0000
0000
0000
0000
,
0000
0000
0000
0000
,
0000
0000
0000
0000
,
0000
0000
0000
0000
,
0000
0000
0000
0000
,
0000
0000
0000
0000
,
1000
0000
0001
0000
0100
0000
0010
1010
,
0000
0110
0000
1010
0010
0000
0010
0021
,
0000
0000
0230
0000
0302
0000
0000
2003
,
0000
0000
0000
3002
0000
0103
0010
1000
,
0100
0000
0010
0000
0001
0100
0000
0010
0001
0000
0100
0000
0001
0000
1000
0000
,
0010
0100
0000
0001
0010
0000
1000
0000
0100
0000
0010
0000
0001
0000
1000
0000
,
0100
0010
0000
1000
0100
0000
1000
0000
0010
0100
0000
1000
0010
0000
1000
0000
,
0100
0010
0000
0001
0100
0000
0001
0100
0000
0000
0010
0000
0001
0000
0010
0000
,
0001
0100
0010
1000
0100
1000
0010
0100
,
0001
0100
0010
0100
0010
1000
0001
1000
,
0001
0100
0010
0000
1000
0001
0100
0000
1000
0001
1000
0001
1000
0001
1000
0001
,
1000
0000
0000
0000
0101
0000
0000
0000
1010
0000
0000
0000
0220
0330
0000
0000
,
1000
0000
0001
0100
0010
0000
0200
0000
0300
0200
0000
0300
0010
1000
0200
0000
,
0300
0200
0000
0300
0001
1000
0200
0000
0300
0200
0000
0300
0001
1000
0000
0100
,
0010
0000
0001
0000
1000
0100
0020
0000
0030
0020
0000
0030
1000
0001
0020
0000
,
0030
0020
0000
0030
2000
0000
3000
0002
0000
0003
1000
0000
0100
1000
0010
0000
,
1000
0000
0100
0000
0010
0000
2000
0000
3000
2000
0000
3000
0001
0100
0002
0000
,
0003
0002
0000
0003
0100
0010
2000
0000
3000
2000
0000
3000
0001
0010
1000
0000
,
0100
0000
1000
0100
1000
0000
0002
0000
0003
0002
0000
0003
1000
0100
0002
0000
,
1003
0000
0100
0000
0010
1000
0000
0100
0001
0000
0100
0000
1000
0001
0100
0000
,
0001
0000
1000
0000
0010
1000
0100
0000
0001
1000
0010
0000
0100
0010
0000
0100
,
0001
0000
1000
0000
0100
0010
1000
0000
0001
1000
0100
0010
0001
1000
0010
0000
,
0100
0000
1000
0100
0000
0010
1000
0000
0001
0010
0100
0000
0010
0000
0100
0000
,
2000
0010
3002
0100
2003
0001
3002
0100
,
1003
0000
0001
0100
1000
0000
0010
0000
1000
0001
0100
0000
0010
1000
0100
0000
,
1000
0100
0010
0000
0100
0001
0010
0000
0100
0000
0001
0000
0100
0000
0001
0000
,
0010
1000
0100
0000
0010
1000
0001
0000
0100
0010
0001
0000
0010
1000
0100
0000
,
0010
0001
0010
0001
1000
0001
0100
0010
,
0200
0000
0000
0000
0010
0000
0000
0000
0310
0000
1000
0010
0001
0000
0100
0000
,
0020
0000
0000
0000
0100
0000
0000
0000
1030
0000
0100
0001
0010
0000
0100
1000
,
0001
0000
0010
0100
1000
0000
0001
0000
0100
0000
1000
0001
0010
0000
1000
0010
,
0001
0000
0100
0010
0001
1000
0001
0100
0010
0001
1000
0100
0002
0000
0000
0000
,
1003
0000
0100
0010
0001
0000
1000
0000
0001
0000
0100
0000
0010
0000
1000
0000
,
0001
0000
0010
1000
0001
0000
1000
0000
0010
0000
1000
0000
0100
0000
0010
0000
,
0001
0000
0010
1000
0001
0000
0010
0000
0100
0000
1000
0000
0100
0000
0010
0000
,
0001
0000
1000
0010
0100
0000
1000
0010
0001
0000
0100
0010
0001
0100
1000
0010
,
2000
0000
0000
3010
,
0102
0000
1003
0000
,
0201
0000
0000
0310
,
1020
0000
0130
0000
,
2001
0000
3010
0000
,
0102
0000
0103
0000
,
0200
0000
1300
0000
,
0020
0000
0130
0000
0100
0100
0001
0000
,
1001
0000
0100
0000
0011
0000
0010
1000
,
0100
0000
0000
0001
1000
0000
0010
0000
0100
0000
0001
0000
1100
0000
0000
0000
,
1001
0000
1000
0001
0100
0001
1000
0100
,
0010
0100
0000
1000
0001
0000
0100
0000
0010
0000
1000
0100
0010
0000
0001
0000
,
0100
1000
0001
1000
0100
0010
0100
1000
,
0100
0010
0001
0100
0001
0010
0001
0100
,
0010
1000
0100
0000
0001
0010
1000
0000
0100
0001
1000
0001
1000
0001
1000
0001
,
0100
1000
0001
0000
0100
0100
0001
0000
,
0002
0100
0010
1000
,
0103
0000
0010
0000
1000
0000
0100
0000
0010
1000
0001
0010
2000
0000
0000
0000
,
3001
0000
0010
0000
0100
1000
0001
0000
1000
0100
0010
0000
0100
0000
0010
0100
,
1000
0010
0100
0000
0010
0001
0100
0000
1000
0100
0010
0000
0100
1000
0010
0000
,
1000
0000
0001
0000
0010
0000
0001
0000
0010
0000
0001
0100
1000
0000
0010
0001
,
0100
0000
0010
0000
1000
0100
0010
0000
1000
0100
0001
0010
0100
0000
0010
0000
,
1000
0100
0010
0000
0100
1000
0001
0000
0010
0100
0001
0000
0010
0100
0001
0000
,
1000
0001
0100
0000
0010
0000
0001
0000
1000
0001
0100
1000
0010
0000
0001
0100
,
0010
0000
0001
0000
0100
0001
0000
1000
0100
0000
0001
0000
1000
0000
0100
0000
,
0010
1000
0001
0010
0100
0000
0001
0000
0010
1000
0000
0100
0010
0000
0100
0000
,
0010
1000
0000
0001
0100
0000
0010
0000
1000
0100
0010
0000
0100
0000
0010
0000
,
0100
0010
1000
0000
0100
0010
0001
0000
0010
1000
0001
0000
0100
0001
0010
0000
,
0100
0010
1000
0001
1000
0100
1000
0010
,
0100
0001
0010
0100
1000
0001
0100
0001
,
0100
1000
0010
0000
0100
0001
0010
0000
1000
0100
0001
0010
1000
0100
0010
0001
,
1000
0000
0001
0000
1000
0001
1000
0000
0100
0000
0100
0000
0001
0000
0000
0000
,
1002
0000
0100
0000
1003
0100
0010
1000
,
1001
0000
0000
0000
0010
0000
0100
0000
0001
1000
0001
0000
0100
0000
0010
0000
,
0001
0010
0100
0000
1000
0000
0001
0000
0100
0000
1000
0000
0001
0000
0010
0000
,
0001
0100
1000
0000
0001
0100
1000
0000
0010
0001
1000
0000
0010
0001
0100
0000
,
0010
0100
0001
0100
0001
1000
0100
1000
,
0001
0010
0001
0100
0001
0100
0010
0100
,
1000
0001
1000
0001
1000
0001
1000
0001
1000
0001
1000
0001
1000
0001
1000
0001
,
1000
0100
0000
0010
0001
0000
1000
0000
0001
0010
0100
0000
1000
0000
0000
0000
,
1001
0000
0000
0000
;
