#TITLE:超有名キャラ(...た)を犯してみた!?[STAY IN YOUR ROOM WITH K.];
#ARTIST:DJ SHARPNEL;
#TITLETRANSLIT:Chou Yuumei Kyara (...ta) wo Okashite Mita!?[STAY IN YOUR ROOM WITH K.];
#GENRE:シンクロニカ;
#MUSIC:Chou Yuumei Kyara ...ta wo Okashite Mita STAY IN YOUR ROOM WITH K.ogg;
#BANNER:Chou Yuumei Kyara ...ta wo Okashite Mita STAY IN YOUR ROOM WITH K.png;
#BACKGROUND:Chou Yuumei Kyara ...ta wo Okashite Mita STAY IN YOUR ROOM WITH K-bg.png;
#JACKET:Generic-Jacket.ogg;
#CDTITLE:./CDTitles/Synchronica 2nd Avenue.png;
#SAMPLESTART:74.268;
#SAMPLELENGTH:15.000;
#SELECTABLE:YES;
#OFFSET:0.000;
#BPMS:0.000=210.033;
#STOPS:;
#DISPLAYBPM:210.000;
#JACKET:Chou Yuumei Kyara ...ta wo Okashite Mita STAY IN YOUR ROOM WITH K-KOR-jacket.png;
#BGCHANGES:;
#FGCHANGES:;

//--------------- dance-single - ----------------
#NOTES:
     dance-single:
     :
     Beginner:
     3:
     0,0,0,0,0:
0000
0000
0000
0000
,
0000
0000
0000
0000
,
0000
0000
0000
0000
,
0000
0000
0000
0000
,
0000
0000
0000
0000
,
1000
0000
0000
0000
,
1000
0000
0000
0000
,
0001
0000
0000
0000
,
0001
0000
0000
0000
,
1001
0000
0000
0000
,
0100
0000
0000
0000
,
0010
0000
0000
0000
,
0001
0000
1000
0000
,
0001
0000
0000
0000
,
0100
0000
0000
0000
,
0100
0000
0010
0000
,
0001
0000
0000
0000
,
1001
0000
0000
0000
,
0100
0000
0000
0000
,
0010
0000
0000
0000
,
0100
0000
1000
0000
,
0001
0000
0000
0000
,
0010
0000
0000
0000
,
0100
0000
0000
0000
,
1000
0000
0001
0000
,
0100
0000
0000
0000
,
0010
0000
0000
0000
,
0100
0000
0000
0000
,
1000
0000
0001
0000
,
0100
0000
0000
0000
,
0010
0000
0000
0000
,
0100
0000
0010
0000
,
0010
0000
0100
0000
,
1001
0000
0000
0000
,
0001
0000
0000
0000
,
1000
0000
0000
0000
,
0001
0000
0000
0000
,
0100
0000
0000
0000
,
0010
0000
0000
0000
,
0100
0000
0000
0000
,
0001
0000
0000
0000
,
1000
0000
0000
0000
,
0010
0000
0000
0000
,
0100
0000
0000
0000
,
0010
0000
0000
0000
,
0100
0000
0000
0000
,
1000
0000
0000
0000
,
0001
0000
0010
0000
,
0100
0000
0000
0000
,
2000
0000
0000
0000
,
3000
0000
0000
0000
,
0002
0000
0000
0000
,
0003
0000
0000
0000
,
0020
0000
0000
0000
,
0030
0000
0000
0000
,
0200
0000
0000
0000
,
0300
0000
0000
0000
,
0001
0000
0000
0000
,
1000
0000
0000
0000
,
0100
0000
0000
0000
,
0010
0000
0000
0000
,
0001
0000
0000
0000
,
1000
0000
0000
0000
,
0001
0000
1000
0000
,
0001
0000
1000
0000
,
1001
0000
0000
0000
,
0100
0000
0010
0000
,
0100
0000
0000
0000
,
0001
0000
1000
0000
,
0001
0000
0000
0000
,
1000
0000
0000
0000
,
0100
0000
0010
0000
,
0001
0000
0000
0000
,
1000
0000
0000
0000
,
0001
0000
0000
0000
,
1000
0000
0000
0000
,
0001
0000
0010
0000
,
0100
0000
0000
0000
,
1000
0000
0000
0000
,
0001
0000
1000
0000
,
0001
0000
0000
0000
,
0110
0000
0000
0000
,
0000
0000
0000
0000
,
1000
0000
0000
0000
,
0001
0000
0000
0000
,
0100
0000
0000
0000
,
0010
0000
0000
0000
,
0001
0000
1000
0000
,
0001
0000
0100
0000
,
0110
0000
0000
0000
,
1000
0000
0000
0000
,
0001
0000
0000
0000
,
0100
0000
0000
0000
,
0010
0000
0000
0000
,
0100
0000
0000
0000
,
1000
0000
0001
0000
,
1000
0000
0000
0000
,
1001
0000
0000
0000
,
0010
0000
0000
0000
,
0100
0000
0000
0000
,
0010
0000
0000
0000
,
0001
0000
0000
0000
,
0100
0000
0000
0000
,
1000
0000
0000
0000
,
0100
0000
0010
0000
,
0001
0000
0000
0000
,
1000
0000
0000
0000
,
0010
0000
0000
0000
,
0100
0000
0000
0000
,
0010
0000
0000
0000
,
0100
0000
0000
0000
,
1000
0000
0001
0000
,
1000
0000
0000
0000
;

//--------------- dance-single - ----------------
#NOTES:
     dance-single:
     :
     Easy:
     8:
     0,0,0,0,0:
0000
0000
0000
0000
,
0000
0000
0000
0000
,
0000
0000
0000
0000
,
0000
0000
0000
0000
,
0000
0000
0000
0000
,
1001
0000
0000
0100
0000
0000
1000
0000
,
0001
0000
0000
0100
0000
0000
0000
0000
,
0110
0000
0000
0100
0000
0000
1000
0000
,
0001
0000
0000
0100
0000
0000
0000
0000
,
1001
0000
0000
0100
0000
0000
0010
0000
,
0100
0000
0000
0001
0000
0000
1001
0000
,
1000
0000
0000
0001
0000
0000
0100
0000
,
0010
0000
0000
1000
0000
0000
0100
0000
,
0010
0000
0000
1000
0000
0000
0010
0000
,
0001
0000
0000
0100
0000
0000
0010
0000
,
1000
0000
0000
0001
0000
0000
0100
0000
,
0020
0000
0000
0000
,
0130
0000
1000
0000
,
0001
0100
0010
0000
,
1000
0001
0100
0000
,
0010
0000
1000
0000
0001
1000
0001
0000
,
0100
0000
0010
0000
,
0100
1000
0001
0000
,
0100
0010
0001
1000
,
0001
0000
0100
1000
0001
0000
0100
0000
,
0010
1000
0100
0001
,
1000
0001
0100
0000
,
0010
0100
1000
0001
,
0100
0000
0010
0000
1000
0001
1000
0000
,
0100
0010
1000
0000
,
0001
1000
0100
0001
,
0010
0001
0100
0000
1000
0000
0001
0000
,
1000
0001
0100
0000
0010
0100
1000
0000
,
0001
1000
0001
0100
,
0010
0000
0100
0000
1000
0001
0010
0000
,
0100
0010
0100
1000
,
0002
0000
1003
0000
,
0100
0010
1000
0000
,
0001
0100
0010
0000
,
1000
0001
0100
0010
,
1000
0001
0100
0000
0020
0000
0000
0000
,
0130
1000
0001
0000
,
0100
0010
0001
0000
,
1000
0001
0100
0010
,
0100
0000
0000
0000
1000
0001
0100
0000
,
0010
0000
1000
0100
0000
0000
0001
0000
,
0100
0000
0010
0100
0000
0000
1000
0000
,
0001
0000
0100
0010
0000
0000
0100
0000
,
0010
0100
0001
0000
1000
0000
0000
0000
,
0002
0000
1003
0000
,
0001
0100
0010
0000
,
1000
0001
0100
0000
0010
0000
0000
0000
,
0100
1000
0001
0000
0100
0000
0000
0000
,
2000
0000
3001
0000
,
0010
0100
1000
0000
,
0001
0000
1000
0001
0100
0000
0010
0000
,
0001
1000
0001
0000
0100
0000
0000
0000
,
0010
0100
1000
0001
,
1000
0001
0100
0010
,
0100
1000
0001
0100
,
0010
1000
0001
0000
1000
0001
0100
0000
,
0010
1000
0001
0100
,
0010
0000
0001
0000
0010
1000
0100
0000
,
0020
0000
1000
0000
,
0130
0000
0000
0000
,
1001
0000
0010
0000
1000
0001
0100
0000
,
0010
0000
0100
0000
1000
0001
0100
0000
,
0010
1000
0001
0100
,
1000
0010
0100
0000
,
0001
1000
0001
0000
,
0100
0000
0010
0100
1000
0000
0001
0000
,
0100
0001
0100
0000
0001
0100
0001
0000
,
1000
0001
0100
0000
,
0110
0000
0000
0000
1000
0000
0100
0001
,
0000
0100
1000
0000
0010
0000
0000
0000
,
0100
0000
0000
0010
0000
1000
0010
0001
,
0010
0100
0100
0000
,
1000
0001
0100
0000
,
0010
1000
0001
0000
,
1000
0001
0100
0000
0010
0100
1000
0000
,
0001
0010
0100
1000
,
1001
0100
0010
0000
,
1000
0001
0100
0000
,
0010
0000
0100
0000
,
1000
0001
0100
0000
,
0010
0000
0100
0000
,
1000
0000
0001
0000
,
1000
0001
0100
0000
,
0010
0100
1000
0000
0001
0000
0000
0000
,
1001
0000
0100
0000
,
0010
0100
1000
0000
,
0001
0010
1000
0000
,
0010
0100
1000
0000
,
0001
0000
1000
0000
0100
0000
0010
0001
,
1000
0010
0100
0000
,
0001
0001
1000
1000
,
2002
0000
0000
3003
,
0010
1000
0100
0001
,
0100
0010
1000
0000
,
0001
1000
0100
0010
,
0001
1000
0001
0000
,
0010
0100
1000
0001
,
0010
0100
0010
0000
,
1000
0001
1000
0010
0100
0010
0100
0000
,
1000
0100
0010
0001
,
1000
0000
0001
0000
0010
0000
0100
0010
,
0100
1000
0001
0000
,
1000
0001
0100
0000
0010
0000
0100
0000
,
1000
0001
0000
1000
0000
0010
0100
1000
,
0001
0100
1000
0001
,
0100
0010
0100
1000
,
0001
1000
0001
0000
0100
0010
0100
0000
,
1000
0100
0010
0001
;

//--------------- dance-single - ----------------
#NOTES:
     dance-single:
     :
     Medium:
     11:
     0,0,0,0,0:
0000
0000
0000
0000
,
0000
0000
0000
0000
,
0000
0000
0000
0000
,
0000
0000
0000
0000
,
0000
0000
0000
0000
,
0011
0000
0000
0100
0000
0000
1000
0000
,
0001
1000
0000
1000
0000
0000
0001
0000
,
1001
0000
0000
0100
0000
0000
0010
0000
,
1000
0001
0000
0000
0000
0000
0000
0000
,
1010
0000
0000
0100
0000
0000
0001
0000
,
1000
0000
0000
1001
0000
0000
0100
0000
,
0110
0000
0000
1000
0000
0000
0001
0000
,
0100
0001
0000
0000
0001
0000
0100
0000
,
1010
0000
0000
0100
0000
0000
0101
0000
,
0010
1000
0000
1000
0000
0000
0001
0000
,
0100
0010
0100
1000
0001
0010
0100
1000
,
0220
0000
0000
0330
,
1001
0000
0100
0000
0001
1000
0001
0000
,
0100
0000
0010
0000
1000
0001
0100
0000
,
0010
0000
1000
0000
0001
1000
0100
0000
,
0010
1000
0100
0000
0001
1000
0010
0000
,
0100
1000
0001
0000
0100
0000
0001
0000
,
1000
0001
0100
0000
0010
0000
0100
0000
,
0001
1000
0010
0000
0100
0000
0010
0000
,
0001
1000
0001
0000
0010
0100
0010
0000
,
1001
0000
0010
0000
0100
1000
0001
0000
,
0110
0000
1000
0000
0001
0100
0010
0000
,
0110
0000
0100
0000
1000
0001
0010
0000
,
0100
0001
0010
0000
0100
1000
0001
0000
,
0101
0000
1000
0001
0100
0000
0010
0000
,
0100
0000
1000
0001
0010
0000
0100
0000
,
0010
1000
0001
0000
0010
0100
1000
0000
,
0001
1000
0010
0100
0010
1000
0002
0000
,
1003
0000
1000
0000
0010
0000
0010
0100
,
0001
0000
0001
0000
2002
0000
0000
3003
,
0001
0000
0001
0000
0010
0000
0010
0100
,
1000
0000
1000
0000
2002
0000
0000
3003
,
0100
0000
0100
0000
0010
0000
0010
0001
,
1000
0000
1000
0000
2002
0000
0000
3003
,
0100
0000
0100
0000
0010
0000
0010
1000
,
0001
0000
0001
0000
2002
0000
0000
3003
,
0001
0000
0001
0000
0010
0000
1000
0010
,
0001
0000
0001
0000
2002
0000
0000
3003
,
1000
0000
1000
0000
0010
0000
0001
0010
,
1000
0000
1000
0000
2002
0000
0000
3003
,
1000
0000
1000
0000
0100
0000
0001
0100
,
1000
0000
1000
0000
2002
0000
0000
3003
,
0001
0000
0001
0000
0100
0000
1000
0100
,
0001
0000
0001
0000
2002
0000
0000
3003
,
1000
0100
1000
0000
0001
0000
0100
0000
,
0010
1000
0100
0000
0010
0001
0100
0000
,
0010
0000
1000
0100
0000
0001
0100
0000
,
1000
0001
0010
0000
0100
0000
0100
0000
,
0001
1000
0001
1000
0001
0000
0100
0000
,
0010
1001
0100
0100
,
1000
1000
0001
0001
,
0100
0010
0100
0000
0001
0000
1000
0000
,
0001
0000
0001
0000
0100
0010
0100
0000
,
0010
1000
0010
0000
0100
0001
0100
0000
,
0010
0000
1000
0100
0000
0010
0001
0000
,
1000
0001
1000
0000
1001
0000
0110
0000
,
0001
1000
0001
1000
0001
0000
0100
0000
,
0010
1010
0100
0101
,
0010
0010
0100
0100
,
0001
0000
0001
0000
1000
0001
1000
0000
,
0010
0000
1000
0000
0001
0100
0001
0000
,
0010
0010
0110
1000
,
0001
0000
0100
0010
0100
0000
0001
0000
,
1001
0000
0010
0000
0010
0000
1000
0001
,
0100
0001
0010
0110
,
1000
0001
0010
0100
,
1000
0010
0100
0000
0001
0100
1000
0000
,
0001
0000
0100
1000
0001
0000
0001
0100
,
0010
0000
1000
0001
0100
0000
0001
0000
,
1000
0000
0100
0001
1000
0000
0100
0000
,
1000
0000
0100
0010
0001
0000
1000
0000
,
0100
0000
0010
1000
0100
1000
0010
0000
,
0001
0000
1000
0001
0100
0000
0001
1000
,
0001
0000
1000
0000
0100
0000
0010
0000
0100
0000
0000
0000
0200
0000
0000
0300
,
1000
0001
0100
0010
,
1000
0001
1000
0000
0001
0010
0200
0000
,
1300
0000
0100
0000
0001
0100
0010
0000
,
0001
0000
0100
0010
0100
0000
0001
0000
,
0100
0000
0010
0001
0100
0000
1000
0000
,
0001
1000
0100
0001
,
0010
0000
0000
0000
0100
0010
0100
0000
0001
0000
0000
0000
0100
0000
0000
0000
,
1100
0101
0001
0010
,
1000
0100
0010
0000
0001
0000
1000
0000
,
0010
0001
0010
0000
1000
0100
0010
0000
,
0010
0100
1000
0010
0100
0000
0010
1000
,
0100
0000
0001
0000
1000
0000
0001
0010
,
0100
0000
1000
0000
0100
0001
0100
0000
,
0100
0000
0001
1000
0001
0000
0220
0330
,
1000
0001
1000
0000
0100
0000
0100
0000
,
0010
0000
0100
0000
0010
1000
0100
0000
,
1000
0001
0010
0000
0100
0010
1000
0000
,
0002
2000
3003
0000
,
1000
0000
0100
0000
0001
0100
0010
0000
,
0001
0000
0100
0010
0100
0000
0001
0000
,
0100
0000
0010
0001
0100
0000
1000
0000
,
0001
1000
0100
0001
,
0010
0000
0000
0000
0100
0010
0100
0000
0001
0000
0000
0000
0100
0000
0000
0000
,
1100
0101
0001
0010
,
1000
0100
0010
0000
0001
0000
1000
0000
,
0010
0001
0010
0000
1000
0100
0010
0000
,
0010
0100
1000
0010
0100
0000
0010
1000
,
0100
0000
0001
0000
1000
0000
0001
0010
,
0100
0000
1000
0000
0100
0001
0100
0000
,
0100
0000
0001
1000
0001
0000
0220
0330
,
1000
0001
1000
0000
0100
0000
0100
0000
,
0010
0000
0100
0000
0010
1000
0100
0000
,
1000
0001
0010
0000
0100
0010
1000
0000
,
0001
0010
0100
1000
;

//--------------- dance-single - ----------------
#NOTES:
     dance-single:
     :
     Hard:
     15:
     0,0,0,0,0:
0000
0000
0000
0000
,
0000
0000
0000
0000
,
0000
0000
0000
0000
,
0000
0000
0000
0000
,
0000
0000
0000
0000
,
1001
0000
0000
0101
0000
0000
1001
0000
,
0010
1000
0000
0101
0000
0000
1001
0000
,
0110
0000
0000
1001
0000
0000
0101
0000
,
0002
2000
0000
0000
3003
0000
0200
0000
,
0310
0000
0010
0001
0010
0100
1000
0010
,
0100
0010
0000
0100
0020
0000
2030
0000
,
3010
0000
0010
0001
1000
0100
0020
0000
,
0130
0001
1000
0010
0100
0000
0101
0000
,
2000
0000
3100
0001
0010
0001
1000
0001
,
0010
0100
0000
0100
0010
0000
0100
0001
,
0100
0010
1000
0001
0100
1000
0100
1000
,
0220
0000
0000
0330
,
0010
0000
1000
0000
0010
0000
0100
0000
0001
1000
0001
1000
0001
0000
0000
0000
,
1000
0000
0001
1000
0010
0000
0000
0000
0100
0000
0000
0000
0100
0000
0000
0000
,
0001
0100
0010
1000
0100
0010
0001
0100
,
0010
1000
0010
0001
0010
0000
0010
0000
,
1000
0001
1000
0001
1000
0000
1000
0000
,
0001
0000
0110
0000
1001
0000
1000
0100
,
0010
0000
0000
0000
0010
0000
0000
0000
0100
0000
0000
0100
1000
0000
0001
0000
,
0100
0000
0100
0000
0010
1000
1001
0000
,
0010
0000
0100
0000
0010
0000
1000
0000
0001
1000
0001
1000
0001
0000
0000
0000
,
1000
0100
0010
0000
0001
0100
0010
0000
,
1000
0010
1000
0001
0010
0100
0001
0100
,
1000
0010
0001
0010
2000
0000
3100
0000
,
0010
0001
0010
0001
0100
0010
1000
0001
,
0100
0000
0110
0000
1000
0100
0010
0000
,
0100
0000
0000
0000
0100
0000
0000
0000
0010
0000
0000
0010
0001
0000
1000
0000
,
0010
0000
0100
0000
0001
1000
0001
0000
,
1000
0000
0000
0010
0000
0000
1000
0000
0010
0000
0000
0000
0100
0001
0100
0000
,
0001
0000
0000
0010
0000
0000
0001
0000
0010
0000
0010
0000
0100
0000
1000
0000
,
0100
0000
0000
1000
0000
0000
0100
0000
1000
0000
0000
0000
0001
0100
0001
0000
,
0100
0000
0000
0001
0000
0000
0100
0000
0010
0000
0010
0000
1000
0000
1000
0000
,
1000
0000
0000
0001
0000
0000
1000
0000
0001
0000
0000
0000
0100
0010
0100
0000
,
0010
0000
0000
0100
0000
0000
0010
0000
1000
0000
1000
0000
0001
0000
0001
0000
,
1000
0000
0000
0100
0000
0000
0010
0000
0001
0000
0000
0000
1000
0001
1000
0000
,
0001
0000
0000
0010
0000
0000
0100
0000
1000
0000
1000
0000
1000
0000
0000
0000
,
0010
0000
0000
0100
0000
0000
0001
0000
1000
0000
0000
0000
0010
0100
0010
0000
,
1000
0000
0000
0001
0000
0000
0100
0000
0010
0000
0010
0000
0100
0000
0100
0000
,
1000
0000
0000
0001
0000
0000
0010
0000
0100
0000
0000
0000
1000
0010
1000
0000
,
0010
0000
0000
0100
0000
0000
0001
0000
0010
0000
0010
0000
0100
0000
1000
0000
,
0001
0000
0000
0100
0000
0000
0010
0000
1000
0000
0000
0000
0100
0010
0100
0000
,
0010
0000
0000
0001
0000
0000
0100
0000
0010
0000
0010
0000
0100
0000
0100
0000
,
0001
0000
0000
1000
0000
0000
0001
0000
0100
0000
0000
0000
0010
1000
0001
0000
,
0010
0000
0000
0100
0000
0000
0010
0000
0002
0000
0000
0000
1003
0000
0000
0000
,
0010
0000
1000
0000
0010
0000
0100
0000
0001
1000
0001
1000
0001
0000
0000
0000
,
1000
0000
0001
1000
0010
0000
0000
0000
0100
0000
0000
0000
0100
0000
0000
0000
,
0001
0100
0010
1000
0100
0010
0001
0100
,
0010
1000
0010
0001
0010
0000
0010
0000
,
1000
0000
0010
0000
0100
0000
0001
0000
0100
0001
1000
0000
0100
0000
0000
0000
,
0010
0000
1001
0000
0100
0010
0001
0000
,
1000
0000
0000
0000
1000
0000
0000
0000
0001
0000
0000
0001
0100
0000
0010
0000
,
1000
0000
1000
0000
0100
1000
0010
0100
,
0001
0000
0001
0000
0001
0000
0000
0000
1000
0100
1000
0100
1000
0000
0000
0000
,
0100
0010
0100
0010
0100
0000
0000
0000
0110
0000
0000
0000
0110
0000
0000
0000
,
0100
0010
0001
0100
0010
1000
0100
0010
,
0001
0010
1000
0010
0001
0000
0001
0000
,
1000
1000
1000
0000
0001
0100
0010
0100
,
0010
0000
1001
0000
1000
0001
1000
0000
,
0001
0000
0000
0000
0001
0000
0000
0000
1000
0000
0000
1000
0010
0000
0100
0000
,
0010
0000
0100
0000
0100
1000
0001
0000
,
0001
0100
0010
0000
1000
0100
0001
0000
,
0100
0010
0001
0000
1001
0000
0100
0000
,
0010
0100
1000
0000
0010
0100
0001
0000
,
1000
0010
0110
0000
1000
0100
0001
0000
,
0010
1000
0010
0000
0100
0001
0010
0000
,
0100
0001
0100
0000
0110
0000
1000
0000
,
0001
0100
1000
0000
0100
0001
1000
0000
,
0010
1000
0010
1000
0100
0010
0001
0100
,
0001
0100
0010
0100
0001
1000
0001
0000
,
1000
0100
0010
0001
0100
0001
1000
0100
,
0010
0100
1000
0001
0100
0010
0100
0000
,
0010
1000
0001
0100
1000
0100
0001
1000
,
0100
0010
0100
1000
0001
0100
0010
0000
,
0100
0001
0100
0010
1000
0100
1000
0001
,
0010
0010
0010
0000
0100
0100
0100
0000
,
1000
0001
1000
0001
1000
0001
0200
0000
,
1300
0100
1000
0100
0001
0100
1000
0001
,
0100
0010
1000
0001
0100
0010
1000
0100
,
1000
0010
1000
0010
0001
0010
1000
0010
,
0100
0001
0001
1000
0010
0010
0100
0000
,
0001
0100
0001
0100
1000
0100
0001
1000
,
0010
0100
0001
0010
0110
0000
1100
0000
,
0001
0010
0001
0010
1000
0010
0001
1000
,
0100
1000
0010
0100
1000
0100
0002
0000
,
1003
0100
0010
0000
0001
0100
0010
2000
,
0000
3001
0100
0010
1000
0100
0010
0000
,
0100
0001
1000
0000
0100
1000
0010
0200
,
0000
0301
0010
0100
1000
0100
0002
0000
,
0013
0100
0010
0000
0100
1000
0001
0020
,
0000
0130
1000
0001
0100
1000
0010
0000
,
1000
0010
1000
0001
0010
0001
1000
0020
,
0000
0130
0001
1000
0100
0000
1001
0000
,
1000
0001
0100
0000
0010
0000
1000
0000
0001
0000
0100
0000
0010
0000
2000
0000
,
0000
3001
0100
0010
1000
0100
0010
0001
,
0100
0010
0001
0000
1000
0000
0010
0000
0100
0000
1000
0000
0010
0000
0200
0000
,
0000
0301
0010
0100
1000
0100
0002
0000
,
0013
1000
0100
0000
0010
0000
0001
0000
0100
0000
1000
0000
0001
0000
0020
0000
,
0000
0130
1000
0001
0100
1000
0010
0100
,
1000
0001
0010
0000
1000
0000
0001
0000
0010
0000
0001
0000
1000
0000
0020
0000
,
0000
0130
0001
1000
0200
0000
2300
0000
,
3001
0000
0000
0100
0000
0000
0001
0000
1000
0010
1000
0000
0100
0000
1000
0000
,
0001
0010
0001
0000
0100
0000
0001
0000
1000
0000
0010
0000
2000
0000
0000
0000
,
3100
0000
0000
0010
0000
0000
0001
0000
1000
0100
1000
0000
0010
0000
0100
0000
,
0001
0010
0001
0000
1000
0000
0100
0000
0110
0000
0000
0000
0020
0000
0000
0000
,
1030
0000
0000
0001
0000
0000
0100
0000
0001
0010
0001
0000
1000
0000
0001
0000
,
0100
0010
0100
0000
0010
0000
1000
0000
0100
0000
0010
0000
0001
0000
0000
0000
,
0100
0000
0000
0010
0000
0000
1000
0000
0001
0100
0010
0000
1000
0000
0100
0000
,
0010
0000
0001
0100
0010
0000
1000
0000
0001
0010
0100
0000
1000
0000
0001
0000
,
1001
0000
0000
0000
;
