#VERSION:0.83;
#TITLE:†††カオスタイム the DARK†††;
#ARTIST:NAMCO Sound Team "t+pazolite";
#TITLETRANSLIT:Chaos Time the DARK;
#GENRE:エイプリルフール2025;
#MUSIC:Chaos Time the DARK.ogg;
#BANNER:Chaos Time the DARK.png;
#BACKGROUND:Chaos Time the DARK-bg.png;
#CDTITLE:./CDTitles/NSD A3.png;
#SAMPLESTART:7.650;
#SAMPLELENGTH:15.000;
#SELECTABLE:YES;
#OFFSET:0.000;
#BPMS:0.000=175.000
,1.000=171.000
,2.000=159.000
,4.000=170.000
,8.000=180.000
,12.000=191.500
,20.000=189.000
,23.000=256.000
,140.000=128.000
,167.000=256.000
,180.000=165.000
,252.000=260.000
,296.000=360.000
,404.000=205.000
,406.000=210.000
,407.000=240.000
,408.000=245.000
,411.000=156.000
,412.000=270.000
,464.000=258.000
,466.000=252.000
,468.000=280.000
,496.000=260.000
,498.000=240.000
,500.000=290.000
,540.000=135.000
,544.000=280.000
,546.000=250.000
,547.000=210.000
;
#STOPS:83.000=0.700
,149.500=0.234
;
#BGCHANGES:;
#FGCHANGES:;

//--------------- dance-single - ----------------
#NOTEDATA:;
#STEPSTYPE:dance-single;
#DESCRIPTION:;
#DIFFICULTY:Beginner;
#METER:9;
#RADARVALUES:0,0,0,0,0;
#NOTES:
0000
0000
0000
0000
,
0000
0000
0000
0000
,
0000
0000
0000
0000
,
0000
0000
0000
0000
,
0000
0000
0000
0000
,
0000
0000
0000
1001
,
0000
0000
0000
0110
,
0000
0000
0000
1001
,
0000
0000
0000
0001
,
0010
0100
1000
1001
,
0000
0000
0000
0110
,
0000
0000
0000
1001
,
0000
0000
0000
0001
,
0010
0100
1000
2002
,
0000
0000
0000
0000
,
0000
0000
0000
0000
,
0000
0000
0000
3003
,
0000
0000
0000
0001
,
0000
1000
0000
0001
,
0000
1000
0000
0001
,
1000
0001
1000
0000
,
1001
0000
0100
0000
,
0010
0000
0001
0000
,
0010
1000
0001
0000
,
1000
0000
0001
1000
0000
0001
1000
0000
,
0010
0100
1000
0000
,
0001
0000
0100
0000
,
0010
0000
0100
0000
,
1000
0000
0001
0000
,
1001
0000
0000
0000
,
0100
0000
0000
0000
,
0110
0000
0100
0000
,
1000
0000
0001
0000
,
1000
0000
0001
0000
,
0100
0010
0100
1000
,
1001
0000
0000
0000
,
0001
0000
0000
0000
,
1000
0000
0000
0000
0000
0000
0001
1000
,
0000
0001
0000
0000
0000
0100
0000
0000
,
0000
0010
0000
0000
0000
0100
0000
1000
,
0000
0001
0000
0100
0000
0010
0000
1000
,
0000
0000
0000
0001
0000
1000
0000
0000
,
0001
0000
1000
0000
,
0001
0000
0100
0000
,
0220
0000
0000
0000
,
0000
0000
0330
0000
,
1001
0000
1000
0000
,
0001
0010
1000
0000
,
0001
0000
0100
0000
,
0010
1000
0110
0000
,
0010
0000
0000
0000
0000
2002
0000
0000
,
0000
0000
3003
0020
,
1030
0000
0001
0000
,
1000
0001
0100
0000
,
0220
0000
0000
0000
,
0000
0330
1001
0001
,
0110
0000
1000
0000
,
0001
0000
1000
0000
,
0100
0000
0010
0000
,
0100
0000
0001
0000
,
1000
0000
0001
0000
,
0100
0000
0001
0000
,
2002
0000
0000
0000
,
0000
0000
0000
3003
,
0100
0100
0001
0000
,
1001
0000
0000
0000
,
0000
0000
0000
0000
,
0110
0000
0000
0000
,
0000
0000
0000
0000
,
0101
0000
0100
0000
,
1100
0000
0100
0000
,
0001
1000
0001
1000
,
1001
0000
0000
0000
0000
0000
0000
0110
,
0000
0000
0000
0000
,
0000
0000
0000
0000
,
1000
0000
0100
0000
,
0010
0000
0001
0000
,
1000
0000
0001
0000
,
0100
0000
0000
0000
,
0010
0000
1000
0000
,
0001
0000
0100
0000
,
0010
0000
1000
0000
,
0001
0000
0000
0000
,
1000
0000
0001
0000
,
0100
0000
0010
0000
,
0100
0000
1000
0000
,
0001
0000
0000
0000
,
0100
0000
0010
0000
,
0001
0000
1000
0000
,
0001
0000
0100
0000
,
0010
0000
0000
0000
,
0110
0000
1000
0000
,
0001
0000
0100
0000
,
0010
0000
0001
0000
,
0010
0000
0000
0000
,
0100
0000
1000
0000
,
0001
0000
0100
0000
,
0010
0000
0001
0000
,
1000
0000
0001
0000
,
0100
0000
0000
0000
,
0010
0000
0000
0000
,
1001
0000
0000
0000
,
0110
0000
0000
0000
,
1001
0000
0000
0000
,
0100
0000
0010
0000
,
0001
0000
1000
0000
,
0001
0000
1000
0000
,
0001
1000
0001
1000
,
0001
0000
0000
0000
,
0001
1000
0010
0000
,
0001
1000
0001
0000
,
0100
0010
0100
0000
,
1000
0001
1000
0000
,
0100
0010
0100
0000
,
1000
0001
0100
0000
,
0010
0100
1000
0000
,
0001
0000
0000
0000
,
1000
0001
1000
0000
,
0100
0010
0100
0000
,
1000
0001
0100
0010
,
0100
1000
0001
0000
,
0100
1000
0001
0000
,
0100
0010
0100
0000
,
1000
0001
0100
0010
,
0110
0000
0000
0000
,
0010
0100
0001
0100
,
0010
0100
0010
1000
,
0001
1000
0100
1000
,
0010
0100
0010
1000
,
0001
0100
0010
1000
,
0100
0010
0100
1000
,
0001
0010
0100
1000
,
0001
1000
0100
1000
,
2002
0000
0000
0000
,
0000
0000
0000
3003
,
0100
0000
0000
0100
0000
0000
0001
0000
0000
0000
0000
0000
0000
0000
0000
0000
,
2002
0000
0000
0000
,
3003
0000
0000
0000
;

//--------------- dance-single - ----------------
#NOTEDATA:;
#STEPSTYPE:dance-single;
#DESCRIPTION:;
#DIFFICULTY:Easy;
#METER:14;
#RADARVALUES:0,0,0,0,0;
#NOTES:
0000
0000
0000
0000
,
0000
0000
0000
0000
,
0000
0000
0000
0000
,
0000
0000
0000
0000
,
0000
0000
0000
0000
,
0000
0000
0000
1001
,
0000
0000
0100
0110
,
0000
0000
0010
1001
,
0000
0000
0000
0001
,
0010
0100
1000
1001
,
0000
0000
0100
0110
,
0000
0000
0010
1001
,
0000
0000
0000
0001
,
0010
0100
1000
2002
,
0000
0000
0000
0000
,
0000
0000
0000
0000
,
0000
0000
0000
3003
,
0000
0000
0000
0001
,
0000
1000
0000
0001
,
0000
1000
0000
0001
,
1000
0001
1000
0000
,
1001
0010
0100
1000
,
0010
1000
0001
1000
,
0010
1000
0001
0010
,
1000
0000
0001
1000
0000
0001
1000
0000
,
0010
0100
1000
0100
,
0001
0010
0100
1000
,
0010
0001
0100
0010
,
1000
0100
0001
0100
,
1001
0000
0010
0000
,
0100
1000
0001
0000
,
0110
0010
0100
0001
,
1000
0100
0001
0100
,
1000
0100
0001
0010
,
0100
0000
0010
1000
0100
0001
1000
0100
,
1001
0000
0000
0000
,
0001
0000
0000
0010
0000
0000
0100
0000
0000
0000
0001
0000
1000
0000
0001
0000
,
1000
0000
0000
0010
0000
0000
0100
0000
0010
0000
0100
0000
0001
0000
1000
0000
,
0010
0001
0000
1000
0001
0100
1000
0001
,
1000
0010
0000
0001
0010
0100
0010
1000
,
0100
0001
1000
0100
0001
0010
0100
1000
,
0100
0001
0010
0001
0100
1000
0010
0000
,
0001
0010
1000
0100
,
0001
0010
0100
0001
,
0220
0000
0000
0000
,
0000
0000
0330
0000
,
1001
0010
1000
0100
,
0001
0010
1000
0100
,
0001
0010
0100
0001
,
0010
1000
0110
0000
,
0220
0000
0000
0000
0330
2002
0000
0000
,
0000
0000
3003
0020
,
1030
0100
0001
0010
,
1000
0001
0100
0000
,
0220
0000
0000
0000
,
0000
0330
1001
0001
,
0110
0001
1000
0010
,
0001
0100
1000
0020
,
0130
0001
0010
1000
,
0100
0010
0001
0010
,
1000
0100
0001
0010
,
0100
1000
0001
0100
,
2002
0000
0000
0000
,
0000
0000
0000
3003
,
0100
0100
0001
0000
,
1001
0000
0010
1000
,
0001
0100
0010
0000
,
0110
0000
1000
0001
,
0100
0010
0100
1000
,
0101
0000
0100
0000
,
1100
0000
0100
0000
,
0001
1000
0001
1000
,
1001
0000
0000
0000
0001
0000
0000
0110
,
0000
0000
0000
0000
,
0000
0000
0000
0000
,
1000
0001
0100
0000
,
0010
0100
0001
0000
,
1000
0010
0001
0000
,
0100
1000
0001
0000
,
0010
0001
1000
0000
,
0001
0010
0100
0000
,
0010
0001
1000
0100
,
0001
0000
0000
0000
,
1000
0010
0001
0000
,
0100
1000
0010
0000
,
0100
0001
1000
0100
,
0001
0010
1000
0000
,
0100
0000
0010
0000
,
0001
0000
1000
0000
,
0001
0010
0100
1000
,
0010
0000
0000
0000
,
0100
0010
1000
0100
,
0001
0000
0100
0000
,
0010
1000
0001
1000
,
0020
0000
0030
0000
,
0100
0001
1000
0010
,
0001
1000
0100
0000
,
0010
1000
0001
0100
,
1000
0010
0001
0010
,
0100
1000
0001
1000
,
0010
0100
0010
0100
,
1001
0000
0000
0100
,
0110
0000
0000
0010
,
1001
0000
0000
0010
,
0100
1000
0010
1000
,
0001
0010
1000
0100
,
0001
0010
1000
0100
,
0001
1000
0001
1000
0001
1000
0001
1000
,
0001
0010
0100
0000
,
0001
1000
0010
0100
,
0001
1000
0001
0010
,
0100
0010
0100
0001
,
1000
0001
1000
0010
,
0100
0010
0100
0001
,
1000
0001
0100
1000
,
0010
0100
1000
0100
,
0002
0000
0000
0000
,
1003
0001
1000
0010
,
0100
0010
0100
0001
,
1000
0001
0100
0010
,
0100
1000
0001
0010
,
0100
1000
0001
0010
,
0100
0010
0100
0001
,
1000
0001
0100
0010
,
0210
0000
0000
0000
,
0310
0001
0100
0000
0001
1000
0100
0000
,
0010
0001
0100
0000
0010
0100
1000
0000
,
0001
0010
1000
0000
0100
0001
1000
0000
,
0010
0001
0100
0000
0010
0000
1000
0010
,
0001
0000
0100
1000
0010
0000
1000
0001
,
0100
0000
0010
0001
0100
0010
1000
0100
,
0001
1000
0010
0001
0100
0010
1000
0100
,
0001
0010
1000
0001
0100
0010
1000
0100
,
2002
0000
0000
0000
,
0000
0000
0000
3003
,
0100
0000
0000
0100
0000
0000
0001
0000
0000
0000
0100
0000
0010
0000
0100
0000
,
2002
0000
0000
0000
,
3003
0000
0000
0000
;

//--------------- dance-single - ----------------
#NOTEDATA:;
#STEPSTYPE:dance-single;
#DESCRIPTION:;
#DIFFICULTY:Medium;
#METER:16;
#RADARVALUES:0,0,0,0,0;
#NOTES:
0000
0000
0000
0000
,
0000
0000
0000
0000
,
0000
0000
0000
0000
,
0000
0000
0000
0000
,
0000
0000
0000
0000
,
0000
0000
0000
1001
,
0001
0010
0100
1000
0001
0000
0101
0000
,
1000
0001
0100
0010
0100
0000
0101
0000
,
1000
0001
0100
0010
0100
0000
0001
1000
,
0001
0100
0010
1000
0001
0100
0110
0000
,
0001
0100
0010
1000
0001
0000
0101
0000
,
1000
0001
0100
0010
0100
0000
0101
0000
,
1000
0001
0100
0010
0100
0000
1000
0000
,
0001
0100
1000
0010
0001
0010
2002
0000
,
0000
0000
0000
0000
,
0000
0000
0000
0000
,
0000
0000
0000
3003
,
0000
0000
0000
0010
,
1000
0010
0001
0010
,
1000
0000
0010
0000
0001
0000
0010
2000
,
3010
0002
0013
2000
3010
0002
0003
0000
,
1000
0001
0100
0001
0010
0100
1000
0001
,
1000
0010
0100
0001
0100
0010
1000
0001
,
0200
0000
0320
0000
0032
0000
1003
0010
,
0200
0000
2300
3002
0203
0000
0320
0000
,
1030
0000
0001
0010
1000
0001
0100
0010
,
0100
1000
0001
0010
0100
1000
0001
0100
,
0010
0000
1000
0000
0001
0000
0100
0001
,
0100
1000
0010
0000
0100
0000
0001
0000
,
0020
0000
1030
0000
0001
0100
0010
0000
,
1000
0001
0100
0010
0100
0001
0200
0000
,
0310
0100
1000
0010
1000
0010
1000
0100
,
0010
0100
1000
0100
0010
0001
0100
0010
,
1000
0010
1000
0010
0100
0001
0010
0001
,
0010
0000
0001
0000
0100
0000
0010
0000
0100
1000
0010
0000
1000
0001
0100
0000
,
0020
0000
0000
0000
0000
0130
1000
0001
,
0010
0000
0000
0100
0000
0000
1000
0000
0000
0000
0001
0000
0100
0000
0001
0000
,
0010
0000
0000
0100
0000
0000
1000
0000
0001
0000
0010
0000
0200
0000
0310
0000
,
1000
0001
1000
0000
0100
0000
0010
0000
0100
0000
1000
0000
0001
0000
0100
0000
,
0010
0100
1000
0001
0100
0010
0100
1000
,
0001
0100
0001
0100
1000
0100
0020
0000
0032
0000
0023
0000
0230
0000
1300
0100
,
0001
0000
0010
0100
1000
0000
0001
0010
0100
0000
1000
0001
0100
0000
0001
0000
,
1000
0001
0101
1000
,
0010
0000
0100
0000
0010
0100
1000
0000
,
2002
0000
0000
0000
,
0000
0000
0000
3003
,
1000
0000
0000
0100
0000
0000
0001
0000
1000
0000
0010
0000
0100
0000
1000
0000
,
0001
0000
0000
1000
0000
0000
0100
0000
0001
0100
1000
0001
0020
0000
0000
0000
,
0130
1000
0100
0000
0001
0010
1000
0000
0001
0010
0100
0000
1000
0000
0001
0000
,
0100
1000
0001
0010
0200
0000
0310
0000
,
0020
0000
0000
0000
1030
0002
0000
0000
,
0000
0000
0000
0103
,
1000
0000
0100
0010
0001
0000
1000
0100
0010
0000
0001
0000
0020
0000
0000
0000
,
0130
0001
1000
0010
0100
0000
0100
0000
,
2002
0000
0000
0000
,
0000
0000
3003
0110
,
0020
0000
0030
0100
1000
0010
0001
0000
,
1000
0001
0100
0010
0200
0000
0001
0000
,
0310
0000
0100
0001
1000
0010
0100
1000
,
0001
0000
1000
0001
0100
0000
0010
0000
0100
0000
0001
0000
1000
0000
0000
0000
,
0002
0203
2300
3020
,
0130
0000
0001
0000
0100
0000
0010
0000
0100
0000
1000
0000
0000
0001
0000
0000
,
2002
0000
0000
0000
,
3003
0000
0000
0000
,
0010
0100
0100
0001
,
1001
0000
0000
0000
0001
0100
1000
0010
,
0001
0010
0100
0000
0010
0000
0001
0000
,
1010
0000
0000
0000
0001
0100
1000
0010
,
0001
1000
0100
0000
0010
0000
0001
0000
,
0110
1000
0101
0010
,
1001
1000
0110
0001
,
1000
0001
1000
0001
1000
0001
1000
0001
,
1000
0000
0000
0000
0000
0000
1000
0000
0001
1000
0000
0101
,
0000
0000
0000
0000
,
0000
0000
0000
0000
,
0001
0000
0010
0000
0100
1000
0000
0100
,
1000
0000
0010
0000
0100
0001
0000
0100
,
0001
0000
1000
0000
0100
0001
0000
0100
,
1000
0001
1000
0001
,
1000
0000
0100
0000
0010
0001
0000
0010
,
0001
0000
0100
0000
0010
1000
0000
0010
,
1000
0000
0001
0000
0100
1000
0000
0100
,
0001
1000
0001
0000
,
1001
0000
0010
0100
0000
0010
0100
0000
,
0001
0000
0010
0100
0000
0010
0100
0000
,
1000
0000
0100
0010
0000
0001
1000
0000
,
0010
0000
0100
0010
0000
0100
1000
0000
,
0001
0000
0100
0010
0000
0100
0010
0000
,
1000
0000
0100
0010
0000
0100
0010
0000
,
0001
0000
0010
0100
0000
1000
0001
0000
,
0100
0100
0001
0000
,
1000
0000
0100
0000
0010
0000
0001
0100
,
0001
0000
0100
0000
0010
0000
1000
0100
,
1000
0000
0100
0000
0010
0000
0001
0100
,
0001
0000
0100
0000
0010
0000
0100
0001
,
0100
0000
0001
0000
0010
0000
0100
1000
,
0100
1000
0100
1000
,
0010
1000
0010
0000
0100
0000
0100
0000
,
0001
0010
0001
0000
0100
0000
0100
0000
,
0010
1000
0010
0000
0100
0001
0100
0000
,
0001
0010
0001
1000
0100
0001
0010
0100
,
2000
0000
0000
3001
,
1001
0000
0001
0010
0100
1000
0002
0000
,
1003
0000
0100
0010
0100
0001
0010
0000
,
1001
0101
1001
0110
,
1001
0000
0001
0010
0011
0000
0001
0010
,
0011
0000
1000
0100
1100
0000
1000
0100
,
1000
0001
1000
0001
1000
0001
1000
0001
,
0010
0100
0010
0100
1000
0001
0100
0010
,
1000
0100
1000
0100
,
0010
0000
0001
1000
0100
0000
0001
0000
,
1000
0001
0010
0000
1000
0000
0010
0001
,
0100
0000
0001
0100
1000
0000
0010
0100
,
1000
0001
0010
0100
,
1000
0010
0001
0000
0100
1000
0010
0000
,
1000
0000
0001
0100
0010
0000
0100
0001
,
1000
0010
0120
0000
,
1030
0100
0010
0001
,
1000
0000
0001
0100
0010
0000
0001
0010
,
0100
0000
0010
0100
1000
0000
0010
1000
,
0100
0001
0100
0010
,
1000
0001
1000
0010
0100
0000
0010
0000
,
0010
1000
0100
0010
0001
0010
0001
1000
,
0100
0000
0010
0001
0010
0000
0100
0000
,
0220
0000
0000
0330
,
0100
0000
0001
0000
0010
0001
0000
0010
,
0001
0000
0011
0000
0000
1100
0000
0000
,
0010
0000
1000
0000
0010
1000
0000
0010
,
1000
0000
1010
0000
0000
0101
0000
0000
,
0001
0100
0010
1000
0100
0000
0010
0000
,
0001
0010
0100
1000
0100
0000
0010
0000
,
0001
1000
0010
0100
0001
1000
0010
0100
,
0001
0010
0100
0010
0001
1000
0100
0010
,
2002
0000
0000
0000
,
0000
0000
0000
0000
0000
0000
0000
3003
,
0100
0000
0000
0100
0000
0000
0001
0000
0000
0000
1000
0000
0001
0000
0000
0000
,
1000
0001
1000
0001
1000
0001
1000
0001
1000
0001
1000
0001
1000
0001
1000
0001
,
1000
0000
0000
0000
;

//--------------- dance-single - ----------------
#NOTEDATA:;
#STEPSTYPE:dance-single;
#DESCRIPTION:;
#DIFFICULTY:Hard;
#METER:19;
#RADARVALUES:0,0,0,0,0;
#BPMS:0.000=175.000
,1.000=171.000
,2.000=159.000
,4.000=170.000
,8.000=180.000
,12.000=191.500
,20.000=189.000
,23.000=256.000
,111.000=128.000
,119.000=256.000
,127.000=512.000
,143.000=64.000
,145.000=128.000
,152.000=256.000
,153.000=128.000
,169.000=256.000
,181.000=165.000
,192.000=330.000
,193.000=165.000
,208.000=330.000
,210.000=165.000
,231.000=82.500
,232.000=165.000
,239.000=330.000
,241.000=165.000
,253.000=260.000
,297.000=360.000
,405.000=205.000
,407.000=210.000
,408.000=240.000
,409.000=245.000
,412.000=156.000
,413.000=270.000
,465.000=258.000
,467.000=252.000
,469.000=280.000
,497.000=260.000
,499.000=240.000
,501.000=290.000
,541.000=135.000
,545.000=280.000
,547.000=250.000
,548.000=210.000
;
#STOPS:150.500=0.233
,192.000=0.182
,224.000=0.182
,224.500=0.182
;
#NOTES:
0000
0000
0000
0000
,
0000
0000
0000
0000
,
0000
0000
0000
0000
,
0000
0000
0000
0000
,
0000
0000
0000
0000
,
0000
0000
0000
1001
,
0001
0100
0010
0100
0001
0010
0100
1000
0001
0000
0000
0000
0011
0000
0000
0000
,
0001
0010
0001
1000
0001
0100
0010
0100
0010
0000
0000
0000
1100
0000
0000
0000
,
0100
1000
0010
0100
0010
1000
0100
1000
0010
0000
0000
0000
0100
0000
1000
0000
,
0010
1000
0100
0010
0001
0100
0110
0000
,
0001
1000
0001
1000
0001
0010
0100
1000
0001
0000
0000
0000
0011
0000
0000
0000
,
0010
1000
0010
0100
0001
0100
0010
0100
0001
0000
0000
0000
1100
0000
0000
0000
,
0100
0010
0001
0010
0100
0010
0100
1000
0001
0000
0000
0000
0010
0000
0100
0000
,
0010
0100
0010
1000
0100
1000
2002
0000
,
0000
0000
0000
0000
,
0000
0000
0000
0000
,
0000
0000
0000
3003
,
0000
0000
0000
0010
,
1000
0010
0001
0010
,
1000
0000
0010
0000
0001
0000
0010
1000
,
0010
0001
0010
1000
0010
0001
0010
0000
,
0000
0000
0000
0000
0000
0000
0010
1000
,
0100
0001
0010
0000
0100
1000
0010
0000
0001
0100
0010
0000
0001
0100
1000
0000
,
0010
0000
0100
0000
0010
0100
1000
0000
0010
0000
1000
0001
0100
0000
0010
0000
,
0001
0100
0010
0100
0001
0010
0100
0010
,
0001
0010
0100
1000
0001
1000
0001
0010
,
0001
0100
1000
0000
0010
0100
1000
0000
0010
0000
0100
0000
0010
1000
0100
0000
,
0001
0000
0010
0000
0100
0001
0010
0000
0100
0000
1000
0100
0001
0010
0100
1000
,
0100
1000
0100
0010
0001
0100
0001
0010
0001
0100
0010
0100
0100
0010
0100
0010
,
0100
1000
0001
0010
0100
1000
0001
0010
0100
0010
0100
0000
0100
0000
1000
0000
,
0001
1000
0100
1000
0100
0010
0001
0010
,
0001
0010
0100
1000
0010
1000
0100
1000
,
0010
0100
0010
0100
0001
0100
0001
1000
,
0001
1000
0010
0100
0010
0100
0010
1000
,
0100
0000
1000
0000
0010
0000
1000
0000
0100
0000
0010
0000
0001
1000
0010
0100
,
0001
0000
0100
0000
0010
1000
0100
0010
0001
0100
1000
1010
0200
0000
0000
0000
,
0000
0010
0001
0010
1300
0000
0000
0001
0100
0000
0001
0000
0010
0000
1000
0010
,
0001
0000
0010
1000
0001
0000
0000
1000
0001
0200
0300
0000
0010
0001
1000
0010
,
0200
0000
0300
0000
0100
0000
0100
0010
0100
0000
0010
0100
0001
0000
0100
0010
,
0001
0100
0010
1000
0001
0000
1000
0100
0010
0000
0001
1000
0001
0010
0001
1000
,
0100
1000
0001
0010
0001
0000
0001
1000
0010
1000
0010
0000
0001
1000
0010
1000
,
0001
0100
0001
0100
0010
0100
0010
1000
0100
0010
0100
0010
0100
1000
0010
0100
,
0010
1000
0020
0000
0031
0000
0010
0000
0001
0000
1000
0000
0100
0000
0010
0000
,
0001
1000
0001
1000
0010
1000
0100
0010
,
0100
0010
2002
0000
0000
0000
0000
0000
,
0000
0000
0000
0000
,
3003
0000
0000
0000
0000
0000
0000
0000
0001
0000
0000
1000
0000
0000
0001
0000
0000
0100
0000
0000
0001
0000
0010
0000
0100
0000
0001
0000
1000
0000
0000
0000
,
0001
0000
0000
0000
1000
0000
0000
0000
0001
0000
0000
0010
0000
0000
0100
0000
0000
1000
0000
0000
0001
0000
0100
0000
1000
0000
0100
0000
0001
0000
1000
0000
,
1001
0000
0000
0000
0000
0000
0000
0000
0000
0000
0000
0000
0000
0000
0000
0000
0000
0000
0000
0000
0000
0000
0000
0000
0000
0000
0000
0000
0000
0000
0000
0000
0000
0000
0000
0000
0000
0000
0000
0000
0000
0000
0000
0000
0000
0000
0000
0000
1000
0000
0000
0000
0000
0000
0000
0000
0000
0000
0000
0000
0000
0000
0000
0001
0000
0000
0000
0000
0000
0000
0000
0000
0000
0000
0000
0000
1000
0000
0000
0000
0000
0000
0000
0000
0000
0000
0000
0000
0000
0000
0001
0000
0000
0000
0000
0000
0000
0000
0000
0000
0000
0000
0000
0000
0000
1000
0000
0000
0000
0000
0000
0000
0000
0000
0000
0000
0000
0000
0000
0000
0001
0000
0000
0000
0000
0000
0000
0000
1000
0000
0000
0000
0000
0000
0000
0000
0001
0000
0000
0000
0000
0000
0000
0000
0100
0000
0000
0000
0000
0000
0000
0000
0000
0000
0000
0000
0000
0000
0000
0000
1000
0000
0000
0000
0000
0000
0000
0000
0000
0000
0000
0000
0001
0000
0000
0000
0000
0000
0000
0000
0000
0000
0000
0000
1000
0000
0000
0000
0000
0000
0000
0000
,
0000
0000
0000
0000
0100
0000
0000
0000
0000
0000
0000
0000
1000
0000
0000
0000
0100
0000
0000
0000
0001
0000
0000
0000
1000
0000
0000
0000
0000
0000
0100
0000
0000
0000
0000
0000
0001
0000
0000
0000
0010
0000
0000
0000
0100
0000
0000
0000
1000
0000
0000
0000
0001
0000
0000
0000
0000
1000
0000
0000
0100
0000
0000
0010
0000
0000
0001
0000
0000
1000
0000
0000
0001
0000
0000
0000
0000
0000
0000
0000
0000
0000
0000
0000
0000
0000
0000
0000
0000
0000
0000
0000
0000
0000
0000
0000
,
1001
0000
0000
0000
1002
0000
0000
0000
0000
0000
0000
0000
1003
0000
0001
1000
,
0001
0000
0000
0000
0000
0000
0000
0000
0000
0000
0000
0000
1000
0000
0000
0000
0000
0000
0000
0000
0000
0000
0000
0000
0001
0000
0000
0000
0000
0000
0000
0000
0000
0000
0000
0000
1000
0000
0000
0000
0000
0000
0000
0000
0000
0000
0000
0000
0001
0000
0000
0000
0000
0000
0000
0000
0000
0000
0000
0000
0000
0000
0000
0000
1000
0000
0000
0000
0000
0000
0000
0000
0000
0000
0000
0000
0001
0000
0000
0000
0000
0000
0000
0000
0000
0000
0000
0000
0000
0000
1000
0000
0000
0000
0000
0000
0000
0000
0000
0000
0000
0000
0000
0000
0000
0001
0000
0000
0000
0000
0000
0000
0000
0000
0000
0000
0000
0000
0000
0000
1000
0000
0000
0000
0000
0000
0000
0000
0000
0000
0000
0000
0000
0000
0000
0000
0000
0000
0001
0000
0000
0000
0000
0000
0000
0000
0000
0000
0000
0000
0000
0000
0000
0000
0000
0000
1000
0000
0000
0000
0000
0000
0000
0000
0000
0000
0000
0000
0000
0000
0000
0000
0000
0000
0001
0000
0000
0000
0000
0000
0000
0000
0000
0000
0000
0000
0000
0000
0000
0000
0000
0000
,
2002
0000
0000
0000
0000
0000
0000
0000
0003
0000
0000
0000
0000
0000
0000
0000
3001
0000
0000
0000
1000
0000
0001
0010
0100
0000
0000
0000
1000
0000
0100
0000
,
0001
0000
0000
0000
0000
0000
0000
0000
0000
0000
1000
0000
0000
0000
0000
0000
0000
0000
0010
0000
0000
0000
0000
0000
0001
0000
0000
0000
0000
0000
0010
0000
0000
0000
0000
0000
1000
0000
0000
0000
0000
0000
0010
0000
0000
0000
0000
0000
0001
0000
0000
0000
0000
0000
1000
0000
0000
0000
0000
0000
0001
0000
0000
0000
0000
0000
0010
0000
0000
0000
0000
0000
0100
0000
0000
0000
0000
0000
0000
0000
0000
1000
0000
0000
0001
0000
0000
0010
0000
0000
0100
0000
0000
0001
0000
0000
,
2000
0000
0000
3002
0000
0000
0203
0000
0000
0310
0000
0000
1000
0001
1000
0001
1000
0001
1000
0001
1000
0001
1000
0001
,
1000
0001
1000
0001
1000
0001
1000
0001
1000
0001
1000
0001
1000
0001
1000
0001
1000
0001
1000
0001
1000
0001
1000
0001
,
1000
0000
0000
0000
0000
0000
0000
0000
0000
0000
0000
0000
0000
0000
0000
0000
0000
0000
0000
0000
0000
0000
0000
0000
0101
0000
0000
0000
0000
0000
0000
0000
0000
0000
0000
0000
0000
0000
0000
0000
0000
0000
0000
0000
0000
0000
0000
0000
1000
0000
0000
0000
0000
0000
0000
0000
0000
0000
0000
0000
0000
0000
0000
0100
0000
0000
0000
0000
0000
0000
0000
0000
0000
0000
0000
0000
0000
0000
1000
0000
0000
0000
0000
0000
0000
0000
0000
0000
0000
0000
0001
0000
0000
0000
0000
0000
0000
0000
0000
0000
0000
0000
0000
0000
0000
1000
0000
0000
0000
0000
0000
0000
0000
0000
0000
0000
0000
0000
0000
0000
0010
0000
0000
0000
0000
0000
1000
0000
0000
0000
0000
0000
0000
0000
0000
0100
0000
0000
0000
0000
0000
0000
0000
0000
1000
0000
0000
0000
0000
0000
0000
0000
0000
0000
0000
0000
0000
0000
0000
0001
0000
0000
0000
0000
0000
0000
0000
0000
0000
0000
0000
0000
0100
0000
0000
0000
0000
0000
0000
0000
0000
0000
0000
0000
0000
0000
1000
0000
0000
0000
0000
0000
,
0000
0000
0000
0000
0000
0000
0000
0000
0000
0001
0000
0000
0000
0000
0000
0000
0000
0000
0000
0000
0000
0000
0000
0000
1000
0000
0000
0000
0000
0000
0000
0000
0001
0000
0000
0000
0000
0000
0000
0000
1000
0000
0000
0000
0000
0000
0000
0000
0010
0000
0000
0000
0000
0000
0000
0000
0000
0000
0000
0000
1000
0000
0000
0000
0000
0000
0000
0000
0000
0000
0000
0000
0000
0000
0000
0001
0000
0000
0000
0000
0000
0000
0000
0000
0010
0000
0000
0000
0000
0000
0100
0000
0000
0000
0000
0000
0000
0000
0000
0000
0000
0000
1000
0000
0000
0000
0000
0000
0000
0000
0000
0000
0000
0000
0000
0000
0000
0001
0000
0000
0000
0000
0000
0000
0000
0000
0000
0000
0000
0010
0000
0000
0000
0000
0000
0000
0000
0000
0000
0000
0000
0000
0000
0000
1001
0000
0000
0000
0000
0000
0000
0000
0000
0000
0000
0000
0000
0000
0000
0000
0000
0000
0000
0000
0000
0000
0000
0000
0101
0000
0000
0000
0000
0000
0000
0000
0000
0000
0000
0000
0000
0000
0000
0000
0000
0000
0000
0000
0000
0000
0000
0000
,
1000
0000
0000
0001
0000
0000
0100
0000
0000
1000
0000
0000
0001
0000
0010
0000
0100
0000
0001
0000
1000
0000
0000
0000
0001
0000
0000
0000
0010
0000
0000
0000
,
0100
0000
0000
0000
0000
0000
0000
0000
0000
1000
0000
0000
0000
0000
0000
0000
0000
0000
0001
0000
0000
0000
0000
0000
0000
0000
0000
0010
0000
0000
0000
0000
0000
0000
0000
0000
1000
0000
0000
0000
0000
0000
0001
0000
0000
0000
0000
0000
0100
0000
0000
1000
0000
0000
0000
0000
0100
0000
0000
0000
0001
0000
0000
0000
0000
0000
1000
0000
0000
0000
0000
0000
0020
0000
0000
0000
0000
0000
0000
0000
0000
0000
0000
0000
0000
0000
0000
0000
0000
0000
0000
0000
0000
0000
0000
0000
,
0000
0000
0000
0000
0000
0000
0030
0000
0000
0000
0000
0000
1000
0000
0100
0000
0010
0000
1000
0000
0001
0000
0100
0000
0010
0000
1000
0000
0001
0000
0100
0000
0010
0000
1000
0000
0001
0000
0000
1000
0000
0000
0010
0000
0000
0001
0000
0000
,
0100
0000
0000
0000
0000
0000
0000
0000
1000
0000
0000
0000
0000
0000
0000
0000
0001
0000
0000
0000
0000
0000
0000
0000
0010
0000
0000
0000
0000
0000
0000
0000
0100
0000
0000
0000
0000
0000
0000
0000
1000
0000
0000
0000
0000
0000
0000
0000
0001
0000
0000
0000
0000
0000
0000
0000
0000
0000
0000
0000
1000
0000
0000
0000
0000
0000
0000
0000
0000
0000
0000
0000
0000
0000
0000
0001
0000
0000
0000
0000
0000
1000
0000
0000
0000
0000
0000
0000
0000
0000
0010
0000
0000
0000
0000
0000
0000
0000
0000
0000
0000
0000
1000
0000
0000
0000
0000
0000
0000
0000
0000
0000
0000
0000
0000
0000
0000
0001
0000
0000
0000
0000
0000
0000
0000
0000
0000
0000
0000
1000
0000
0000
0000
0000
0000
0000
0000
0000
0000
0000
0000
0000
0000
0000
0101
0000
0000
0000
0000
0000
0000
0000
0000
0000
0000
0000
0000
0000
0000
0000
0000
0000
0000
0000
0000
0000
0000
0000
1001
0000
0000
0000
0000
0000
0000
0000
0000
0000
0000
0000
0000
0000
0000
0000
0000
0000
0000
0000
0000
0000
0000
0000
,
0000
0110
0000
0000
1001
0000
0000
0000
0000
0000
0000
0000
0000
0000
0000
0000
,
0000
0001
0010
1000
,
0100
0010
0001
1000
,
0001
0000
1001
0000
0100
1000
0001
1000
,
0001
0010
0001
0010
0100
0010
0001
0100
,
0010
0000
1001
0000
0100
1000
0100
1000
,
0001
1000
0010
0100
0010
0100
0001
0010
,
0100
0000
1001
0000
0010
1000
0110
0000
,
0100
0010
0101
0000
0010
0100
1001
0000
,
0010
0100
1001
0100
0101
0100
1010
0100
,
0110
0000
0100
0000
1001
0000
0000
0000
0000
0000
0000
0000
0001
0000
0000
0100
,
1000
0000
0000
1001
0000
0000
0000
0000
0010
0000
0000
0000
1000
0000
0000
0000
,
0200
0020
0000
0000
,
0000
0300
1030
0100
0010
0100
0010
0001
,
1000
0001
0100
0010
0100
0001
0010
0001
,
1000
0010
1000
0100
0010
0100
1000
0001
,
0010
0001
0010
0100
1000
0001
1000
0100
,
0010
0100
0010
0001
0010
0001
1000
0100
,
1000
0010
1000
0001
0010
0100
0010
0001
,
0010
0001
1000
0001
1000
0010
1000
0001
,
0100
0001
0100
0010
0100
0010
2000
0000
,
0000
0000
3001
0010
1000
0100
1000
0010
,
1000
0001
0010
0100
1000
0001
0100
0010
,
0100
0001
0100
0010
1000
0100
0010
0001
,
1000
0010
0100
0010
1000
0010
0100
0001
,
0010
0001
0100
0001
0010
0100
0010
0001
,
0010
0001
1000
0001
0100
0010
0100
0001
,
1000
0010
0100
0001
1000
0001
0010
0100
,
0010
0001
0010
0100
1000
0010
0200
0000
,
0000
0000
0310
0001
1000
0010
0100
0010
,
0100
0001
1000
0001
0100
0010
0100
0010
,
1000
0000
0010
0000
1000
0001
0100
0000
0010
0000
0100
0000
0001
1000
0100
0000
,
0010
0100
1001
0000
0000
0000
2000
0000
,
3002
0000
0103
0001
1000
0100
1000
0100
,
1000
0001
0100
0010
0100
0010
1000
0010
,
0100
0001
0100
0001
1000
0010
1000
0010
,
0100
0010
1000
0001
0010
0001
1000
0010
,
0100
0000
0010
0000
0100
1000
0100
1000
0100
0010
0001
1000
0001
1000
0100
1000
,
0010
0100
0010
0100
0010
1000
0100
0010
0100
0010
0100
1000
0010
0100
0001
1000
,
0010
0100
0010
0100
0010
0000
0000
0000
0001
0000
1000
0000
0001
0000
0100
0000
,
0001
0000
0011
0000
0010
0100
0001
0010
,
0001
0000
1100
0000
0100
0001
0100
1000
,
0001
0000
0010
0100
0010
0100
0010
1000
,
0100
1000
0110
0000
0100
0010
0110
0000
,
0100
0010
1001
0000
0010
0100
0101
0000
,
0010
1000
0001
0100
0001
0100
0010
0100
,
0001
1000
0010
0100
0010
0100
0001
0100
,
0001
0010
1000
0001
0100
0010
1000
0010
,
0100
0000
0001
0000
0010
0000
0100
1000
0001
0100
1000
0000
0010
0000
0100
0000
,
0001
1000
0001
0000
0010
0000
0100
1000
0001
0000
0100
0010
1000
0000
0010
1000
,
0001
0000
1000
0100
0010
0000
0001
0000
0100
0000
1000
0000
0001
0000
0010
0000
,
0100
1000
0010
0100
0001
1000
0010
0100
,
0001
0010
0100
0100
1100
0000
0010
0000
,
0011
0000
0001
0010
0001
0000
0100
0001
0000
0100
0001
0000
1000
0010
1000
0010
,
1000
0000
0200
0000
0000
0000
0300
0000
0110
0000
0000
0000
1000
0100
0010
0001
,
1000
0000
0000
0000
0001
0000
1000
0000
0001
0100
1000
0100
0010
0000
0100
0000
,
0001
0000
0010
0001
0100
0010
1000
0000
0010
0000
0100
0000
0001
0000
0010
0000
,
0100
0000
1000
0000
0001
0000
0010
1000
0100
0001
1000
0000
0010
0000
1000
0000
,
0100
0000
1000
0000
0001
0000
0010
0000
0100
1000
0010
0100
0001
0000
0100
0000
,
0010
0000
1000
0000
0100
0000
1000
0000
0100
0000
1000
0100
0010
0000
0100
0010
,
0001
0000
0100
1000
0010
0000
0100
0000
0001
0010
1000
0000
0100
0001
1000
0000
,
0010
0000
1000
0000
0100
0000
0010
0000
0001
0000
0100
0000
0001
0000
0010
0100
,
0001
0000
1000
0000
0001
0000
0010
0100
0010
0000
1000
0000
0200
0000
0000
0000
,
0010
0000
0301
0010
0100
1000
0001
0010
,
0001
0100
0001
0010
0100
0010
0001
0010
,
0100
0000
1000
0100
0002
0000
0100
0000
0103
0000
1000
0000
0100
0000
1000
0000
,
0001
1000
0010
0100
0001
0010
0100
0010
,
0001
0010
0100
1000
0001
0100
0001
0100
,
0001
0000
1000
0000
0100
0000
1000
0000
0010
1000
0100
0010
0001
0100
0010
1000
,
0100
1000
0100
0001
0100
0010
0100
1000
0100
0010
0001
0100
0010
0100
0001
0010
,
0001
0100
0001
0010
0100
0010
0100
1000
0001
0100
0001
0010
0100
1000
0001
0010
,
0001
0010
0100
1000
0200
0000
0000
0000
0000
0000
0000
0000
0000
0000
0000
0000
,
0000
0000
0000
0000
,
0000
0000
0000
0000
0310
0000
0000
1000
0000
0000
0001
0000
0000
0000
0010
0000
,
0100
0000
1000
0000
0010
1000
0010
1000
0100
1000
0001
0100
0010
1000
0100
1000
,
0001
0100
0010
0100
1000
0000
0000
0000
0000
0000
0000
0000
0000
0000
0000
0000
;

//--------------- dance-single - ----------------
#NOTEDATA:;
#STEPSTYPE:dance-single;
#DESCRIPTION:;
#DIFFICULTY:Challenge;
#METER:20;
#RADARVALUES:0,0,0,0,0;
#BPMS:0.000=175.000
,1.000=163.000
,4.000=100.000
,5.000=73.080
,6.000=46.860
,7.000=409.000
,25.000=407.000
,26.000=417.000
,31.000=256.000
,34.000=512.000
,36.000=256.000
,39.000=512.000
,41.000=256.000
,44.000=512.000
,54.000=256.000
,57.000=512.000
,59.000=256.000
,62.000=512.000
,64.000=256.000
,67.000=512.000
,130.000=1024.000
,141.000=512.000
,189.000=128.000
,193.000=256.000
,201.000=512.000
,233.000=32.000
,234.000=128.000
,241.000=1024.000
,245.000=128.000
,253.000=256.000
,277.000=100.000
,280.750=106.000
,281.000=165.000
,288.000=660.000
,289.000=165.000
,295.000=82.500
,296.000=165.000
,303.000=660.000
,307.000=165.000
,321.000=162.000
,322.000=648.000
,323.000=165.000
,348.500=130.000
,353.000=131.000
,354.000=260.000
,362.000=272.000
,363.000=260.000
,387.000=530.000
,400.000=526.000
,401.000=360.000
,431.000=1440.000
,439.000=360.000
,486.000=1440.000
,490.000=360.000
,514.000=194.000
,515.000=220.000
,517.500=225.000
,518.000=240.000
,521.000=1281.600
,529.000=250.000
,532.000=322.000
,533.000=280.000
,537.000=252.000
,539.000=303.000
,540.000=270.000
,581.000=254.000
,585.000=280.000
,614.000=240.000
,617.000=290.000
,649.000=1160.000
,681.000=135.000
,685.000=540.000
;
#STOPS:136.000=0.645
,239.500=0.234
,288.000=0.271
,322.000=0.260
;
#DISPLAYBPM:32.000:1440.000;
#NOTES:
0000
0000
0000
0000
,
0000
0000
0000
0000
,
0000
0000
0000
0000
,
0000
0000
0000
0000
,
0000
0000
0000
0000
,
0000
0000
0000
0000
,
0000
0000
0000
0000
,
0000
0000
0000
1001
,
1000
0010
1000
0010
1000
0001
0010
0001
1000
0000
0000
0000
0000
0000
0000
0000
,
1001
0000
0000
0000
0100
0001
1000
0100
0010
0100
0010
0001
0100
0000
0000
0000
,
0000
0000
0000
0000
1001
0000
0000
0000
1000
0010
0100
0001
1000
0100
1000
0010
,
0001
0000
0101
0101
,
0101
0101
0101
0101
,
0101
0000
0000
0000
0101
0000
0000
0000
1001
0000
0000
0000
1000
0010
0100
0001
,
0100
0010
0100
0010
1000
0000
0000
0000
0000
0000
0000
0000
0110
0000
0000
0000
,
1000
0100
1000
0010
1000
0100
0010
0100
0001
0000
0000
0000
0000
0000
0000
0000
,
1001
0000
0000
0000
0010
0100
1000
0100
1000
0100
0010
0001
1000
0000
0000
0000
,
0000
1001
1001
1001
,
1001
1001
1001
1001
,
1001
2002
0000
0000
,
0000
0000
0000
0000
,
0000
0000
0000
0000
,
0000
0000
0000
0000
,
0000
0000
0000
0000
,
0000
0000
0000
0000
,
0000
0000
0000
0000
,
0000
3003
0000
0000
,
0000
2002
3003
0000
,
0000
2002
3003
0000
,
0000
2002
3003
0000
,
0000
2002
3003
0000
,
0000
2002
3003
2002
,
3003
2002
3003
0000
,
2002
0000
3003
0000
,
0000
0000
0000
0000
,
0000
1001
1001
1100
,
1100
1001
1001
1100
,
1100
1001
1001
0101
,
0101
1001
1001
0101
,
0101
1010
1010
1100
,
1100
1010
1010
1100
,
1100
0011
0011
0101
,
0101
0011
0011
0101
,
0101
1001
1001
1100
,
1100
1001
1100
1001
,
1100
1001
1001
0101
,
0101
1001
0110
0101
,
1010
0000
0000
0000
0100
0000
0010
0000
1000
0001
0100
0010
1000
0001
0100
0010
,
1000
0001
0100
0010
1000
0000
0001
0000
0100
1000
0010
0001
0100
0000
0001
0000
,
0010
1000
0001
0000
0010
1000
0100
0000
1000
0010
0001
0000
1000
0000
0100
0000
,
0020
0000
0130
0001
0010
0000
0100
0001
,
1000
0010
0100
0000
1001
0000
0110
0000
,
1001
0000
0100
0001
0100
0010
1000
0001
,
0010
0001
0100
0000
0010
0000
1000
0010
,
1000
0001
0010
0000
1000
0100
0010
0001
,
0010
0100
1000
0010
0100
0010
1000
0100
,
1000
0100
1000
0010
0100
0001
0100
0010
,
1000
0000
0100
0000
0100
0010
0100
0001
1000
0001
1000
0010
0000
0100
1000
0010
,
0100
0000
0001
0000
0100
0000
0010
0000
2002
0000
0000
0000
3003
0002
0023
0230
2300
0000
0000
0000
3001
0000
0010
0000
0010
0000
0001
0000
0100
0000
0010
0000
,
0100
0001
0100
0010
1000
0001
1000
0001
1000
0010
0100
0001
1000
0100
0010
0000
,
1000
0001
0100
0010
0200
0000
0000
0000
0000
0000
0000
0000
0000
0000
0000
0000
,
0000
0000
0000
0000
0320
0000
0000
0032
2003
0000
3200
0000
0301
0010
0100
1000
,
0001
0000
0010
0000
1000
0001
1000
0001
2000
0000
0000
0000
0000
0000
3002
0000
0203
0000
0000
0000
1300
0000
0000
0000
1000
0001
0100
0010
1000
0001
0100
0010
,
1000
0000
0100
0000
0001
0000
0010
0100
0001
0000
0000
0000
0100
0000
0000
0000
0010
0000
0000
0000
1000
0000
0000
0000
0001
0000
0000
0000
0100
0000
0000
0000
,
0010
1000
0001
0010
0100
1000
0001
1000
,
0100
0000
0010
0000
0001
0100
0010
1000
0001
0010
0100
1000
0001
0000
0010
0000
,
0001
0000
0100
1000
0001
0000
0100
0000
0110
0000
0000
0000
0010
0000
0100
1000
,
0010
0100
0001
0010
2000
0000
3002
0000
0203
0000
0320
0000
2030
0000
3002
0000
,
0203
0000
0320
0000
2030
0000
3002
0000
1003
0100
0010
0001
0010
0001
1000
0100
,
1000
0100
1000
0001
0110
0000
0000
0000
0000
0000
0000
0000
0000
0000
0000
0000
,
0000
0000
0000
0000
0000
0000
0001
0000
1000
0000
0010
0000
0100
0001
1000
0010
0100
0000
1000
0000
0000
0010
0000
0000
,
0001
0000
0000
0000
0000
0000
0000
0000
0000
0000
0000
0000
1000
0000
0000
0000
0000
0000
0000
0000
0000
0000
0000
0000
0100
0000
0000
0000
0000
0000
0000
0000
0001
0000
0000
0000
0000
0000
0000
0000
0000
0000
1000
0000
0000
0000
0000
0000
0000
0000
0000
0001
0000
0000
0000
0000
0000
0000
0000
0000
0100
0000
0000
0000
0000
0000
0001
0000
0000
0000
0000
0000
0100
0000
0000
0000
0000
0000
1000
0000
0000
0000
0000
0000
0010
0000
0000
0000
0000
0000
1000
0000
0000
0000
0000
0000
,
0001
0000
0000
0000
0000
0000
0000
0000
0000
0000
0000
0000
0000
0000
0000
0000
0000
0000
0000
0000
0000
0000
0000
0000
0001
0000
0000
0000
0000
0000
0000
0000
1000
0000
0000
0000
0000
0000
0000
0001
0000
0000
0000
0000
0000
1000
0000
0000
0000
0000
0000
0000
0000
0000
0001
0000
0000
0000
0000
0000
0100
0000
0000
0000
0000
0000
0010
0000
0000
0000
0000
0000
0001
0000
0000
0000
0000
0000
0000
0000
0000
0000
0000
0000
0000
0000
0100
0000
0000
0000
0000
0000
0000
0000
0001
0000
,
0000
0000
1000
0000
0000
0000
0100
0000
0000
0001
0000
0000
1000
0000
0000
0001
0000
0000
1000
0000
0000
0100
0000
0000
1000
0000
0000
0100
0000
0000
0010
0000
0000
1000
0000
0000
0100
0000
0000
0000
0000
0000
1001
0000
0000
0000
0000
0000
,
0010
0000
0000
0000
1000
0000
0000
0000
0010
0000
0000
0000
0001
0000
0000
0000
0100
0000
0000
0000
0000
0000
0001
0000
1000
0000
0000
0000
0000
0000
0001
0000
0000
0100
0000
0000
1000
0000
0000
0001
0000
0000
1000
0000
0000
0001
0000
0000
,
1000
0000
0000
0000
0000
0000
0000
0000
0001
0000
0000
0000
0000
0000
0000
1000
0000
0000
0000
0000
0000
0001
0000
0000
0000
0000
0000
0000
1000
0000
0000
0000
0000
0000
0000
0000
0001
0000
0000
0000
0000
0000
0000
0000
0000
1000
0000
0000
0000
0000
0000
0000
0000
0000
0001
0000
0000
0000
0000
0000
0000
0000
0000
0000
1000
0000
0000
0000
0000
0000
0000
0000
0102
0000
0000
0000
0000
0000
0000
0000
0000
0000
0000
0000
0000
0000
0000
0000
0000
0000
0000
0000
0000
0000
0000
0000
,
0000
0000
0000
0000
0000
0000
0000
0000
0000
0000
0000
0000
1003
0000
0001
1000
,
0010
0000
0000
0000
0000
0000
0000
0000
0000
0000
0000
0000
0001
0000
0000
0000
0000
0000
0000
0000
1000
0000
0000
0000
0001
0000
0000
0000
0000
0000
0000
0000
0000
0000
0000
0000
0000
0000
0000
0000
0000
0000
0002
0000
0000
2000
0000
0000
0000
0000
0000
0000
0000
0000
0000
0000
0000
0000
0000
0000
0000
0000
0000
0000
0003
0000
0000
0000
0000
0000
0000
0000
3001
0000
0000
0000
0000
0000
0010
0000
0000
0000
0000
0000
1000
0000
0000
0000
0000
0000
0100
0000
0000
0000
0000
0000
,
0001
0000
0000
1000
0000
0000
0100
0000
0000
0000
0000
0000
0010
0000
0000
0000
0000
0000
0010
0000
0000
0001
0000
0000
1000
0000
0000
0000
0000
0000
0000
0000
0000
0000
0000
0000
0000
0000
0000
0000
0000
0000
0000
0000
0000
0000
0000
0000
0002
0000
0000
0000
0000
0000
0000
0000
0000
0000
0000
0000
2003
0000
0000
0000
0000
0000
0000
0000
0000
0000
0000
0000
3010
0000
0000
0000
0001
0000
0000
0000
0010
0000
0000
0000
0100
0000
0000
0000
1000
0000
0000
0000
0010
0000
0000
0000
,
1000
0010
0100
0001
0100
0001
1000
0100
1000
0010
0100
0001
0010
0001
1000
0010
0100
0001
0100
0001
0100
0010
1000
0100
,
0010
0000
0100
0000
0010
0000
0001
0000
0010
0000
0001
0000
2000
0000
0000
0000
0000
0000
0000
0000
0000
0000
0000
0000
3001
0000
0000
0000
0000
0000
0000
0000
0000
0000
0000
0000
0010
0000
0000
0001
0000
0000
0010
0000
0000
0100
0000
0000
,
1000
0100
0010
0100
1000
0010
1000
0010
0100
0010
0100
0001
0010
0100
0010
0100
,
0010
0000
0000
0001
0000
0000
1000
0000
0000
0010
0000
0000
0002
0000
0000
0000
0000
0000
0000
0000
0000
0000
0000
0000
2000
0000
0000
0000
0000
0000
3003
0000
0000
0000
0000
0000
0100
0000
0000
0000
0010
0000
0000
0000
0100
0000
0000
0000
,
0001
0000
0000
0000
0000
0000
0000
0000
0100
0000
0000
0000
0000
0000
0000
0000
0010
0000
0000
0000
0000
0000
0000
0000
0100
0000
0000
0000
0000
0000
0000
0000
0000
0000
0000
0000
0001
0000
0000
0000
0000
0000
0010
0000
0000
0000
0000
0000
0100
0000
0000
0000
0000
0000
0000
0000
0000
0000
0000
0000
1000
0000
0000
0000
0000
0000
0000
0000
0000
0000
0000
0000
0001
0000
0000
0000
0000
0000
0000
0000
0000
1000
0000
0000
0000
0000
0000
0000
0000
0000
0001
0000
0000
0010
0000
0000
,
0100
0000
0000
1000
0000
0000
0001
0000
0000
0100
0000
0000
0010
0000
0000
0000
0000
0000
1000
0000
0000
0100
0000
0000
0010
0000
0000
0000
0000
0000
0000
0000
0000
0000
0000
0000
1000
0000
0001
0000
1000
0000
0001
0000
0100
0000
0001
0000
,
1000
0100
1000
0010
1000
0100
0010
0100
1000
0100
1000
0001
0010
0100
0010
0100
0010
0001
1000
0000
0100
0001
1000
0000
,
0010
0000
0001
0000
1000
0000
0100
0000
0010
0000
0000
0000
1000
0000
0000
0000
0000
0000
0101
0000
0000
0000
0000
0000
0000
0000
0000
1001
0000
0000
0000
0000
0000
0000
0000
0000
1001
0000
0000
0000
0000
0000
0000
0000
0000
0000
0000
0000
,
0000
0000
0000
0010
,
0100
1000
0010
1000
0100
0000
1001
0000
,
0100
0010
0100
0010
1000
0010
1000
0100
,
1000
0100
0010
0001
0100
0000
1001
0000
,
0010
0001
0010
0001
0010
0100
1000
0100
,
0010
0001
1000
0001
0100
0000
1001
0000
,
0100
1001
0010
1001
,
0100
0000
1001
0000
0100
0000
1001
0110
,
1001
0110
1001
0110
1001
0110
1001
0000
,
0000
0000
0000
0100
0000
0010
0100
0000
1001
0000
0000
0000
,
0000
0000
0000
0000
,
0000
0200
0000
0020
,
0000
0000
0000
0330
,
0000
0000
0010
1000
0001
0100
1000
0100
,
0001
0010
1000
0001
0100
1000
0001
0010
,
1000
0010
0001
0100
1000
0100
0001
0100
,
1000
0100
0010
1000
0100
0010
0001
1000
,
0100
0001
0010
1000
0001
0100
1000
0100
,
0001
0010
1000
0010
0001
0100
1000
0100
,
0010
0001
0010
1000
0001
0100
1000
0001
,
0010
0100
1000
0100
0001
0100
0002
0000
,
0000
0000
0000
0000
,
0000
0000
0000
0000
0000
0000
1003
0100
,
0010
0100
0100
0001
0100
0010
0001
0100
,
0100
1000
0001
1000
0010
0100
0100
1000
,
0001
1000
0010
0100
0100
0001
1000
0100
,
0001
0100
1000
0100
0001
0010
1000
0010
,
0100
0100
0010
0100
1000
0001
0100
0100
,
0010
0000
0001
0010
0100
0100
0010
0001
,
1000
0001
0010
1000
0100
0100
0010
0001
,
1000
0010
2000
0000
3100
0100
0010
0100
,
1000
0010
0100
0001
1000
0001
1000
0001
,
0010
0000
0100
0000
1000
0000
0010
0000
0100
0000
0010
0000
0100
1000
0010
0100
,
0001
1000
0001
1000
0010
0100
0010
1000
0001
0010
0001
0100
1000
0000
0010
0000
,
0100
0010
1000
0100
0002
0000
0000
0000
,
0000
0000
0000
0000
0013
0100
1000
0100
,
0010
0001
0100
0010
1000
0010
1000
0001
,
1000
0100
0010
0001
1000
0010
0100
0010
,
1000
0001
0100
0010
0100
0001
0010
0001
,
0100
0010
1000
0100
0010
0001
0010
0100
1000
0010
1000
0010
0100
0001
0100
0010
,
1000
0010
0100
0010
1000
0100
0010
0001
1000
0001
0100
0001
0010
0100
1000
0001
,
0100
0001
0010
0100
0010
0001
1000
0010
0100
0000
0000
0000
1000
0000
0010
0000
,
1000
0000
0001
1000
0100
0001
0100
0000
1001
0000
0000
0000
0001
0000
0100
0000
,
1000
0100
0002
0000
0000
0000
0000
0000
,
0000
0000
0000
0000
,
0000
0000
0000
0000
0000
0000
0000
0000
0000
0000
0000
0000
1003
0000
0000
0000
0000
0000
0000
0000
0000
0000
0000
0000
0100
0000
0000
0000
1000
0000
0000
0000
0000
0000
0001
0000
0000
0000
0000
1000
0000
0000
0001
0000
0000
0100
0000
0000
,
1000
1001
0101
0110
,
1001
0000
1001
0000
0100
1000
1001
0000
,
1000
0001
1001
0000
0001
1000
1001
0000
,
1000
0001
1001
0000
1001
0110
1001
0110
,
1001
0110
0001
1000
0100
1000
0100
1000
,
0001
0000
0010
0000
1000
0000
0010
0100
0010
0000
0100
0000
0001
0000
0010
0100
,
0010
0000
0001
0000
1000
0100
0010
0000
0001
0100
0010
0000
1000
0010
0100
0000
,
0001
0010
0100
0000
2000
0000
3100
0000
1100
0000
1000
0000
0200
0000
0310
0000
,
0011
0000
0001
0000
1000
0010
1000
0000
0001
0010
0001
0000
0100
0000
0010
0000
,
1001
0000
0000
0000
0002
0000
0103
0010
1000
0100
1000
0001
0201
0000
0310
1000
,
0001
0010
0100
1000
1200
0000
0310
0001
0100
0010
0100
0001
1001
0000
1010
0000
,
1000
0000
0010
0100
0010
0000
0100
0000
0001
0000
0010
0100
0010
0000
0001
0000
,
1000
0100
0010
0000
0002
0000
0000
0000
0000
0000
0000
0000
0000
0000
0000
0000
,
0003
0000
0000
0000
1000
0000
0010
0100
0010
0000
0100
0000
0001
0000
0010
0100
,
0010
0000
0001
0000
1000
0100
0010
0000
0001
0100
0010
0000
1000
0010
0100
0000
,
0001
0010
0100
0000
2000
0000
3100
0000
1100
0000
1000
0000
0200
0000
0310
0000
,
0011
0000
0001
0000
1000
0010
1000
0000
0001
0010
0001
0000
0100
0000
0010
0000
,
1001
0000
0000
0000
0002
0000
0103
0010
1000
0100
1000
0001
0201
0000
0310
1000
,
0001
0010
0100
1000
1200
0000
0310
0001
0100
0010
0100
0001
1001
0000
1010
0000
,
1000
0000
0010
0100
0010
0000
0100
0000
0001
0000
0010
0100
0010
0000
0001
0000
,
1000
0100
0010
0000
0002
0000
0000
0000
1000
0000
0100
0000
1000
0000
0000
0000
,
1003
0000
0000
0000
0010
1000
0100
1000
0100
0010
0001
0010
0100
1000
0001
0010
,
0001
0010
0001
0100
0010
1000
0001
0100
0001
0010
0100
1000
0001
0100
0001
1000
,
0010
0100
0010
0100
0020
0000
0000
0000
0130
1000
0100
0010
0100
0010
0001
0100
,
0010
1000
0100
1000
0010
1000
0100
0010
0001
0010
0001
0010
0100
1000
0100
0010
,
0001
1000
0100
1000
0100
0010
0100
1000
0001
1000
0010
1000
0100
0010
0100
1000
,
0010
0000
1000
0000
0010
0000
0100
0000
0001
0000
1000
0000
0001
0000
1000
0000
0010
0000
0100
0000
0001
0000
0101
0000
1001
0000
0000
0000
0010
0100
1000
0001
,
1000
0100
0010
0001
0010
0100
1000
0100
0010
0000
0000
0000
0100
0000
0000
0000
0001
0000
0000
0000
0100
0000
0000
0000
0010
0000
0000
0000
1000
0000
0000
0000
0001
0000
0000
0000
0100
0000
0000
0000
0010
0000
0000
0000
0100
0000
0000
0000
0010
0000
0000
0000
1000
0000
0000
0000
0010
0000
0000
0000
1000
0000
0000
0000
,
0100
1000
0100
0010
0100
0010
0001
0010
0100
1000
0001
1000
0010
0100
0001
0010
,
0100
1000
0001
0100
2002
0000
0000
0000
0000
0000
0000
0000
0000
0000
0000
0000
,
0000
0000
0000
0000
,
0000
0000
0000
0000
,
0000
0000
0000
0000
,
0000
0000
0000
0000
,
0000
0000
0000
0000
,
0000
0000
0000
0000
,
0000
0000
0000
0000
,
0000
0000
3003
0000
0010
0000
0000
1000
0000
0000
0001
0000
0000
0000
0100
0010
,
0100
0000
0000
0000
0010
1000
0100
1000
0010
0100
0001
0010
0001
1000
0100
0010
,
0001
1000
0010
1000
0100
1000
0001
0010
0100
0010
0001
1000
0010
1000
0010
0100
,
0010
1000
0100
0010
0001
0010
0001
0010
1001
0000
0000
0000
0000
0000
0000
0000
;
