
//----- song ID: ibls -----//
#TITLE:CUT! into the FUTURE;
#ARTIST:モリモリあつし;
#ARTISTTRANSLIT:Morimori Atsushi;
#GENRE:ナムコオリジナル;
#MUSIC:CUT! into the FUTURE.ogg;
#BANNER:CUT! into the FUTURE.png;
#BACKGROUND:CUT! into the FUTURE-bg.png;
#CDTITLE:./CDTitles/NSD A3.png;
#SAMPLESTART:72.182;
#SAMPLELENGTH:15.000;
#SELECTABLE:YES;
#OFFSET:0.000;
#BPMS:0.000=236.000
,52.000=118.000
,56.000=944.000
,64.000=472.000
,108.000=236.000
,116.000=944.000
,132.000=472.000
,172.000=236.000
,179.000=944.000
,183.000=472.000
,242.000=944.000
,247.000=472.000
,307.000=118.000
,309.000=236.000
,313.000=472.000
,317.000=944.000
,325.000=236.000
,327.000=118.000
,328.000=944.000
,336.000=236.000
,414.000=944.000
,415.000=236.000
,478.000=59.000
,480.000=236.000
,484.000=472.000
,512.000=944.000
,520.000=236.000
,524.000=118.000
,530.000=236.000
,579.000=944.000
,583.000=236.000
,598.000=944.000
,602.000=236.000
,649.000=944.000
,653.000=236.000
;
#STOPS:238.000=0.111
,242.000=0.189
,271.000=0.048
,271.333=0.043
,271.667=0.041
,272.000=0.044
,272.333=0.034
,272.667=0.050
,273.000=0.040
,273.333=0.036
,273.667=0.042
,274.000=0.045
,274.333=0.040
,274.667=0.047
,414.000=0.192
,530.667=0.085
,531.000=0.085
,531.333=0.085
,531.667=0.085
,532.000=0.085
,532.333=0.085
;
#DISPLAYBPM:118.000:472.000;
#BGCHANGES:;
#FGCHANGES:;

//--------------- dance-single - ----------------
#NOTES:
     dance-single:
     :
     Beginner:
     8:
     0,0,0,0,0:
0000
0000
0000
0000
,
0000
0000
0000
0000
,
0000
0000
0000
0000
,
1000
0000
0001
0000
,
0100
0000
0000
0000
,
1001
0000
0100
0000
,
1000
0000
0001
0000
,
0220
0000
0000
0000
,
0000
0000
0000
0000
,
0330
0000
0000
0000
,
1000
0000
0000
0000
,
0002
0000
0000
0003
,
2000
0000
0000
0000
,
3001
0000
0000
0000
0000
0000
0000
0110
0000
0000
0000
0000
0000
0000
0000
0000
,
0002
0000
0000
0000
,
0000
0000
0000
0000
,
1003
0000
0100
0000
,
0010
0000
0100
0000
,
1000
0000
0001
1000
,
0100
0000
1000
0000
,
0100
0000
0010
0000
,
0001
0000
0100
1000
,
0001
0000
0010
0000
,
0100
0001
0010
0000
,
0100
0000
1000
0000
,
0100
0000
1000
0000
,
0010
0000
1000
0100
,
0001
1000
0100
0010
,
0001
0000
1000
0000
,
0002
0000
0000
0000
,
0000
0000
0000
0000
,
0000
0000
0000
0000
,
0000
0000
0000
0000
,
0103
0000
1000
0000
,
0100
0000
0010
1000
,
0100
0000
0010
0000
,
0001
0000
0010
0000
,
0001
0000
0100
0000
,
0001
0000
0100
0000
,
1000
0010
0001
0000
,
0100
0000
0001
1000
,
0010
0000
0000
0001
0000
0000
0100
0000
,
1000
0000
0100
0000
,
0010
0100
1000
0001
,
0100
0010
0100
1000
,
0000
0000
0000
0001
,
0000
1000
0000
0001
,
0000
0100
0000
0010
,
0000
1000
0000
0001
,
0000
0000
0000
0100
,
0000
0010
0000
1000
,
0000
0001
0000
0100
,
0000
0010
0000
1000
,
0000
0000
0000
0001
,
0000
1000
0000
0100
,
0000
0010
0000
0001
,
0000
0100
0000
1000
,
0000
0001
0000
0010
,
0000
0100
0000
1000
,
0000
0001
1000
0000
,
0010
0100
1000
0000
,
0000
0000
0000
0001
,
0000
1000
0000
0001
,
0000
0100
0000
0010
,
0000
1000
0000
0001
,
0000
0000
0000
0100
,
0000
0010
0000
1000
,
0000
0001
0000
0200
,
0000
0000
0000
0310
,
0000
1000
0000
0001
,
0000
0100
0000
0010
,
0000
0100
0000
1000
,
0000
0001
0000
0100
,
0000
0000
0000
0000
,
0000
0000
0000
0000
,
0000
0000
0000
0000
,
0000
0000
0000
0002
,
0003
2000
0000
0000
,
3000
0002
0000
0000
,
0000
2000
0000
0000
,
0000
0000
0000
0000
,
0000
3003
0000
0020
,
0130
0000
0000
0000
,
0000
0000
0000
0000
,
1000
0001
0000
0100
0000
0010
0000
0100
,
0000
1000
0000
0100
0010
0000
0001
1000
,
0000
0100
0000
0010
0000
0100
0000
1000
,
0000
0001
0000
0010
0000
0100
0000
0000
,
1000
0000
0000
0010
0000
0000
0100
0001
,
0000
0010
0000
0100
0000
1000
0000
0001
,
0010
1000
0001
0100
,
0010
0000
0100
0000
2000
0000
3001
0100
,
0000
0010
0000
0001
0000
0100
0000
0001
,
0000
0010
0100
0000
1000
0001
0000
0000
,
0100
0010
0000
1001
0000
0000
0000
0000
,
0100
0010
0100
0001
,
0100
0010
1000
0100
,
0010
0001
0100
0001
,
0010
0001
0100
0010
,
1000
0001
0200
0000
,
0000
0000
0000
0000
,
0000
0000
0000
0000
,
0000
0000
0310
0000
,
0000
0000
0000
0100
,
1000
0010
1000
0001
,
0100
0001
1000
0100
,
1000
0100
0010
0001
,
0100
0010
0100
0001
,
0010
0100
1000
0001
,
1000
0000
0010
0000
1000
0001
0000
0100
,
0000
0001
0000
0010
0000
0100
0000
0000
,
1000
0001
1000
0001
,
1000
0010
0100
0010
,
1000
0000
0101
0000
,
1100
0000
0000
0100
0000
0010
0000
0100
,
1000
0100
0010
0100
,
1000
0000
0100
0000
0010
0000
1000
0100
,
0000
0001
0000
0000
1000
0000
0001
0000
,
0010
0100
1000
0100
,
1000
0000
0000
0000
0000
0000
0000
0000
0001
0000
0000
0000
0000
0000
0000
0000
0200
0000
0000
0000
0000
0000
0000
0310
0000
0000
0000
0000
0000
0000
0000
0000
,
1000
0001
1000
0100
,
0010
0000
1000
0000
,
1000
0000
0000
0000
,
1000
0000
0100
0000
,
0010
0000
1000
0000
,
0001
0000
0100
0000
,
0010
0000
1000
0000
,
0001
0000
1000
0000
,
0020
0000
0000
0000
,
0000
0000
0000
0000
,
0130
0000
0000
0000
,
2002
0000
0000
0000
,
0000
0000
3003
0000
,
0000
0110
0000
0001
0000
0000
0010
0000
0000
0000
0000
0000
,
1000
0001
0100
0000
,
0010
0000
0000
0000
0000
1000
0000
0001
,
0010
0000
0000
0100
0000
0000
0010
0000
,
0100
1000
0010
1000
,
0100
1000
0100
0010
,
0100
0010
0001
1000
,
0010
1000
0100
1000
,
0001
0100
0010
0100
,
0001
0100
0010
1000
,
0001
0000
0010
0000
,
0200
0000
0000
0310
,
0000
0000
0000
2000
,
0000
0000
3000
0002
,
0000
0000
0003
0200
,
0000
0000
0300
0020
,
0000
0000
1030
0000
,
0000
0000
0001
1000
,
0010
1000
0010
0100
,
0010
0000
0100
0000
0001
1000
0000
0010
,
0000
0100
0000
0001
0000
0000
0100
0000
,
0010
0000
1000
0000
0100
1000
0000
0100
,
0000
0010
0000
1000
0000
0010
0000
0000
,
0010
0000
1000
0000
0001
0100
0000
1000
,
0000
0001
0000
0010
0000
0000
0100
0000
,
0001
0010
0001
0010
,
0001
0100
0010
0100
,
2000
0000
0000
0000
,
0002
0000
0000
0000
,
0000
3003
0000
0000
,
0000
2000
0000
0000
,
3000
0020
0000
0000
,
0030
0200
0000
0000
,
0300
0002
0000
2003
,
0000
3002
0000
0000
,
0003
2000
0000
0000
,
3000
0002
0000
0000
,
0000
2000
0000
0000
0000
0000
0000
0000
,
3003
0000
0000
0110
0000
0000
0010
0000
,
0100
0010
0000
1001
0000
0000
0000
0000
;

//--------------- dance-single - ----------------
#NOTES:
     dance-single:
     :
     Easy:
     11:
     0,0,0,0,0:
0000
0000
0000
0000
,
0000
0000
0000
0000
,
0000
0000
0000
0000
,
0001
0010
1000
0100
,
0010
0100
0000
1001
0000
0000
0000
0000
,
0001
1000
0000
0000
0010
0000
0000
0000
,
0001
0000
0010
0100
0000
1001
0000
0000
,
0220
0000
0000
0000
,
0000
0000
0000
0000
,
0330
0000
0000
0000
,
0001
0000
0000
0000
,
2000
0000
0000
3000
,
0002
0000
0000
0000
,
1003
0000
0000
0000
0000
0000
0000
0110
0000
0000
0000
0000
0000
0000
0000
0000
,
2000
0000
0000
0000
,
0000
0000
0000
0000
,
3001
0000
0010
0000
,
0100
0000
0010
1000
,
0001
0000
1000
0001
,
0010
0000
0001
0000
,
0010
0000
0100
0001
,
1000
0000
0010
0001
,
1000
0000
0100
0000
,
0010
1000
0100
0000
,
0010
1000
0001
0000
,
0010
1000
0001
0000
,
0100
0000
0001
0010
,
1000
0001
0010
0100
,
1000
0000
0001
0010
,
2000
0000
0000
0000
,
0000
0000
0000
0000
,
0000
0000
0000
0000
,
0000
0000
0000
0000
,
3010
0000
0001
1000
,
0010
0000
0100
0001
,
0010
0000
0100
0001
,
1000
0000
0100
0001
,
1000
0000
0010
0100
,
1000
0000
0010
0000
,
0001
0100
1000
0001
,
0010
0000
1000
0001
,
0100
0000
0000
1000
0000
0000
0010
0000
,
0001
1000
0010
0000
,
0100
0010
0001
1000
,
0010
1000
0000
0100
0010
0000
1001
0000
,
0000
0000
0000
1000
,
0000
0001
0000
1000
,
0100
0010
0000
0100
,
0000
0001
0000
1000
,
0010
1000
0000
0010
,
0000
0100
0010
0001
,
0000
1000
0000
0010
,
1000
0100
0000
0001
,
1000
0010
0000
1000
,
0100
0001
0000
0010
,
0000
0100
0000
1000
,
0100
0010
0000
0001
,
0000
1000
0010
0100
,
0000
0010
1000
0001
,
0100
1000
0001
0010
,
0100
0010
0001
0000
,
0000
0000
0000
1000
,
0100
0001
0000
1000
,
0000
0010
0000
0100
,
0010
0001
0000
1000
,
0000
0100
0000
0010
,
0000
0100
0000
0001
,
0000
1000
0000
0020
,
0000
0000
0000
0130
,
0000
0001
0000
1000
,
0000
0010
0000
0100
,
1000
0010
0100
0001
,
0010
1000
0100
0010
,
0000
0001
0000
0000
0100
0000
0000
0000
,
1010
0000
0000
0000
0000
0000
0002
0000
0000
0000
1003
0000
,
0000
0000
0000
0000
1000
0000
0000
0000
0000
0000
0000
0000
0001
0000
0000
1000
0000
0000
0010
0000
0000
0000
0000
0000
,
0000
0000
1000
0000
0000
0000
0000
0000
0000
0000
0000
0000
0000
0010
0000
0000
0000
0000
0000
0000
0000
0000
0000
0000
1000
0000
0000
0000
0000
0000
0000
0000
,
0000
0002
0000
0000
,
0003
2000
0000
0000
,
0000
0002
0000
0000
,
0000
0000
0000
0000
,
0000
3003
0000
0200
,
0310
0000
0000
0000
,
0000
0000
0000
0000
,
0001
1000
0000
0010
0000
0100
0000
0010
,
1000
0001
0000
0010
0100
0000
1000
0001
,
0000
0010
0000
0100
1000
0010
0000
0001
,
0000
1000
0000
0100
0000
0010
1000
0000
,
0001
0000
0000
0100
0000
0000
0010
1000
,
0000
0100
0001
0010
0000
0001
0000
1000
,
0100
0000
0001
0010
1000
0000
0010
0001
,
0100
0000
0010
0000
0002
0000
1003
0010
,
0000
0100
0001
1000
0000
0010
0000
1000
,
0001
0100
0010
0000
0001
1000
0000
0000
,
0010
0100
0000
1001
0000
0000
0000
0000
,
0010
0000
0100
0000
0010
0000
1000
0001
,
0010
0000
0100
0000
0001
1000
0010
0000
,
0100
0000
1000
0000
0010
0001
1000
0000
,
0100
0001
1000
0100
0010
0000
0100
0010
,
0001
1000
0020
0000
,
0000
0000
0000
0000
,
0000
0000
0000
0000
,
0000
0000
0130
0000
,
0200
0310
1001
0010
,
0001
0000
0100
0000
0001
0010
1000
0000
,
0010
0000
1000
0000
0001
1000
0010
0000
,
0001
0000
0010
0001
0100
0000
1000
0000
,
0010
0001
0100
0000
0010
0001
1000
0000
,
0100
1000
0010
0000
0001
0100
1000
0000
,
0001
0010
0100
0000
0001
1000
0000
0010
,
0000
1000
0000
0100
0000
0010
0000
0000
,
0001
0000
1000
0000
0001
0100
1000
0000
,
0001
0000
0100
0000
0010
1000
0100
0000
,
0001
0000
1010
0000
,
0011
0000
0000
0010
0000
0100
0000
0010
,
0001
0000
0010
0000
0100
1000
0010
0000
,
0001
0000
0010
0000
0100
0000
0001
0010
,
0000
1000
0000
0000
0001
0000
1000
0001
,
0100
0000
0010
1000
0001
0000
0010
0100
,
0001
0000
0000
0000
0000
0000
0000
0000
1000
0000
0000
0000
0000
0000
0000
0000
0020
0000
0000
0000
0000
0000
0000
0130
0000
0000
0000
0000
0000
0000
0000
0000
,
0001
1000
0001
0010
,
0100
0000
0001
0000
,
0001
0000
1000
0000
,
0001
0000
0010
0000
,
0100
0000
0001
0010
,
1000
0000
0010
0000
,
0100
0000
0001
0100
,
1000
0000
0001
0000
,
0210
0000
0000
0000
,
0000
0000
0000
0000
,
0310
0000
0000
0000
,
2002
0000
0000
0000
,
0000
0000
0000
0000
0000
0000
3003
0000
0010
0000
0100
0000
,
0001
0000
0010
0000
0000
0000
1000
0000
0000
0000
0000
0000
0100
0000
0000
0001
0000
0000
0010
0000
0000
0000
0000
0000
,
0001
0000
1000
0000
0010
0000
0100
0001
,
0100
1000
0010
0000
0000
0001
0000
1000
,
0100
0000
0000
0010
0000
0000
0100
0000
,
0010
1000
0001
0000
0100
0000
0001
0000
,
0010
1000
0001
0000
0010
0000
0100
0000
,
0010
0001
0100
0000
1000
0010
0001
0000
,
0100
0010
0001
0000
0010
1000
0001
0000
,
1000
0000
0010
0001
0100
0000
0010
0000
,
1000
0000
0010
0001
0100
0000
0001
0100
,
1000
0001
0000
0000
0200
0000
0000
0000
,
0320
0000
0000
0130
,
0000
0000
0000
0000
0000
0000
0000
0000
0000
1000
0000
0001
,
0000
0000
0000
0100
0000
0000
0000
0000
0010
0000
0000
0000
0001
0000
0000
1000
0000
0000
0010
0000
0000
0000
0100
0000
,
0000
0000
0000
0001
0000
0000
0000
0000
1000
0000
0000
0000
0020
0000
0000
0000
0000
0000
0130
0000
0000
0000
0001
0000
,
0000
0000
0000
1000
0000
0000
0000
0000
0010
0000
0000
0000
1000
0000
0000
0000
0001
0000
0020
0000
0000
0000
0000
0000
,
0000
0000
0030
0000
,
0000
0000
0000
0000
1000
0000
0001
1000
,
0100
0000
0001
0000
0100
1000
0010
0000
,
0100
0001
0010
0100
1000
0001
0000
0100
,
0000
0010
0000
1000
0000
0001
0010
1000
,
0100
0000
0001
1000
0010
0001
0000
0010
,
0000
0100
0000
0001
0000
0100
0001
0010
,
0100
0000
0001
0000
1000
0010
0000
0001
,
0000
1000
0000
0100
0000
0000
0010
0001
,
1000
0001
0100
0000
1000
0001
0100
0000
,
1000
0100
0010
0001
0100
1000
0010
0000
,
0002
0000
0000
0000
,
2000
0000
0000
0000
,
0000
3003
0000
0000
,
0000
0002
0000
0000
,
0003
0200
0000
0000
,
0300
0020
0000
0000
,
0030
2000
0000
3002
,
0000
2003
0000
0000
,
3000
0000
0002
0000
0000
0000
0000
0000
0000
0000
0000
0000
,
0003
2000
0000
0000
,
0000
0002
0000
0000
0000
0000
0000
0000
,
3003
0000
0000
0110
0000
0000
0100
0000
,
0010
0100
0000
1001
0000
0000
0000
0000
;

//--------------- dance-single - ----------------
#NOTES:
     dance-single:
     :
     Medium:
     14:
     0,0,0,0,0:
0000
0000
0000
0000
,
0000
0000
0000
0000
,
0000
0000
0000
0000
,
0001
0010
1000
0100
,
0010
0100
0000
1001
0000
0000
0000
0000
,
0001
1000
0000
0000
0010
0000
1000
0100
,
0001
0000
0010
0100
0000
1001
0000
0000
,
0002
0000
0000
0000
1000
0000
0000
0000
0000
0100
0000
0000
0000
1000
0000
0000
0000
0000
0100
0000
0000
0000
0000
0000
,
1000
0000
0000
0000
0100
0000
0000
0000
0000
1000
0000
0000
0000
0000
0100
0000
0000
0000
1000
0000
0000
0000
0000
0000
,
0103
0000
0000
0000
0010
0000
0000
0000
0000
1000
0000
0000
0000
0000
0010
0000
0000
0000
1000
0000
0000
0000
0001
0000
,
0100
0000
0000
0000
1000
0000
0000
0000
0000
0001
0000
0000
0100
0000
0000
0000
1000
0000
0000
0000
0000
0001
0000
0000
,
1000
0000
0000
0000
1000
0000
0000
0000
0000
1000
0000
0000
0000
0000
1000
0000
0000
0000
0110
0000
0000
0000
0000
0000
,
0001
0000
0000
0000
0001
0000
0000
0000
0000
0001
0000
0000
0000
0000
0001
0000
0000
0000
0110
0000
0000
0000
0000
0000
,
2000
0000
0000
0000
3000
0000
0000
0220
0000
0000
0000
0000
0000
0000
0330
0000
,
2000
0000
0000
0000
,
0000
0000
0000
0000
,
3001
0010
0100
0001
,
0100
0010
1000
0010
,
0100
0001
0100
0010
,
0100
0010
1000
0010
,
1000
0001
1000
0100
,
0010
0001
0010
0100
,
1000
0000
0110
0000
,
0010
0100
0010
0001
,
1000
0010
1000
0010
,
0100
0001
1000
0100
,
0010
0100
1000
0001
,
0100
0001
0010
0100
,
1000
0100
0010
1000
0001
0100
0010
0001
,
2000
0000
0000
0000
,
0000
0000
0000
0000
,
0000
0000
0000
0000
,
0000
0000
0000
0000
,
3010
0010
1000
0010
,
0100
0001
0010
0001
,
0100
0001
0010
0100
,
0010
0100
1000
0001
,
0010
0001
1000
0100
,
0010
0000
1001
0000
,
1000
0001
0010
0100
,
0010
0001
0100
0001
,
0100
0010
0100
0001
,
0010
0100
1000
0010
,
0100
0001
1000
1010
,
0010
1000
0000
0100
0010
0000
1001
0000
,
0000
0000
0000
0100
,
0010
0100
1000
0001
,
0010
0100
1000
0010
,
1000
0001
0100
0001
,
0010
0001
0100
0010
,
0100
0010
0100
0001
,
1000
0010
1000
0001
,
1000
0001
0100
0001
,
0100
0010
0100
0001
,
0010
0001
0100
0010
,
0100
0010
0100
0001
,
0010
0001
0010
0001
,
0100
0010
0100
0001
,
0010
0001
0010
0001
,
1000
0100
1000
0100
,
0010
0001
0100
0020
,
0000
0000
0000
1030
,
0100
0001
1000
0010
,
1000
0010
1000
0001
,
0010
0001
0100
0010
,
0100
0001
1000
0001
,
0010
0100
0010
0001
,
0010
0001
1000
0001
,
0010
0100
0010
0100
,
0000
0001
0000
1000
,
0000
0010
0000
0100
,
1000
0000
0010
0000
0100
0000
0001
1000
,
0010
0001
1000
0010
0100
1000
0010
0000
,
0000
0001
0000
0000
0100
0000
0000
0000
,
1010
0000
0000
0000
0000
0000
0002
0000
0000
0000
1003
0000
,
0000
0000
0000
0000
1000
0000
0000
0000
0000
0000
0000
0000
0001
0000
0000
1000
0000
0000
0010
0000
0000
0000
0000
0000
,
0000
0000
1000
0000
0000
0000
0000
0000
0000
0000
0000
0000
0000
0010
0000
0000
0000
0000
0000
0000
0000
0000
0000
0000
2000
0000
0000
0000
0000
0000
0000
0000
,
0000
3002
0000
0000
,
0003
2000
0000
0000
,
0000
0002
0000
0000
,
0000
0000
0000
0000
,
0000
3003
0000
0200
,
0320
0000
0000
0000
,
0000
0000
0000
0000
,
0031
1000
0100
0010
0001
0100
0000
0010
,
1000
0001
0100
0010
0100
0000
1000
0001
,
0000
0010
0001
0100
1000
0010
0000
0001
,
0100
1000
0000
0100
0001
0010
1000
0000
,
0001
0100
1000
0100
0001
0000
0010
1000
,
0000
0100
0001
0010
0000
0001
0100
1000
,
0100
0000
0001
0010
1000
0000
0010
0001
,
0100
0000
0010
0000
0002
0000
1003
0010
,
1000
0100
0001
1000
0000
0010
0100
1000
,
0001
0100
0010
0000
0001
1000
0000
0000
,
0010
0100
0000
1002
0000
0000
0000
0000
,
0013
0000
0100
0000
0010
0100
1000
0001
,
0010
0000
0100
0000
0001
1000
0010
0001
,
0100
0000
1000
0000
0010
0001
1000
0010
,
0100
0001
1000
0100
0010
1000
0100
0010
,
0001
1000
0220
0000
,
0000
0000
0000
0000
,
0000
0000
0000
0000
,
0300
0000
0130
0000
,
0200
0000
0310
0000
1001
0000
0010
1000
,
0001
0010
0100
1000
0001
0010
1000
0000
,
0010
0001
1000
0000
0001
1000
0010
0000
,
0001
1000
0010
0001
0100
0010
1000
0100
,
0010
0001
0100
0000
0010
0001
1000
0010
,
0100
1000
0010
0100
0001
0100
1000
0000
,
0001
0010
0100
1000
0001
1000
0100
0010
,
0000
1000
0001
0100
1000
0010
0000
0100
,
0001
0010
1000
0000
0001
0100
1000
0000
,
0001
1000
0100
0000
0010
1000
0100
0000
,
0001
0100
2020
3030
,
0022
0033
0000
0110
0000
1100
0000
0210
,
0000
0000
0310
0000
0100
1000
0010
0100
,
0001
0000
0010
0000
0100
1000
0001
0010
,
0000
1000
0000
0000
0001
0100
1000
0001
,
0100
0000
0010
1000
0001
0100
0010
0100
,
0001
0000
0000
0000
0000
0000
0000
0000
1000
0000
0000
0000
0000
0000
0000
0000
0020
0000
0000
0000
0000
0000
0000
0130
0000
0000
0000
0000
1000
0000
0100
0000
,
0001
0100
1000
0010
0001
1000
0010
0000
,
0100
0000
0001
1000
,
0001
0100
1000
0010
,
0001
0000
0010
1000
,
0100
0000
0001
0010
,
1000
0001
0010
0000
,
0100
0000
0001
0100
,
1000
0100
0001
0000
,
0210
0000
0000
0000
,
0000
0000
0000
0000
,
0310
0000
0000
0000
,
2002
0000
0000
0000
,
0000
0000
0000
0000
0000
0000
3003
0000
0010
1000
0100
1000
,
0001
0000
0010
0000
0000
0000
1000
0000
0000
0001
0000
0000
0100
0000
0000
0001
0000
0000
0010
0000
0000
0000
0000
0000
,
0001
0100
1000
0000
0010
1000
0100
0001
,
0100
1000
0010
0100
0000
0001
0010
1000
,
0100
0001
0000
0010
1000
0001
0100
0000
,
0010
1000
0001
0010
0100
1000
0001
0100
,
0010
1000
0001
0000
0010
1000
0100
0000
,
0010
0001
0100
0001
1000
0010
0001
0000
,
0100
0010
0001
1000
0010
1000
0001
0000
,
1000
0100
0010
0001
0010
0000
0100
0001
,
1000
0100
0010
0001
0100
1000
0001
0100
,
1000
0001
0010
0000
0200
0000
0000
0000
,
0320
0000
0000
0130
,
0000
0000
0000
0000
0000
0000
0000
0000
0000
1000
0000
0001
,
0000
0000
0000
0100
0000
0000
0000
0000
0010
0000
0000
0000
0001
0000
0000
1000
0000
0000
0010
0000
0000
0000
0100
0000
,
0000
0000
0000
0001
0000
0000
0000
0000
1000
0000
0000
0000
0020
0000
0000
0000
0000
0000
0130
0000
0000
0000
0001
0000
,
0000
0000
0000
1000
0000
0000
0000
0000
0010
0000
0000
0000
1000
0000
0000
0001
0000
0000
0010
0000
0000
1000
0000
0000
,
0001
0010
1000
0001
0200
0000
0000
0000
,
0000
0000
0000
0000
1300
0010
0001
1000
,
0100
0010
0001
0000
0100
1000
0010
0001
,
0100
0001
0010
0100
1000
0001
0000
0101
,
0000
1010
0000
1001
0000
0001
0010
1000
,
0100
0010
0001
1000
0010
0001
0000
1010
,
0000
0101
0000
1001
0000
0100
0001
0010
,
0100
1000
0001
0100
1000
0010
0000
1001
,
0000
1001
0000
0110
0000
0000
0010
0001
,
1000
0001
0100
0010
1000
0001
0100
0001
,
1000
0100
0010
0001
0100
1000
0010
0100
,
0002
0000
0000
0000
,
2000
0000
0000
0000
,
0000
3003
0000
0000
,
0000
0000
0000
0000
0000
0000
0002
0000
0000
0000
1000
0000
0000
0000
0000
0100
0000
0000
0000
1000
0000
0000
0000
0000
,
0100
0000
0000
0000
0000
0000
1000
0000
0000
0000
0100
0000
0000
0000
0000
1000
0000
0000
0000
0000
0100
0000
0000
0000
,
1000
0000
0000
0000
0000
0000
0103
0000
0000
0000
0010
0000
0000
0000
0000
1000
0000
0000
0000
0000
0010
0000
0000
0000
,
1000
0000
0000
0000
0001
0000
0100
0000
0000
0000
1000
0000
0000
0000
0000
0001
0000
0000
0100
0000
0000
0000
1000
0000
,
0000
0000
0000
0001
0000
0000
1000
0000
0000
0000
1000
0000
0000
0000
0000
1000
0000
0000
0000
0000
1000
0000
0000
0000
,
0110
0000
0000
0000
0000
0000
0001
0000
0000
0000
0001
0000
0000
0000
0000
0001
0000
0000
0000
0000
0001
0000
0000
0000
,
0110
2000
0000
0000
,
0000
0002
0000
0000
0000
0000
0000
0000
,
3003
0000
0000
0110
0000
1000
0100
1000
,
0010
0100
0000
1001
0000
0000
0000
0000
;

//--------------- dance-single - ----------------
#NOTES:
     dance-single:
     :
     Hard:
     18:
     0,0,0,0,0:
0000
0000
0000
0000
,
0000
0000
0000
0000
,
0000
0000
0000
0000
,
0001
0000
1000
0001
0000
0100
0000
0010
,
1000
0001
0000
1001
0000
0000
0110
0000
,
0001
0100
0010
0100
0010
1000
0001
0100
,
0002
0000
2003
3200
0300
1001
0000
0000
,
0101
0000
0000
0000
0000
0000
0000
0000
0000
0101
0000
0000
0000
0000
0000
0000
0000
0000
0101
0000
0000
0000
0000
0000
0000
0000
0000
0101
0000
0000
0000
0000
0000
0000
0000
0000
1001
0000
0000
0000
0000
0000
0000
0000
0010
0000
0000
0000
,
0100
0000
0000
0000
0000
0000
0000
0000
1001
0000
0000
0000
0000
0000
0000
0000
0000
0000
0101
0000
0000
0000
0000
0000
0000
0000
0000
1001
0000
0000
0000
0000
0000
0000
0000
0000
0001
0000
0000
0000
1000
0000
0000
0000
0001
0000
0000
0000
,
0100
0000
0000
0000
0000
0000
0000
0000
0000
0101
0000
0000
0000
0000
0000
0000
0000
0000
1001
0000
0000
0000
0000
0000
0000
0000
0000
0101
0000
0000
0000
0000
0000
0000
0000
0000
1001
0000
0000
0000
0000
0000
0000
0000
0001
0000
0000
0000
,
0100
0000
0000
1001
0000
0000
0001
1000
0001
0000
0000
0101
0000
0000
1001
0000
,
0101
0000
0000
0101
0000
0000
1001
0000
0000
0110
0000
0000
0002
0000
0000
0100
,
1003
0000
0000
0000
0000
0000
0000
0000
0000
0110
0000
0000
0000
0000
0000
0000
0000
0000
0101
0000
0000
0000
0000
0000
0000
0000
0000
1001
0000
0000
0000
0000
0000
0000
0000
0000
0110
0000
0000
0000
1000
0000
0000
0000
0001
0000
0000
0000
,
2002
0000
0000
0000
0000
0000
3003
0220
0000
0000
0000
0000
0000
0000
0330
0000
,
1000
0001
1000
0001
,
1000
0001
1000
0001
,
1001
1001
1100
1100
,
1001
1001
1100
1100
,
1001
1001
0101
0101
,
1001
1001
0101
0101
,
1010
1010
1100
1100
,
1010
0000
1010
0000
0001
1000
0001
0100
,
0020
0000
0130
1001
,
1100
1100
0011
0011
,
0101
0101
1001
0101
,
0110
1001
1001
0110
,
0101
0000
1001
0000
0010
0100
1000
0001
,
0001
0010
0100
1000
0100
0010
0100
1000
,
0010
0000
0100
1000
0010
0000
0100
0010
0001
0000
0010
0001
0100
0001
1000
0010
,
1000
0001
1000
0001
,
1000
0001
1000
0001
,
1000
0001
1000
0001
,
1000
0001
1000
0001
,
1001
1001
1100
1100
,
1001
1001
1100
1100
,
1001
1001
0101
0101
,
1001
1001
0101
0101
,
1010
1010
1100
1100
,
1010
1010
1100
1100
,
0011
0011
0101
0101
,
1001
1001
1100
1100
,
0110
0000
0000
1001
0000
0000
0110
0000
,
1001
1001
0101
0101
,
1001
0010
1000
0100
0001
0010
0001
1000
,
0100
0000
0001
0000
0010
0000
1000
0000
0010
0000
0100
0001
0020
0000
0000
0000
,
0000
0000
0000
0000
0000
0030
0001
0000
,
0100
0000
0001
0010
1000
0000
0001
0000
,
0100
1000
0010
0000
1000
0001
0010
0000
,
1000
0000
0100
0001
1000
0010
0100
0000
,
0010
0000
0100
0000
1000
0000
0010
0100
,
1000
0000
0100
0010
1000
0000
0001
0000
,
0010
0001
0100
0010
1000
0000
0100
0000
,
0010
0000
0100
0010
1000
0000
0001
0010
,
0100
0001
1000
0001
,
0010
1000
0100
0000
0010
0100
0001
0000
,
0010
0000
0001
0010
1000
0001
0100
0000
,
1000
0000
0100
0000
1000
0010
0001
0100
,
0010
1000
0001
0000
0100
0000
0001
0100
,
1000
0000
0100
0001
0010
0000
0001
1000
,
0010
0000
0101
0010
0001
0000
1000
0000
,
0100
0010
1001
0020
,
0000
0000
0000
0130
,
1000
0010
0001
0000
1000
0000
0100
0001
,
0010
0000
0001
1000
0010
0000
0001
0000
,
0100
1000
0001
0010
0100
0000
0010
0000
,
0100
0000
0001
0000
0010
0100
0001
0000
,
0100
0010
0001
0000
1000
0000
0010
1000
,
0100
0000
0000
0010
0000
0000
0001
0000
0000
0000
0000
0000
0100
0000
0000
0000
0000
0000
1000
0000
0001
0000
0100
0000
,
0010
1000
0001
0100
0010
0001
1000
0001
1000
0010
0000
0000
,
0100
0001
0010
0000
0100
1000
0010
0000
,
1000
0100
0001
0000
0010
0001
0100
0000
,
0010
0100
0010
0001
,
1000
0001
0100
1000
0010
1000
0001
0000
,
0000
0110
0000
0000
0100
0001
1000
0000
,
0101
0000
0000
0000
0000
0000
2000
0000
0000
0000
3001
0000
,
0000
0000
0000
0000
0101
0000
0000
0000
0000
0000
0000
0000
1000
0000
0000
0001
0000
0000
0100
0000
0000
0000
0000
0000
,
0000
0000
1001
0000
0000
0000
0000
0000
0000
0000
0000
0000
0000
0110
0000
0000
0000
0000
0000
0000
0000
0000
0000
0000
0001
0000
0010
0000
0100
0000
1000
0000
,
0010
0000
0000
0100
0000
0000
1000
0000
0000
0001
0000
0000
1000
0000
0000
0000
0001
0000
0000
0000
0100
0000
0000
0000
0010
0000
0000
0000
0100
0000
0000
0000
1000
0000
0000
0000
0001
0000
0000
0000
0100
0000
0000
0000
0010
0000
0000
0000
,
1000
0000
0100
0000
0001
0000
0100
0000
0000
1000
0000
0000
0010
0000
0000
0001
0000
0000
0100
0000
0000
0010
0000
0000
,
0001
0100
1000
0000
0100
0000
0010
0000
,
0001
1000
0001
0100
,
0010
0000
0001
0100
1000
0000
0020
0000
,
0230
0000
0000
0000
,
0000
0000
0000
0000
,
1300
0000
0010
0000
0100
0001
1000
0000
0100
0010
1000
0000
0001
1000
0010
0000
,
0100
1000
0010
0000
0001
0010
1000
0000
0001
0010
0100
0000
0010
0000
0100
0000
,
0010
0000
0100
0000
0001
0000
0010
0000
0100
0000
1000
0000
0001
1000
0010
0000
,
0100
1000
0010
0000
0001
1000
0010
0000
0100
0001
1000
0000
0100
0000
1000
0000
,
0010
0100
0001
0010
0100
0010
0100
1000
,
0010
0000
0100
0000
0010
0001
0100
0000
0010
0100
1000
0000
0001
1000
0010
0000
,
0100
1000
0001
1000
0001
0100
0001
1000
,
0010
0000
0100
1000
0001
0000
0100
0000
0001
0100
0010
1000
0001
0000
0100
0000
,
0010
0001
1000
0000
0010
0100
1000
0000
0010
0001
0100
0000
0001
0010
1000
0000
,
0010
0001
1000
0000
0010
0001
1000
0000
0100
1000
0010
0000
0100
0001
0010
1000
,
0100
1001
0000
2002
3003
1000
0010
1000
,
0101
0010
0101
0010
0101
0010
0001
1000
,
0100
1000
0010
0000
0001
1000
0010
0000
0001
0000
0010
0000
0100
0000
1000
0000
,
0001
0000
1000
0000
0010
1000
0100
0001
0010
1000
0100
0000
0001
1000
0010
0100
,
0001
1000
0010
0001
0100
1000
0010
0001
0100
0010
1000
0100
0010
1000
0100
0010
,
0001
0010
0100
1000
0001
0000
0010
0000
0001
0000
1000
0000
0100
0000
1000
0000
,
0001
0010
0001
1000
0100
1000
0001
0010
,
0001
0000
1000
0000
0100
0000
0010
0000
0010
1000
0001
0010
0100
1000
0100
1000
,
0001
0010
0100
1000
0100
1000
0100
0010
0001
0000
0100
0000
1000
0000
0000
0000
,
0002
0000
2003
0000
3010
0000
0011
0001
,
0100
1000
0100
0001
0010
1000
0010
0001
,
0010
0001
1000
0100
0001
0100
1000
0000
,
1010
0000
0100
0000
0010
0000
1000
0000
0100
0000
0010
0000
0001
0000
1000
0100
,
2000
0000
0001
0000
0000
0000
3001
0100
0002
0000
0000
0000
0013
0000
0100
0000
,
1000
0010
0100
1000
0100
0001
0010
0100
,
1000
0000
0010
0000
0110
0000
0000
0001
0000
0000
1000
0000
1002
0000
0000
0000
,
0010
0000
0000
0000
0100
0000
0100
0000
0103
0000
0000
0000
0010
0000
1000
0100
,
1000
0000
0100
0000
0010
0000
0001
0010
0001
0000
0000
0000
1100
0000
1000
0000
,
0010
0001
0010
1000
0100
0001
0100
1000
,
0100
1000
0001
0010
1000
0010
0001
0000
,
0101
0010
0100
0001
0010
0100
1200
0000
,
0310
0001
0201
0000
0310
1000
0100
0010
,
0001
0100
0010
0001
0010
1000
0100
0010
,
0001
0100
0110
0000
1000
0001
1001
0100
,
0010
0000
0001
0000
0100
0000
0010
0000
0100
0000
0010
0000
1000
0010
1000
0010
,
0100
0000
0001
0000
0100
0000
0001
0000
0010
0000
0100
0000
0010
0000
0100
0000
0020
0000
0000
0000
0000
0000
0000
0230
0000
0000
0000
0000
0310
0000
0001
0000
,
0100
1000
0010
0100
0001
0010
1000
0001
,
0100
1000
0100
0010
,
0001
0010
0001
1000
,
0010
0100
0001
0100
,
0010
1000
0010
0100
,
0010
1000
0100
1000
,
0001
0010
0100
1000
,
0010
0100
0010
1000
,
0020
0000
0000
0000
,
0000
0000
0000
0000
,
0031
1000
0001
0000
0000
0000
0000
0000
,
1002
0203
0320
2030
,
3002
0000
0000
0000
0000
0000
0003
0000
0010
0010
0010
0100
,
0100
0000
0000
0000
1001
0000
0000
0000
0000
0000
0000
0000
0010
0000
0000
0000
0000
0000
1000
0000
0000
0100
0000
0000
0010
0000
0000
0000
0000
0000
0001
0000
0000
0000
0000
0000
0100
0000
0000
0000
0000
0000
0001
0000
0000
0000
0000
0000
,
0010
0000
0100
0000
1000
0100
0010
0000
0100
0000
0100
0000
0010
0001
0100
0000
,
0010
0010
1000
0001
0010
0100
1000
0001
,
0100
0001
1010
0010
0110
0100
0101
0001
,
0011
0010
0100
0001
0100
1000
0001
0100
,
0010
0000
1000
0000
0001
1000
0010
0000
0100
0000
0100
0000
0001
1000
0100
0000
,
0010
0001
0010
0000
0100
0001
1000
0000
0100
1000
0001
0100
0010
0001
1000
0100
,
0010
1000
0001
0100
1000
0001
0010
1000
0100
0010
0001
0100
1000
0100
1000
0100
,
0010
0000
0001
0000
0010
0000
0001
0100
0010
0000
1000
0000
0100
0000
1000
0000
,
0010
0000
0100
0000
0001
0100
0010
0000
0100
0001
0100
1000
0010
1000
0100
0000
,
0010
0010
0001
1000
0010
0100
0001
1000
,
0100
1000
0100
0010
0001
0100
0001
0100
0001
0010
0100
0010
1001
0000
0000
0000
,
0000
0000
0000
0000
0000
0000
0000
0000
0000
0101
0000
1010
,
0000
0000
0000
0110
0000
0000
0000
0000
0101
0000
0000
0000
1010
0000
0000
1010
0000
0000
0101
0000
0000
0000
0011
0000
,
0000
0000
0000
1100
0000
0000
0000
0000
0101
0000
0000
0000
0101
0000
0000
0000
0000
0000
1010
0000
0000
0000
1001
0000
,
0000
0000
0000
0000
0000
0000
0101
0000
0000
0000
0000
0000
0000
0000
0000
0000
0110
0000
0000
0000
0000
0000
0000
0000
1001
0000
0000
0000
0000
0000
0000
0000
1000
0000
0000
0000
0001
0000
0000
0010
0000
0000
0001
0000
0000
0100
0000
0000
,
0010
0100
0001
0100
0001
1000
0001
1000
0010
0000
0000
0000
0000
0000
0000
0000
,
0000
0000
0000
0000
0000
0000
0000
0000
0010
0000
1000
0100
0010
0000
0001
0000
,
0100
0000
0001
0000
0010
0000
0100
0000
1000
0100
0010
0000
0100
0000
0100
0000
,
0010
0001
0100
1000
0010
0100
0010
0001
1000
0000
0001
0000
0000
0000
2002
0000
,
3003
0000
0000
0000
0220
0000
0000
0000
0330
0000
0000
0000
2002
0000
0000
0000
0000
0000
0000
3003
0000
0000
0000
0000
0010
0000
0000
0000
1000
0000
0000
0000
,
0100
0001
0100
0010
0100
1000
0000
0202
,
0303
0000
0202
0000
0303
0000
0202
0000
0303
0000
0010
0000
1000
0100
0010
0000
,
0001
0000
0100
0000
0001
0000
0010
0000
0100
0000
1000
0100
0010
0000
0100
0000
,
0100
0000
0010
0001
0100
0000
0010
0000
0010
0000
1000
0000
0001
0000
0010
0000
,
0100
0000
1000
0000
0001
0000
0100
0000
0100
1000
0010
0100
0001
0100
0001
0100
,
0010
1000
0010
0100
0001
0000
0011
0000
0010
0000
0100
0000
0001
0000
0100
0000
,
2002
0000
0000
3003
,
0010
0100
0010
0100
0001
0100
0010
1000
0010
1000
0010
0100
0001
0010
0001
1000
,
0100
1000
0001
1000
0000
0000
0000
0000
0000
0000
0000
0000
0000
0000
0000
0000
,
0000
0000
0000
0000
0101
0000
0000
0101
0000
0000
0101
0000
0000
0101
0000
0000
,
1001
0000
0000
0000
0000
0000
0000
0000
0010
0000
0000
0000
0100
0000
0000
0000
0000
0000
0000
0000
1001
0000
0000
0000
0000
0000
0000
0000
0000
0000
0101
0000
0000
0000
0000
0000
0000
0000
0000
1001
0000
0000
0000
0000
0000
0000
0000
0000
,
0001
0000
0000
0000
1000
0000
0000
0000
0001
0000
0000
0000
0100
0000
0000
0000
0000
0000
0000
0000
0000
0101
0000
0000
0000
0000
0000
0000
0000
0000
1001
0000
0000
0000
0000
0000
0000
0000
0000
0101
0000
0000
0000
0000
0000
0000
0000
0000
,
1001
0000
0000
0000
0000
0000
0000
0000
0001
0000
0000
0000
0100
0000
0000
0000
0000
0000
0000
0000
0000
1001
0000
0000
0000
0000
0000
0000
0000
0000
0001
0000
0000
1000
0000
0000
0001
0000
0000
0000
0000
0000
0000
0000
0000
0101
0000
0000
,
0000
0000
0001
0010
0100
0010
0100
1000
0010
0100
0001
1000
0010
0100
0001
1000
,
0110
0000
0000
0001
1000
0100
0001
1000
0010
1000
0001
0010
0100
0010
0001
0010
,
0100
0000
0001
0000
0000
2002
0000
0000
0000
0000
0000
0000
0000
0000
0000
0000
,
3003
0220
0000
0000
0000
0000
0000
0000
,
0000
0000
0330
1001
0000
0010
1000
0001
,
1000
0010
0000
2002
0000
0000
3003
0000
;
