#TITLE:Bunny Bunny Carrot Carrot;
#ARTIST:Mitsukiyo;
#GENRE:ブルーアーカイブ×NonStopDance ~船上バニーチェイサー&スピーディーなハリネズミ~;
#MUSIC:Bunny Bunny Carrot Carrot.ogg;
#BANNER:Bunny Bunny Carrot Carrot.png;
#BACKGROUND:Bunny Bunny Carrot Carrot-bg.png;
#CDTITLE:./CDTitles/NSD A3.png;
#SAMPLESTART:69.171;
#SAMPLELENGTH:15.000;
#SELECTABLE:YES;
#OFFSET:0.000;
#BPMS:0.000=170.000;
#STOPS:;
#BGCHANGES:;
#FGCHANGES:;

//--------------- dance-single - ----------------
#NOTES:
     dance-single:
     :
     Beginner:
     5:
     0,0,0,0,0:
0000
0000
0000
0000
,
0000
0000
0000
0000
,
0000
0000
0000
0000
,
0000
0000
0000
0000
,
0000
0000
0000
0000
,
1000
0000
0000
0000
,
0001
0000
0000
0000
,
0100
0000
0000
0000
,
0010
0000
0000
0000
,
1000
0100
0010
0000
,
0001
0000
0010
0000
,
0100
0010
1000
0000
,
0001
0000
0010
0000
,
0100
0010
1000
0000
,
0001
0000
0010
0000
,
1000
0000
0001
0000
,
0010
0000
0000
0000
,
1000
0000
0001
0000
,
0100
0000
0010
0100
,
0010
0000
0001
0000
,
1000
0000
0001
0000
,
0010
0000
0100
0000
,
0001
0000
1000
0001
,
0100
0000
0010
0000
,
0100
0000
1000
0001
,
0100
0000
0010
0000
,
0001
0000
1000
0000
,
0001
0000
0010
0000
,
0100
1000
0001
0000
,
0010
0000
0100
0000
,
0001
0000
1000
0000
,
0001
0100
0010
0000
,
2000
0000
0000
0000
,
3001
0000
0000
0000
,
1001
0000
0000
0000
,
0010
0000
0000
0000
,
0110
0000
0000
0000
,
1000
0000
0000
0000
,
1001
0000
0000
0000
,
0010
0000
0000
0000
,
0101
0000
0000
0000
,
1001
0000
0000
0000
,
0100
0000
0010
0000
,
0001
0000
0000
0000
,
1000
0000
0001
0000
,
0010
0000
0100
0000
,
1000
0000
0001
0000
,
1000
0100
0010
0001
,
1000
0000
0000
0000
,
0001
0000
2000
0000
,
3001
0000
0020
0000
,
0130
0000
2000
0000
,
3001
0000
0020
0000
,
0130
0000
0002
0000
,
1003
0000
0020
0000
,
0130
0000
2000
0000
,
3001
0000
0000
0010
0000
0000
1000
0000
,
0001
0000
0000
0000
0000
0000
0000
0000
1000
0000
0000
0001
0000
0000
1000
0000
,
0000
0000
0000
0000
0000
0000
0000
0000
0010
0000
0000
0100
0000
0000
0010
0000
,
0000
0000
0000
0000
0000
0000
0000
0000
1000
0000
0000
0001
0000
0000
0100
0000
,
0000
0000
0000
0000
0000
0000
0000
0000
0001
0000
0000
0010
0000
0000
0100
0000
,
0000
0000
0000
0000
0000
0000
0000
0000
1000
0000
0000
0100
0000
0000
0010
0000
,
0000
0000
0000
0000
0000
0000
0000
0000
0001
0000
0000
0010
0000
0000
0100
0000
,
2000
0000
0000
0000
,
3002
0000
0000
0000
,
1003
0000
0000
0000
,
0000
0000
0000
0000
,
0010
0000
0000
0000
,
0000
0000
0000
0000
,
0100
0000
0000
0000
,
0000
0000
0000
0000
,
1000
0000
0001
0000
,
0010
0000
0000
0000
,
0100
0000
0000
0000
,
0010
0000
0000
0000
,
1000
0000
0000
0000
,
0001
0000
0100
0010
,
0100
0000
0000
0000
,
1000
0000
0001
0000
,
0100
0000
0000
0000
0000
0000
0000
2002
,
0000
0000
0000
0000
,
0000
0000
0000
0000
,
3003
0000
0000
0000
;

//--------------- dance-single - ----------------
#NOTES:
     dance-single:
     :
     Easy:
     9:
     0,0,0,0,0:
0000
0000
0000
0000
,
0000
0000
0000
0000
,
0000
0000
0000
0000
,
0000
0000
0000
0000
,
0000
0000
0000
0000
,
0001
0000
0010
0000
,
0100
0000
1000
0001
,
0100
0000
0010
0000
,
0100
0000
1000
0000
,
0001
0010
0100
0000
,
1000
0001
0100
0000
,
0001
0010
0100
0000
,
1000
0001
0100
0000
,
0010
0100
1000
0000
,
0001
1000
0100
0000
,
1000
0001
0100
0000
0010
1000
0001
0000
,
0020
0000
0000
0030
,
1001
0100
0010
0000
,
1000
0001
0100
0000
,
0001
0010
0100
0000
,
1000
0001
0100
0000
,
0010
0100
1000
0000
,
0001
0010
0100
0000
,
1000
0000
1001
0000
,
0001
0000
0110
0000
,
1001
0100
0010
0000
,
1000
0000
0001
0010
,
0100
0000
1000
0000
,
0001
0100
0010
0000
0100
0000
0000
0000
,
1000
0000
0001
0000
,
0100
0001
0010
0000
0100
0000
0000
0000
,
1000
0000
0001
0000
,
0010
0100
1000
0000
,
1002
0000
0000
0000
,
0103
1000
0001
0000
,
2001
0000
0000
0000
,
3001
0000
0010
0000
1000
0001
0100
0000
,
0020
0000
0000
0000
,
1030
0001
1000
0000
0000
0000
0010
0000
,
0200
0000
0000
0000
,
0310
0010
0001
0000
0000
0000
1000
0000
,
0001
0010
0100
0000
0000
0000
0000
0000
,
1000
0001
0100
0000
0000
0000
0000
0000
,
0001
0010
0100
0000
0000
0000
0000
0000
,
1000
0001
0010
0000
0000
0000
0000
0000
,
0100
0000
0010
0000
,
0100
0000
1000
0000
,
0001
0010
0100
1000
,
0000
0001
0010
0000
0100
0000
0000
0000
,
1000
0000
0000
0000
0001
0000
0000
0000
1100
0000
0000
1001
0000
0000
0110
0000
,
0000
0000
0000
0000
0010
0000
0000
0000
1001
0000
0000
0110
0000
0000
1001
0000
,
0000
0000
0000
0000
1000
0000
0000
0000
0001
0000
0000
0010
0000
0000
0100
0000
,
1000
0000
0000
0000
0000
0000
0000
0000
0001
0000
0000
0010
0000
0000
0100
0000
,
1000
0000
0000
0000
0001
0000
0000
0000
0101
0000
0000
1010
0000
0000
0110
0000
,
0000
0000
0000
0000
0010
0000
0000
0000
1100
0000
0000
0101
0000
0000
1001
0000
,
0000
0000
0000
0000
0010
0000
0000
0000
1000
0000
0000
0001
0000
0000
0100
0000
,
0010
0000
0000
0000
0100
0000
0000
0000
1001
0000
0000
0110
0000
0000
1001
0000
,
0010
0000
0000
0000
0100
0000
0000
0000
1000
0000
0000
0001
0000
0000
0010
0000
,
0100
0000
0000
0000
0000
0000
0000
0000
1000
0000
0000
0001
0000
0000
0100
0000
,
0010
0000
0000
0000
0100
0000
0000
0000
1000
0000
0000
0001
0000
0000
0100
0000
,
0010
0000
0000
0000
0100
0000
0000
0000
1000
0000
0000
0001
0000
0000
0010
0000
,
0100
0000
0000
0000
1000
0000
0000
0000
0001
0000
0000
0010
0000
0000
0100
0000
,
1000
0000
0000
0000
0001
0000
0000
0000
0010
0000
0000
0100
0000
0000
1000
0000
,
0001
0000
0000
1010
0000
0000
2002
0000
,
0000
0000
0000
3003
,
1000
0000
0000
0010
,
0000
0000
0100
0010
,
0100
0000
0001
0000
,
1000
0000
0001
0000
,
0010
0000
1000
0000
,
0001
0000
0010
0100
,
1000
0000
0001
0000
,
0010
0000
0010
0100
,
0010
0000
0001
0000
,
1000
0000
0001
0010
,
0100
0000
0001
0000
,
0100
0000
0010
0000
,
0100
0000
0000
0000
,
1000
0000
0001
0000
,
0010
0000
0000
0000
0000
0000
0000
2002
,
0000
0000
0000
0000
,
0000
0000
0000
0000
,
3003
0000
0000
0000
;

//--------------- dance-single - ----------------
#NOTES:
     dance-single:
     :
     Medium:
     10:
     0,0,0,0,0:
0000
0000
0000
0000
,
0000
0000
0000
0000
,
0000
0000
0000
0000
,
0000
0000
0000
0000
,
0000
0000
0000
0000
,
0010
0000
1000
0000
0000
0001
1000
0010
,
0000
0100
0000
0000
1000
0000
0001
0000
,
0100
0000
0010
0000
0000
0100
1000
0001
,
0000
0100
0000
0000
0010
0000
0100
0000
,
1001
1000
0001
0001
,
0100
0000
0010
0000
1000
0100
0001
0000
,
0100
0000
0110
0000
1000
0001
0100
0000
,
0010
0100
1000
0001
,
0010
0100
1000
0000
0001
0100
1000
0000
,
0001
0010
0100
0000
0001
0010
0100
0000
,
1000
0000
0101
0000
0010
0001
0010
0100
,
2001
0000
0000
0000
0000
0100
3001
0000
,
0010
0000
1000
0000
0001
0100
0010
0000
,
0100
1010
0001
0100
,
0010
1000
0001
0000
0101
0000
0010
0000
,
0100
1000
0001
0000
0100
0000
0010
0000
,
0100
0001
0010
0000
0101
0000
1000
0001
,
0010
0000
0100
0000
1000
0001
0100
0000
,
0011
0000
0100
0000
1000
0000
0001
0100
,
0000
0010
0000
0000
0100
0010
0001
0000
,
1000
0001
0100
0000
0010
0000
0100
0000
,
1001
0000
0010
0000
0100
1000
0001
0000
,
0010
0000
0100
0000
0010
1000
0001
0000
,
0010
0000
0100
0000
1000
0001
0100
0000
,
0010
0000
0100
0000
1000
0001
0010
0000
,
0100
0000
0010
0000
0001
0010
0100
0000
,
1000
0010
0100
0000
1000
0001
0010
0000
,
0100
1000
0000
1002
0000
0000
0000
0000
,
1003
0000
0110
0000
,
0001
1000
0101
0010
,
0100
0000
1001
0000
,
0100
0010
0101
0010
,
1000
0000
1001
0000
,
0100
1000
0001
0100
,
0020
0000
0130
0001
,
2000
0000
3001
0100
,
0001
0000
1001
0000
,
0001
0010
1001
0000
,
0100
0000
1010
0000
,
1000
0001
0110
0000
,
1000
0100
0001
0000
,
0100
1000
0010
0000
,
1000
0001
0100
0000
0010
0100
0001
0000
,
0000
1000
0001
0000
0100
0000
0010
0000
,
1001
0000
0000
0000
0010
0000
0000
0000
0100
0000
0000
1000
0000
0000
0010
0000
,
0100
0000
0000
0000
1000
0000
0000
0000
0001
0000
0000
0100
0000
0000
0010
0000
,
0100
0000
0000
0000
1000
0000
0000
0000
0001
0000
0000
0100
0000
0000
0010
0000
,
0100
0000
0000
0000
1000
0000
0000
0000
0001
0000
0000
0100
0000
0000
0010
0000
,
0100
0000
0000
0000
1000
0000
0000
0000
0001
0000
0000
0100
0000
0000
0010
0000
,
0100
0000
0000
0000
1000
0000
0000
0000
0001
0000
0000
0010
0000
0000
0100
0000
,
1000
0000
0000
0000
0001
0000
0000
0000
0010
0000
0000
0100
0000
0000
0001
0000
,
0010
0000
0100
0000
1000
0001
0010
0100
,
1000
0000
0000
0000
0001
0000
0000
0000
0010
0000
0000
0100
0000
0000
1000
0000
,
0001
0000
0000
0000
0010
0000
0000
0000
0100
0000
0000
1000
0000
0000
0001
0000
,
0010
0000
0000
0000
1000
0000
0000
0000
0001
0000
0000
0100
0000
0000
0010
0000
,
0100
0000
0000
0000
1000
0000
0000
0000
0001
0000
0000
0010
0000
0000
0100
0000
,
1000
0000
0000
0000
0001
0000
0000
0000
0010
0000
0000
0100
0000
0000
0001
0000
,
0100
0000
0000
0000
1000
0000
0000
0000
0001
0000
0000
0100
0000
0000
0010
0000
,
0200
0000
0000
0000
,
0320
0000
0000
0230
,
0301
0000
0100
0000
0000
0010
1000
0001
,
0000
0100
0000
0000
1000
0000
0001
0000
,
0100
0000
0010
0000
0000
1000
0001
0100
,
0000
0010
0000
0000
0100
0000
1000
0000
,
0001
0000
0100
0000
0000
0010
1000
0001
,
0000
0100
0000
0000
0010
0100
1000
0000
,
0001
0000
0000
0000
0100
1000
0000
0001
,
0000
0000
0100
1000
,
0001
0000
0100
0000
0000
0010
0100
1000
,
0000
0001
0000
0000
0010
0000
0100
0000
,
1000
0000
0001
0000
0000
0010
1000
0001
,
0000
0100
0000
0000
0010
0000
0100
0000
,
1000
0000
0001
0000
0000
0100
0010
1000
,
0000
0001
0000
0000
0100
0000
0010
0000
,
0100
0000
1000
0000
0000
0001
0000
2002
,
0000
0000
0000
0000
,
0000
0000
0000
0000
,
3003
0000
0000
0000
;

//--------------- dance-single - ----------------
#NOTES:
     dance-single:
     :
     Hard:
     15:
     0,0,0,0,0:
0000
0000
0000
0000
,
0000
0000
0000
0000
,
0000
0000
0000
0000
,
0000
0000
0000
0000
,
0000
0000
0000
0000
,
0001
0000
0010
0000
1000
0001
0000
0100
,
0000
0010
0000
0100
1000
0000
0001
0000
,
0001
0000
0010
0000
0100
1000
0000
0010
,
0000
0100
0000
1000
0001
0000
0200
0000
,
1300
0000
0100
0000
0010
0001
0000
0100
,
0000
0010
0000
0001
1000
0000
0020
0000
,
0130
1000
0001
0000
0100
1000
0000
1001
,
0000
0100
0010
0000
0110
0000
1001
0000
,
0001
0010
0100
0000
1000
0001
0010
0000
,
0100
1000
0001
0000
0010
0100
1000
0000
,
1000
0100
1000
0000
0001
0100
0001
0000
1000
0010
1000
0000
0001
0010
0001
0000
,
2002
0000
0000
3003
,
0001
0000
0010
0000
0001
0000
0100
0010
1000
0000
0100
0000
0000
0000
1010
0000
,
0010
0000
1000
0000
0100
0000
1000
0100
0000
0000
1100
0000
0101
0000
0000
0000
,
1000
0000
0010
0000
1000
0000
0100
0010
0000
0000
0100
0000
0000
0000
0011
0000
,
0001
0000
0010
0000
0100
0000
1000
0100
0000
0001
0100
0000
1000
0000
0010
1000
,
0001
0000
0100
0000
0010
0000
0001
0010
0000
0000
1000
0000
0000
0000
0101
0000
,
0001
0000
1000
0000
0100
0000
0010
1000
0000
0000
0010
0000
0000
0011
0000
0000
,
1000
0000
0100
0000
0010
0000
1000
0010
0000
0000
0001
0000
0000
0000
1100
0000
,
0001
0000
0010
1000
0000
0001
0100
0000
1000
0010
0000
0001
1000
0000
0100
0000
,
1000
0000
0100
0000
1000
0000
0010
0100
0000
0000
0010
0000
0000
0000
0101
0000
,
0100
0000
0001
0000
0010
0000
0001
0010
0000
0000
0011
0000
0000
1010
0000
0000
,
0001
0000
0100
0000
0001
0000
0010
0100
0000
0000
0010
0000
0000
0000
1100
0000
,
1000
0000
0100
0000
0010
0000
0001
0010
0000
1000
0010
0000
0001
0000
0000
0000
,
1000
0000
0010
0000
0100
0000
1000
0100
0000
0000
0001
0000
0000
0000
1010
0000
,
1000
0000
0001
0000
0010
0000
0100
0001
0000
0000
0100
0000
0000
1100
0000
0000
,
0001
0000
0010
0000
0100
0000
0001
0100
0000
0000
1000
0000
0000
0000
0011
0000
,
1000
0000
0100
0001
0000
1000
0010
0000
0001
0100
0000
1000
0001
0000
0100
0000
,
0010
2100
0001
3010
,
0100
0001
0010
0000
0102
0000
1003
0000
,
1000
0201
0010
1300
,
0010
1000
0100
0000
1020
0000
0130
0000
,
0020
2030
3002
0203
,
0302
0000
0000
2003
0000
3200
0320
0032
,
2003
3020
0032
0023
,
0230
0000
0000
0320
0000
2030
3200
0320
,
0130
0000
0010
0000
0100
0001
0010
0000
,
0001
0000
0010
0000
0001
0100
1000
0000
,
0100
0000
0010
0000
1000
0100
0001
0000
,
0200
0000
0000
0000
0000
0000
0000
0000
0310
0000
0000
0001
0000
0000
0010
0000
,
0100
0000
0000
1000
0000
0000
0100
0000
1000
0000
0000
0000
1100
0000
0000
0000
,
1000
0000
0000
0010
0000
0000
0100
0000
0001
0000
0000
0000
0101
0000
0000
0000
,
1000
0100
1000
0000
0001
0100
0001
0000
1000
0010
1000
0000
0001
0010
0001
0000
,
2002
0000
0000
3003
,
1010
0000
0000
0010
1000
0000
0010
0000
0100
0000
0000
0110
0000
0000
1000
0000
,
0001
0000
0100
0000
1000
0000
0100
0000
0001
0000
0000
0101
0000
0000
1000
0000
,
0011
0000
0000
0010
0001
0000
0010
0000
0100
0000
0000
0101
0000
0000
0100
0000
,
1000
0000
0100
0000
0001
0000
0100
0000
1000
0000
0000
0011
0000
0000
1000
0000
,
0101
0000
0000
0100
0001
0000
0100
0000
0010
0000
0000
0110
0000
0000
0001
0000
,
1000
0000
0010
0000
0001
0000
0010
0000
1000
0000
0000
0001
0000
0000
0110
0000
,
1000
0000
0010
0000
0001
0000
0000
0010
0100
0000
0000
0001
0000
0000
0001
0000
,
0100
0000
1000
0000
0010
0000
1000
0000
0100
1000
0010
0000
0001
0010
0100
0000
,
0101
0000
0000
0100
0001
0000
0100
0000
0010
0000
0000
0110
0000
0000
0001
0000
,
1000
0000
0010
0000
0001
0000
0010
0000
1000
0000
0000
1010
0000
0000
0001
0000
,
1100
0000
0000
0100
1000
0000
0100
0000
0010
0000
0000
1010
0000
0000
0010
0000
,
0001
0000
0010
0000
1000
0000
0010
0000
0001
0000
0000
1100
0000
0000
0001
0000
,
0101
0000
0000
0100
0001
0000
0100
0000
0010
0000
0000
0110
0000
0000
0001
0000
,
1000
0000
0010
0000
0001
0000
0010
0000
1000
0000
0000
0001
0000
0000
0110
0000
,
2000
0000
0000
0000
,
3200
0000
0000
0320
,
0130
0001
1000
0000
0001
0010
0000
0100
,
0000
1000
0000
0001
0100
0000
0010
0000
,
0100
1000
0001
0000
1000
0001
0000
0100
,
0000
0010
0100
0000
1000
0000
0101
0000
,
0001
0000
0010
0000
0100
1000
0000
0010
,
0000
0100
0000
1000
0001
0000
0200
0000
,
0310
0001
0010
0000
1000
0001
0000
0110
,
0000
0010
1000
0001
0010
0000
0101
0000
,
1001
0000
0010
0000
0100
1000
0000
0010
,
0000
0100
0000
1000
0001
0000
0200
0000
,
0310
1000
0001
0000
0100
0010
0000
0101
,
0000
1000
0001
0000
0100
0000
1010
0000
,
0100
1000
0001
0000
0010
0100
0000
1000
,
0000
0001
0010
0000
0101
0000
0110
0000
,
1000
0000
0001
1000
0000
0010
0000
2002
,
0000
0000
0000
0000
,
0000
0000
0000
0000
,
3003
0000
0000
0000
;
