
//----- song ID: bfzz -----//
#TITLE:Buck's Fizz;
#ARTIST:わかどり;
#ARTISTTRANSLIT:Wakadori;
#GENRE:SONIC TRIAL A3;
#MUSIC:Buck's Fizz.ogg;
#BANNER:Buck's Fizz.png;
#BACKGROUND:Buck's Fizz-bg.png;
#CDTITLE:./CDTitles/jubeat bright MEMORIES.png;
#SAMPLESTART:98.020;
#SAMPLELENGTH:15.000;
#SELECTABLE:YES;
#OFFSET:0.000;
#BPMS:0.000=142.000;
#STOPS:;
#BGCHANGES:;
#FGCHANGES:;

//--------------- dance-single - ----------------
#NOTES:
     dance-single:
     :
     Beginner:
     3:
     0,0,0,0,0:
0000
0000
0000
0000
,
0000
0000
0000
0000
,
0000
0000
0000
0000
,
0000
0000
0000
0000
,
0000
0000
0000
0000
,
0000
0000
0000
0000
,
0000
0000
0000
0000
,
0000
0000
0000
0000
,
0000
0000
0000
0000
,
0010
0000
0000
0000
,
1000
0000
0000
0000
,
0001
0000
0000
0000
,
0010
0000
0000
0000
,
0100
0000
0000
0000
,
1000
0000
0000
0000
,
0001
0000
0000
0000
,
1000
0000
0000
0000
,
0001
0000
0000
0000
,
0010
0000
0000
0000
,
0100
0000
0000
0000
,
0010
0000
0000
0000
,
1000
0000
0000
0000
,
0001
0000
0000
0000
,
0100
0000
0000
0000
,
0010
0000
0000
0000
,
0100
0000
0000
0000
,
1000
0000
0000
0000
,
0001
0000
0000
0000
,
0010
0000
0000
0000
,
0100
0000
0000
0000
,
0001
0000
0000
0000
,
1000
0000
0000
0000
,
0100
0000
0000
0000
,
0020
0000
0000
0000
,
0030
0000
0000
0000
,
0200
0000
0000
0000
,
0300
0000
0000
0000
,
0001
0000
0000
0000
,
1000
0000
0000
0000
,
0010
0000
0000
0000
,
0100
0000
0000
0000
,
0001
0000
0000
0000
,
0000
0000
0000
0000
,
1000
0000
0000
0000
,
0000
0000
0000
0000
,
0010
0000
0000
0000
,
0000
0000
0000
0000
,
0100
0000
0000
0000
,
0001
0000
0000
0000
,
1000
0000
0000
0000
,
0010
0000
0000
0000
,
0100
0000
0000
0000
,
0001
0000
0000
0000
,
2000
0000
0000
0000
,
3000
0000
0000
0000
,
0002
0000
0000
0000
,
0003
0000
0000
0000
,
0000
0000
0000
0000
,
1001
0000
0000
0000
,
0100
0000
0000
0000
,
0010
0000
0000
0000
,
0100
0000
0000
0000
,
1000
0000
0000
0000
,
0001
0000
0000
0000
,
0010
0000
0000
0000
,
0100
0000
0000
0000
,
0010
0000
0000
0000
,
0001
0000
0000
0000
,
1000
0000
0000
0000
,
0100
0000
0000
0000
,
0010
0000
0000
0000
,
0001
0000
0000
0000
,
1000
0000
0000
0000
,
0010
0000
0000
0000
,
0100
0000
0000
0000
,
0010
0000
0000
0000
;

//--------------- dance-single - ----------------
#NOTES:
     dance-single:
     :
     Easy:
     7:
     0,0,0,0,0:
0000
0000
0000
0000
,
0000
0000
0000
0000
,
0000
0000
0000
0000
,
0000
0000
0000
0000
,
0000
0000
0000
0000
,
0000
0000
0000
0000
,
0000
0000
0000
0000
,
0000
0000
0000
0000
,
0000
0000
0000
0000
,
0001
0000
1000
0000
,
0001
0100
0010
0000
,
0001
0000
1000
0000
,
1000
0100
0010
0000
,
0001
0000
0010
0000
,
0100
0010
0001
0000
,
0100
0000
0000
0000
0000
0000
0000
1000
0000
0000
0000
0000
0000
0000
0000
0001
,
0000
0000
0000
0000
,
1000
0100
0010
0000
,
0001
0000
1000
0000
,
0001
0100
0001
0000
,
0010
0000
0100
0000
,
1000
0010
1000
0000
,
0001
0000
0100
0000
,
0010
0100
0001
0000
,
0010
0000
0100
0000
,
1000
0000
0000
0000
,
0001
0000
0000
0000
,
0100
0000
0010
0000
,
0001
0010
0100
0000
,
1000
0000
0001
0000
,
0100
0000
0010
0001
,
1000
0000
0001
0000
,
0100
0010
0001
1000
,
1001
0000
0000
0000
,
0100
0010
0001
0000
,
1000
0000
0000
0001
,
0100
0010
0001
0000
,
0001
0010
0100
0000
,
1000
0001
0100
0000
,
0010
0001
0010
0000
,
1000
0100
1000
0001
,
0200
0000
0000
0000
,
0300
0000
0001
0000
,
0020
0000
0000
0000
,
0030
0000
1000
0000
,
0002
0000
0000
0000
,
1003
0000
0000
0000
,
2000
0000
0000
0000
,
3001
0000
0010
0000
,
0100
0000
0000
0000
0000
0001
0000
0000
,
0100
0000
0000
0001
0000
0000
0000
0000
0000
0000
1000
0000
0000
0000
0000
0000
,
0001
0000
0100
0000
0000
0000
0000
0000
0000
0000
0001
0000
0000
1000
0000
0000
,
0001
0000
0000
0100
0000
0000
0000
0000
0000
0000
0000
0000
0000
0000
0000
0000
,
0001
0010
0100
0000
,
1000
0001
0100
0000
,
0010
0100
1000
0000
,
0002
0000
1003
0000
,
0100
0010
0100
0000
,
1001
0100
0001
0010
,
0100
0000
0001
1000
,
0001
0000
0100
0010
,
0001
0100
1000
0000
,
0001
0010
0100
0001
,
0010
0100
1000
0000
,
0001
1000
0001
0100
,
0010
0001
0010
0100
,
1001
0100
0010
0001
,
0100
0010
0100
1000
,
0001
1000
0100
0010
,
0100
0010
0100
0000
,
1000
0001
0100
0010
,
0001
0100
1000
0001
,
1000
0001
0100
0010
,
0001
0010
0100
0001
,
1000
0001
0010
1000
,
0100
0000
0001
0000
1000
0000
0001
1000
;

//--------------- dance-single - ----------------
#NOTES:
     dance-single:
     :
     Medium:
     10:
     0,0,0,0,0:
0000
0000
0000
0000
,
0000
0000
0000
0000
,
0000
0000
0000
0000
,
0000
0000
0000
0000
,
0000
0000
0000
0000
,
0000
0000
0000
0000
,
0000
0000
0000
0000
,
0000
0000
0000
0000
,
0000
0000
0000
0000
,
0101
0000
0100
0001
1000
0000
0100
1000
,
0001
0010
0100
0000
0010
0000
1010
0000
,
0101
0000
0100
0001
1000
0000
0010
0001
,
1000
0001
0100
0001
0010
0000
1000
0000
,
0101
0000
1000
0001
0010
0000
0100
0001
,
0100
0000
0000
0000
0010
0000
0100
0000
0001
0000
1000
0000
0001
0000
0000
0110
,
0000
0000
1000
0000
0001
0000
0000
1000
0000
0000
0001
0000
0100
0000
0000
0001
,
0000
0010
0100
0010
0100
0010
0100
0010
,
1000
0001
0100
0001
0010
1000
0001
0000
,
0001
0100
0001
0010
1000
0100
0010
0000
,
0001
0010
0100
0010
0001
1000
0001
0000
,
0010
1000
0001
0010
0100
1000
0001
0010
,
1000
0100
0010
0001
1000
0000
0101
0000
,
0001
1000
0001
0100
0010
1000
0001
0100
,
0010
1000
0100
0000
0001
1000
0001
0000
,
0010
0100
1000
0001
0100
0001
1000
0010
,
1010
0000
0001
0010
0100
1000
0001
0000
,
0101
0000
1000
0001
0010
0100
0001
0000
,
0110
0000
1000
0001
0010
1000
0001
0000
,
0101
0000
0000
0000
0010
1000
0000
0001
0100
0000
0010
0000
0001
0000
0010
0000
,
1010
0001
0100
0010
0001
1000
0001
0010
,
0100
1000
0001
0100
0010
0100
0001
0000
,
1000
0010
0100
0010
0001
1000
0001
0000
,
0100
1000
0010
0100
0001
0010
1000
0000
,
1001
0000
0000
0010
0000
0000
1000
0000
0001
0000
0010
0100
0000
1000
0000
0000
,
0100
0000
0010
0100
0001
0010
0100
0000
,
1000
0000
0000
0001
0000
0000
0100
0000
0010
0000
1000
0000
0000
0010
0000
0000
,
0100
0001
0010
0100
0001
1000
0010
0000
,
0001
0000
0000
1000
0010
0000
0000
0000
0100
0000
0010
0000
0000
0001
0000
0000
,
1000
0010
0001
1000
0100
0001
1000
0000
,
0010
1000
0001
0000
0010
1000
0001
0000
,
1000
0010
0100
0010
1000
0100
0001
0000
,
0200
0000
0010
0000
,
1300
0000
0001
1000
,
0002
0000
0100
0000
,
1003
0100
1000
0010
,
0002
0000
0100
0000
,
1003
0000
0010
0000
0100
0001
0010
0000
,
2000
0010
0100
0010
,
3001
0100
0010
1000
,
0200
0000
0000
0000
0000
0000
0000
0000
0000
0000
0301
0000
0000
0010
0000
0000
,
0100
0000
0000
0001
0000
0100
0000
0000
0010
0000
1000
0000
0000
0010
0000
0000
,
0001
0000
0100
0000
0000
0010
0000
1000
0000
0000
0001
0000
0000
1000
0000
0000
,
0001
0000
0000
0100
0000
0001
0000
1000
0000
0100
0000
0000
0010
0000
0000
0000
,
0001
1000
0010
0000
0101
0000
0000
0000
,
1000
0000
0100
0000
0001
0000
0000
0000
1100
0000
0000
0000
0100
0000
0000
0020
,
0000
0000
0000
0000
0000
0000
0000
2030
0000
0000
0000
0000
0000
0000
0000
3002
,
0000
0000
0000
0000
0000
0000
0000
2000
0000
0000
0000
0000
3000
0000
0000
0000
,
0003
0000
0000
1000
0000
0001
0000
0100
0000
0010
0000
0100
0000
0010
0000
0000
,
1001
0000
0100
0010
0001
0000
0010
1000
,
0100
0010
0100
1000
0001
0010
1000
0000
,
0001
0010
0001
0000
0100
1000
0010
0000
,
0001
1000
0100
0001
1000
0000
1010
0000
,
0001
1000
0010
0001
0100
0000
0001
1000
,
0010
0001
0100
0010
1000
0100
0010
0000
,
0001
0010
1000
0000
0001
0010
0100
0000
,
0010
1000
0001
1000
0010
0001
0100
0000
,
1001
0000
0100
0001
0010
0000
0001
1000
,
0100
0001
0010
1000
0100
0001
1000
0000
,
0001
0010
1000
0000
0100
0001
0010
0000
,
0100
1000
0010
0001
0100
0010
0100
0000
,
1010
0000
0000
0000
0001
0000
0010
0000
0100
0000
1000
0000
0000
0010
0000
0000
,
0001
0000
0010
0000
0100
0000
0010
0000
1000
0000
0010
0000
0001
0000
0100
2000
,
0000
0000
0010
0000
3001
0000
0010
0200
0000
0000
0001
0000
0310
0000
0100
0002
,
0000
0000
0100
0000
0013
0000
1000
0000
0100
0000
0010
0000
0001
0000
0000
1010
,
0000
0000
0100
0000
0001
0000
1000
0010
0000
0000
0001
0000
1000
0010
0000
0001
,
0100
0000
0010
0000
0001
0000
0100
0000
1000
0000
0010
0000
0001
0000
1000
0001
;

//--------------- dance-single - ----------------
#NOTES:
     dance-single:
     :
     Hard:
     15:
     0,0,0,0,0:
0000
0000
0000
0000
,
0000
0000
0000
0000
,
0000
0000
0000
0000
,
0000
0000
0000
0000
,
0000
0000
0000
0000
,
0000
0000
0000
0000
,
0000
0000
0000
0000
,
0000
0000
0000
0000
,
0000
0000
0000
0000
,
1001
0000
0100
0000
0010
0100
1000
0010
0100
0000
0001
0000
1000
0100
0010
1000
,
0000
0000
0001
0000
0100
1000
0010
0100
0000
0000
0001
0000
0100
0000
0001
0000
,
1000
0000
0001
0000
1000
0100
0010
0001
0000
0000
0001
0000
1000
0100
1000
0100
,
0010
0000
0001
0000
0100
1000
0010
0000
0002
0000
0000
0000
1003
0100
0001
0000
,
0010
0000
0001
0000
1000
0001
0100
1000
0010
0000
0001
0000
0010
1000
0100
0001
,
0010
0000
0001
0000
0100
0010
0000
0100
1000
0000
0001
0000
0010
0000
0100
1000
,
0000
0000
0001
0000
0100
0010
0000
0101
0000
0000
1000
0000
0001
1000
0000
0100
,
0000
0010
1000
0001
1000
0001
1000
0001
,
0020
0000
0000
0000
0130
0000
1000
0000
0010
0100
1000
0010
0001
1000
0100
0010
,
0000
0000
0100
0000
0010
0000
1000
0000
0001
0100
0000
2000
0000
0000
3010
0000
,
0100
0000
0010
0000
0002
0000
0103
0000
0010
1000
0000
0001
0000
0100
1000
0001
,
0000
0100
0010
0000
0001
0000
1000
0000
0100
0001
0000
0010
0000
0100
1000
0000
,
0010
0000
0100
0000
0001
0000
0010
0000
0001
1000
0000
0010
0001
0000
1000
0010
,
0100
0000
0010
1000
0001
0100
0010
0000
0001
0000
0100
0010
0001
0000
0010
0000
,
0100
1000
0010
0000
0001
0000
0100
0010
0001
0000
0010
0100
0001
0000
1000
0100
,
0010
0000
0100
0000
0010
0001
1000
0010
0100
0000
0010
0000
0100
0000
0010
0000
,
1020
0000
0000
0000
0130
0000
1000
0000
0001
0010
0100
0000
1000
0010
0000
0002
,
0000
0000
0103
0000
1000
0000
0001
0000
0010
0001
0100
0000
1000
0000
0001
0000
,
0020
0000
0100
0000
1030
0000
0010
0000
1000
0010
0000
0001
0000
1000
0000
0001
,
0010
0000
0100
0001
1000
0000
0001
0010
0100
0000
0001
0100
1000
0000
0010
0100
,
1000
0000
0001
0000
0010
0000
0100
0000
0010
0100
0000
0001
0000
1000
0000
0001
,
0100
0000
0010
1000
0100
0000
0010
0000
0100
0010
0001
0100
1000
0010
0001
0000
,
0010
1000
0001
0000
0100
0000
0010
0100
0000
1000
0010
0000
0100
0001
0010
0100
,
1000
0000
0001
0010
1000
0000
0100
0000
1000
0000
0001
0000
0100
0000
0010
0000
,
0100
0000
0000
0101
0000
0000
0100
0010
0100
0000
1001
0000
0000
0101
0000
1000
,
0001
0000
0010
0000
1000
0001
0100
0000
0010
0100
1000
0000
0001
0000
0100
0000
,
1001
0000
0000
0101
0000
0000
0010
0000
1000
0000
1010
0000
0000
0101
0000
0000
,
1001
0000
0000
0100
0010
1000
0001
0100
0010
0000
1000
0000
0001
0010
0100
1000
,
0001
0000
0000
0101
0000
0001
1000
0010
0001
0000
1010
0000
0000
0101
0000
0001
,
1000
0000
0010
0000
0100
0000
1000
0000
0001
0010
0100
1000
0010
1000
0001
0100
,
0010
0000
0100
0000
0001
0010
1000
0100
0001
0000
0100
0000
0010
0100
1000
0010
,
0000
0100
0010
0100
0010
1000
0001
1000
,
0002
0000
0000
0000
0000
0000
0000
2003
0000
0000
0000
0000
0000
0000
0000
0000
,
3020
0000
0000
0000
0000
0000
0000
0230
0000
0000
0000
0000
0000
0000
0000
0000
,
0302
0000
0000
0000
0000
0000
0000
2003
0000
0000
0000
0000
0000
0000
0000
0000
,
3020
0000
0000
0000
0000
0000
0000
0230
0000
0000
0000
0000
0000
0000
0000
0000
,
0310
0000
0000
0000
1000
0001
0100
0010
0000
0000
1000
0000
0100
0000
0001
0000
,
0010
0000
1000
0100
0000
0001
0000
0100
0000
0001
0010
1000
0100
0000
0001
0000
,
0010
0000
1000
0000
0010
0001
0100
0010
0000
0000
1000
0000
0001
0000
0100
0000
,
0020
0000
0000
0000
0000
0000
0000
2030
0000
0000
0000
0000
3001
0000
0010
0000
,
1001
0000
0000
0001
1000
0001
1000
0001
0000
0000
0101
0000
0000
0010
1000
0000
,
1001
0000
0000
0101
0000
1000
0000
0001
0000
0000
0110
0000
0000
1001
0000
0000
,
0101
0000
1000
0100
0001
0010
0100
1000
0000
0001
0101
0000
1000
1001
0000
0000
,
0110
0000
0000
0101
0000
2000
0000
3002
0000
1003
0100
0010
0001
0000
1000
0000
,
0002
1000
0010
0100
,
2003
0000
0000
0000
0010
0000
0000
0000
0100
0000
0000
0000
0010
0000
0000
0002
,
0000
0000
0000
0000
3003
0000
0000
2002
0000
0000
0000
0000
0000
3003
0000
0220
,
0000
0000
0000
0000
0030
0000
0000
0002
0000
0000
0000
0000
0000
0000
0303
0000
,
1000
0000
0000
0001
0000
0010
0000
0100
0000
1000
0001
0100
0010
0000
0000
0000
,
1001
0000
0010
0000
0100
1000
0010
0001
0100
0000
0010
1000
0100
0010
0001
0000
,
1000
0000
0010
0100
1000
0001
0010
0000
1000
0001
0100
1000
0010
0000
0100
0000
,
1000
0001
0100
0010
1000
0000
0001
0000
0010
1000
0100
0000
1000
0100
0010
0000
,
1000
0100
0000
0001
1000
0000
0100
1000
0000
0010
0001
0000
0100
0000
0010
0000
,
1000
0000
0010
0000
1000
0001
0100
0010
1000
0000
0100
0000
0010
1000
0100
0001
,
0010
0000
0001
0100
0010
1000
0010
0100
1000
0000
0010
0000
1000
0001
0100
1000
,
0010
0000
0001
0100
1000
0000
0001
0000
0010
0000
0001
0100
1000
0001
0010
0000
,
0100
1000
0010
0000
0100
0001
0010
0000
1000
0010
0001
0000
0010
0000
0001
0000
,
1000
0000
0001
0000
0010
1000
0100
0000
1000
0010
0001
0100
1000
0000
0001
0000
,
1000
0001
0100
1000
0010
0001
0100
0000
1000
0000
0100
0001
0010
0000
0001
0010
,
1000
0000
0100
0001
1000
0000
0010
0000
1000
0001
0100
0000
0010
1000
0100
0000
,
1000
0001
0100
0000
1000
0001
0010
0000
0100
0000
0010
0000
1000
0000
0001
0000
,
1010
0000
0000
0000
0001
0010
0100
1000
0000
0010
0011
0000
0000
0101
0000
1010
,
0000
0000
0001
0000
1000
0001
0010
0100
0000
0000
0101
0000
0000
0010
0100
1000
,
0000
0000
0001
1000
0001
0010
0000
0100
0000
1000
0001
0100
0010
1000
0000
0101
,
0000
0000
1000
0001
0100
0000
0010
0000
1000
0001
0100
0010
0100
0001
0000
1000
,
0000
0000
0001
0010
0100
1000
0000
0101
0000
0000
1000
0000
0001
0100
0000
1001
,
0000
0000
0010
0000
0100
0000
1000
0000
0001
0000
1000
0000
0001
0010
0100
1000
;
