#TITLE:Bubble Addiction;
#ARTIST:Dizzly;
#GENRE:けものフレンズ×NonStopDance -フレンズの歌の音楽-;
#MUSIC:Bubble Addiction.ogg;
#BANNER:Bubble Addiction.png;
#BACKGROUND:Bubble Addiction-bg.png;
#CDTITLE:./CDTitles/NSD A3.png;
#SAMPLESTART:61.915;
#SAMPLELENGTH:15.000;
#SELECTABLE:YES;
#OFFSET:0.000;
#BPMS:0.000=127.876;
#STOPS:;
#BGCHANGES:;
#FGCHANGES:;

//--------------- dance-single - ----------------
#NOTES:
     dance-single:
     :
     Beginner:
     3:
     0,0,0,0,0:
0000
0000
0000
0000
,
0000
0000
0000
0000
,
0000
0000
0000
0000
,
0000
0000
0000
0000
,
0000
0000
0000
0000
,
1001
0000
0000
0000
0000
0000
0000
0000
0000
0000
0000
0000
0000
0000
0000
0010
,
0000
0000
0000
0000
0000
0000
0000
0000
0000
0000
0000
0000
0000
0000
0000
1000
,
0000
0000
0000
0000
,
0001
0010
0100
1000
,
1001
0000
0000
0010
,
0100
0000
1000
0000
,
0001
0000
0010
0000
,
1000
0000
0001
0000
,
0010
0000
0100
0000
,
1000
0000
0001
0000
,
0010
0000
0100
0000
,
1000
0000
0001
1000
,
1001
0000
0010
0000
,
0100
0000
1000
0000
,
0001
0000
0100
0000
,
1000
0000
0001
0000
,
0010
0000
0100
0000
,
1000
0000
0001
0000
,
0010
0000
0100
0000
,
1000
0000
0000
0000
,
1001
0000
0000
0010
0000
0000
0000
0000
,
2000
0000
3000
0000
,
0010
0000
0000
0100
0000
0000
0000
0000
,
0002
0000
0003
0000
,
1000
0000
0000
0010
0000
0000
0000
0000
,
0200
0000
0000
0300
,
0010
0000
0000
0100
0000
0000
0000
0000
,
0002
0000
1003
0000
,
1000
0000
0100
0000
,
0010
0000
0001
0000
,
0010
0000
0100
0000
,
1000
0000
0000
0000
,
0001
0000
1000
0000
,
0001
0000
0100
0000
,
0010
0000
1000
0000
,
0001
0000
0000
0000
,
0000
0100
0000
1000
,
0000
0001
0000
0100
,
0000
0010
0000
0100
,
0000
0010
0000
1000
,
0000
0001
0000
0010
,
0000
1000
0000
0001
,
0000
0010
0000
0100
,
0000
0000
0000
0000
,
0001
0000
0000
0000
,
0010
0000
0100
0000
,
1000
0000
0000
0000
,
0001
0000
1000
0000
,
0001
0000
0000
0000
,
0010
0000
1000
0000
,
0010
0000
0000
0000
,
1000
0001
0100
0000
,
1000
0000
0000
0000
,
0100
0000
0010
0000
,
1000
0000
0000
0000
,
0001
0000
1000
0000
,
0010
0000
0000
0000
,
0100
0000
1000
0000
,
0001
0000
1000
0000
,
1000
0000
0000
0000
0000
0000
0000
1001
0000
0000
0000
0000
0000
0000
0000
0000
;

//--------------- dance-single - ----------------
#NOTES:
     dance-single:
     :
     Easy:
     5:
     0,0,0,0,0:
0000
0000
0000
0000
,
0000
0000
0000
0000
,
0000
0000
0000
0000
,
0000
0000
0000
0000
,
0000
0000
0000
0000
,
1001
0000
0000
0000
0000
0000
0000
0000
0000
0000
0000
0000
0010
0000
0000
0100
,
0000
0000
0000
0000
0000
0000
0000
0000
0000
0000
0000
0000
1000
0000
0000
0001
,
0000
0000
0000
0000
,
1000
0000
0001
0000
0010
0100
1000
0000
,
0001
1000
0010
1000
,
0001
1000
0010
0100
,
0010
1000
0001
0010
,
0100
1000
0001
0100
,
1000
0001
0100
0010
,
1000
0001
0100
0010
,
0001
1000
0001
0100
,
0010
0100
1000
0001
,
0100
0010
0100
1000
,
0001
0100
0010
0001
,
1000
0001
0100
0010
,
1000
0001
0100
0001
,
0100
1000
0001
0100
,
0010
0001
1000
0001
,
0100
1000
0001
0100
,
1000
0001
0100
0000
1000
0001
0100
0000
,
0010
0000
0000
0100
0000
0000
1000
0000
0000
0000
0000
0000
0000
0000
0000
0000
,
0002
0000
0003
1000
,
0001
0000
0000
0100
0000
0000
0010
0000
0000
0000
0000
0000
0000
0000
0000
0000
,
2000
0000
3000
0000
,
0001
0000
0000
0010
0000
0000
0100
0000
0000
0000
0000
0000
0000
0000
0000
0000
,
0020
0000
0000
0030
,
1000
0000
0000
0001
0000
0000
0100
0000
0000
0000
0000
0000
0000
0000
0000
0000
,
1000
0000
0001
0000
0100
1000
0001
0000
,
0011
0110
1000
0001
,
0100
0000
0010
0000
1000
0001
0100
0000
,
0010
0000
0100
0000
1000
0001
0100
0000
,
0010
0100
1000
0001
,
0011
0000
1010
0000
0100
0010
1000
0000
,
0001
0100
0010
0001
,
0100
1000
0001
0100
,
1000
0000
0000
0000
0000
0000
0000
0001
0000
0000
0000
0000
0000
0000
0000
0000
,
2000
3001
0010
0100
,
1000
0001
0100
0000
0010
0100
1000
0000
,
0001
0100
0010
0100
,
1000
0001
0100
0000
0010
0000
0100
0000
,
0101
0110
1000
0001
,
0100
0010
1000
0000
0001
0100
0010
0000
,
0100
1000
0001
0100
,
1000
0000
0000
0000
0000
0000
0000
0001
0000
0000
0000
0000
0000
0000
0000
0000
,
0010
0100
1000
0001
,
0100
0010
1000
0001
,
0100
0010
1000
0001
,
0100
1000
0001
0000
0100
0000
0010
0000
,
0001
1000
0001
0100
,
0010
1000
0001
0010
,
0100
1000
0001
0100
,
0010
0000
0000
0000
0000
0000
0000
1000
0000
0000
0000
0000
0000
0000
0000
0000
,
1000
0001
0100
0010
,
1000
0001
0100
0000
0010
0000
0100
0000
,
1000
0001
0100
0010
,
1000
0001
0100
0010
,
0001
1000
0001
0100
,
1000
0001
0010
0100
,
0001
1000
0001
0000
0010
0100
0010
0000
,
2000
0000
0000
0000
0000
0000
0000
3001
0000
0000
0000
0000
0000
0000
0000
0000
;

//--------------- dance-single - ----------------
#NOTES:
     dance-single:
     :
     Medium:
     7:
     0,0,0,0,0:
0000
0000
0000
0000
,
0000
0000
0000
0000
,
0000
0000
0000
0000
,
0000
0000
0000
0000
,
0000
0000
0000
0000
,
0001
0000
0000
0000
0000
0000
0000
0000
0100
0000
1000
0000
0010
0000
0000
0110
,
0000
0000
0000
0000
0000
0000
0000
0000
1000
0000
0001
0000
0100
0000
0000
1000
,
0000
0000
0000
0000
,
0010
0000
0100
0000
0001
1000
0001
0000
,
0010
0000
1000
0001
0100
0000
0010
0100
,
1000
0000
0001
0000
0010
0100
0001
0000
,
1000
0001
0100
0000
0010
0000
0100
0000
,
0010
1000
0001
0000
0100
0010
1000
0000
,
0001
0000
0100
0000
0010
1000
0001
0000
,
0100
0000
0010
0000
1000
0001
0100
0010
,
1000
0000
0001
0000
0100
0010
1000
0000
,
0001
0100
0010
1000
0001
0000
1000
0000
,
1001
0000
0100
0000
0010
1000
0001
0100
,
0010
0100
0001
1000
,
0001
0100
1000
0000
0001
0000
0100
0000
,
0010
1000
0001
0100
0010
1000
0001
0100
,
2000
0000
3001
0000
0010
0100
1000
0001
,
0100
0000
1000
0000
0001
0100
0000
0010
,
1000
0000
0010
0100
0000
0010
0100
0000
,
1000
0001
0100
1000
,
0001
0000
0000
0100
0000
0000
1001
0000
0000
0000
0000
0000
0000
0000
0000
0000
,
0002
0000
0003
0000
,
1000
0000
0000
0010
0000
0000
0101
0000
0000
0000
0000
0000
0000
0000
0000
0000
,
0200
0000
0300
0000
,
0001
0000
0000
1000
0000
0000
0110
0000
0000
0000
0000
0000
0000
0000
0000
0000
,
0020
0000
0200
0330
,
1000
0000
0000
0010
0000
0000
0101
0000
0000
0000
0000
0000
0000
0000
0000
0000
,
1000
0000
0001
0000
0100
0010
1000
0000
,
1001
0000
0000
0000
0110
0000
0000
1000
0000
0000
0000
0000
0000
0000
0001
0000
,
0010
0100
1000
0001
0100
0000
0010
0000
,
0101
0000
1010
0000
0100
0000
1000
0001
,
0100
0010
1000
0000
0001
0100
1000
0000
,
1001
0000
0101
0000
1000
0010
1000
0000
,
0010
0100
0001
1000
0001
0100
0010
0000
,
0100
0001
1000
0000
0001
0100
0010
0000
,
2000
0000
0000
0000
0000
0000
0000
3001
0000
0000
0000
0000
0000
0000
0000
0000
,
0002
0000
1003
0010
0100
0000
1000
0000
,
0001
0100
0010
1000
0001
0100
0010
0000
,
0101
0110
1000
0001
,
0010
0100
1000
0001
0100
0000
0010
0000
,
0110
0000
1001
0000
0010
0100
1000
0000
,
0001
0100
0010
0000
1000
0001
0100
0000
,
0010
1000
0001
0100
0010
0100
1000
0001
,
0200
0000
0000
0000
0000
0000
0000
0301
0000
0000
0000
0000
0000
0000
0000
0000
,
1001
0000
0110
0000
0001
0010
0100
1000
,
0001
0000
0100
0000
0010
1000
0001
0100
,
0010
0000
1000
0000
0001
0100
0010
1000
,
0010
0100
1000
0001
0100
0010
0100
0000
,
1002
0000
2003
0000
3001
0100
1000
0001
,
0100
0010
0100
1000
0001
0000
0100
0000
,
0010
0100
1000
0001
0100
0010
0100
1000
,
0002
0000
0000
0000
0000
0000
0000
1003
0000
0000
0000
0000
0000
0000
0000
0000
,
0011
0110
1010
0000
0010
0000
0100
0000
,
0010
1000
0001
0100
0010
0100
1000
0000
,
0001
0000
0100
0010
1000
0001
0100
0010
,
0100
1000
0001
0100
,
0010
0100
1000
0001
0100
0010
0100
0000
,
1000
0001
0100
0010
0100
0000
1000
0000
,
0001
0100
0010
1000
0001
0100
0010
0000
,
2000
0000
0000
0000
0000
0000
0000
3002
0000
0000
0000
0000
0000
0000
0003
0000
;

//--------------- dance-single - ----------------
#NOTES:
     dance-single:
     :
     Hard:
     14:
     0,0,0,0,0:
0000
0000
0000
0000
,
0000
0000
0000
0000
,
0000
0000
0000
0000
,
0000
0000
0000
0000
,
0000
0000
0000
0000
,
2002
0000
0000
0000
3000
0000
0000
0000
1003
0000
0100
0000
0010
0000
0000
2002
,
0000
0000
0000
0000
0003
0000
0000
0000
3001
0000
0000
0000
0011
0000
0000
2002
,
0000
0000
0000
0003
,
3001
0000
0000
0000
0010
0000
0000
0000
0010
0000
1000
0100
0001
0000
0000
0000
,
1001
0100
0020
0000
1030
0001
0010
1000
,
0020
0000
0130
1000
0010
0000
1000
0001
,
0200
0000
0000
0000
0310
0000
0100
0001
1000
0000
0001
0000
0100
0000
1000
0000
,
0020
0000
0000
0000
0130
0000
0000
0000
2000
0000
0000
3001
0100
0000
0010
0000
,
2000
0000
3001
1000
0010
1000
0001
0100
,
0020
0000
0000
0000
1030
0000
0001
0000
0100
0000
0000
0000
1000
0000
0001
0100
,
0020
0000
0000
0000
1030
0000
0001
0100
0020
0000
0000
0000
0031
0000
1000
0001
,
0100
1000
0001
0100
0010
0100
2000
0000
,
3002
0000
1003
0100
0010
1000
0001
0100
,
2000
0000
0000
0000
3001
0000
0100
0000
0020
0000
0100
0000
0130
0000
0000
1000
,
0001
0010
2000
0010
3001
0010
0100
0001
,
2000
0000
0000
0000
3001
0000
0000
1000
0010
0000
1000
0000
0001
0000
0100
0000
,
0020
0000
2030
0000
3001
1000
0100
0010
,
0001
0010
1000
0001
0100
0010
1002
0000
,
1003
0000
0100
0000
1000
0000
0010
0000
1000
0000
0001
0000
0100
0000
0010
0100
,
1000
0000
0001
0000
0010
0000
0100
0010
,
2002
3003
0000
0022
0033
0000
0220
0000
0330
0000
0000
1000
0001
0000
0010
0100
,
2000
0000
0000
0000
0000
0000
0000
0000
0000
0000
3001
0010
1000
0100
0010
0000
,
2002
3003
0000
0220
0330
0000
2002
3003
0000
0000
1001
0000
0010
0000
1000
0000
,
0002
0000
0000
0000
0000
0000
0000
0000
0000
0000
1003
0100
0010
0000
1001
0000
,
0001
0010
0000
1000
0100
0000
2002
0000
0003
0000
3001
0000
0010
0000
0100
0000
,
1001
0000
0000
0001
0000
0010
0100
2000
0000
0000
0000
0000
3001
0010
0100
0000
,
2002
3003
0000
0220
0330
0000
2002
0000
0000
0000
0000
0000
0003
0000
0000
0000
,
3001
0000
0000
0000
0010
0000
0000
0000
1000
0000
0100
0010
0001
0000
0000
0000
,
1001
0000
0000
0000
0011
0000
1000
0000
0100
0000
0010
0000
1000
0000
0001
1000
,
0010
0000
0100
0000
0001
0000
1000
0010
0001
0000
0100
0000
0010
0000
0100
0000
,
0011
0000
0000
0000
0110
0000
1000
0000
0100
0000
0001
1000
0010
0000
0001
0000
,
0100
0000
1000
0001
0001
0000
0100
0000
0010
1000
0001
0000
0100
0000
1000
0000
,
1001
0000
0000
0000
0011
0000
0100
1000
0100
0000
1000
0000
0100
0000
0010
1000
,
0100
0000
0010
0000
0001
0000
0010
1000
0001
0000
0100
0000
0010
0000
1000
0001
,
0100
0000
0010
0000
0001
0000
0100
0001
0010
0000
0100
0000
0010
0000
0100
1000
,
0001
0010
0000
1000
0100
0000
0010
2002
0000
0000
0000
0000
3003
0000
0000
0000
,
0002
0000
0000
0000
1003
0000
0010
0000
1000
0010
0001
0000
0100
0000
0010
1000
,
0001
0000
1000
0000
0001
0000
0100
1000
0010
0000
0100
0000
1000
0100
0010
0000
,
1001
0000
0000
0000
0101
0000
1000
0000
0010
0000
0001
0010
0100
0000
1000
0000
,
0001
0000
0100
1000
0010
0000
0100
0000
1000
0000
0001
1000
0010
0001
0100
0000
,
0101
0000
0000
0000
1010
0000
0100
0000
0001
1000
0010
0000
0100
0000
0001
0000
,
1000
0010
0001
0000
0100
0000
0010
0000
1000
0100
0001
0000
0100
0000
0010
0000
,
0001
0100
1000
0000
0001
0000
0100
0001
0010
0000
0100
0000
1000
0000
0001
0010
,
1000
0001
0000
1000
0001
0000
0100
2002
0000
0000
0000
0000
3003
0000
0000
0000
,
0101
0000
0000
0000
1001
0000
0000
0000
0100
0000
1000
0001
0000
0100
0000
0000
,
1000
0001
0100
1000
0001
0100
0010
0100
,
1000
0001
0000
0100
1000
0010
0100
0000
1000
0000
0001
0000
0100
0000
0010
0000
,
1001
0000
0000
1000
0001
0010
0200
0000
0000
0000
0000
0000
0310
0000
0001
0000
,
0020
0000
0000
0000
1030
0000
0001
0100
0010
0000
1000
0000
0010
0000
0100
0000
,
1000
0100
0001
0010
0100
0001
1000
0001
,
0100
0010
1000
0001
0100
1000
0001
0010
,
1000
0001
0000
1000
0001
0000
1000
0002
0000
0000
0000
0000
0003
0000
0000
0000
,
1002
0000
0100
0000
0013
1000
0010
0100
,
1000
0000
0001
0000
0100
0000
0010
0000
0100
0000
1000
0001
0200
0000
0000
0000
,
0301
0000
0010
0000
0100
0000
1000
0000
0001
0000
0100
0000
0010
0000
0100
0001
,
1000
0000
0001
0000
0100
1000
0100
0000
0001
0010
0100
0000
1000
0000
0001
0000
,
0100
0000
1000
0000
1000
0100
0001
0000
1000
0000
0010
0000
0100
0000
0001
0000
,
1000
0001
0100
0010
1000
0001
0100
0010
,
0001
1000
0001
0100
0010
0100
1000
0001
,
2000
0000
0000
0000
0000
0000
0000
0002
0000
0000
0000
0000
0000
0000
3003
0000
;
