#TITLE:Bomb, Bomb! Blow'em All;
#ARTIST:YMCK;
#GENRE:ミュージックガンガン3×NonStopDance ~2022夏のMUSIC CHOICE!~;
#MUSIC:Bomb, Bomb! Blow'em All.ogg;
#BANNER:Bomb, Bomb! Blow'em All.png;
#BACKGROUND:Bomb, Bomb! Blow'em All-bg.png;
#CDTITLE:./CDTitles/Music Gun Gun 3 -Shoot Away!-.png;
#SAMPLESTART:58.341;
#SAMPLELENGTH:15.000;
#SELECTABLE:YES;
#OFFSET:0.000;
#BPMS:0.000=176.828;
#STOPS:;
#BGCHANGES:;
#FGCHANGES:;

//--------------- dance-single - ----------------
#NOTES:
     dance-single:
     :
     Beginner:
     5:
     0,0,0,0,0:
0000
0000
0000
0000
,
0000
0000
0000
0000
,
0000
0000
0000
0000
,
0000
0000
0000
0000
,
0000
0000
0000
0000
,
0000
0000
0000
0000
,
0000
0000
0000
0000
,
1000
0000
0000
0000
0000
0000
0000
0001
,
0000
0000
0000
0000
,
0010
0000
0000
0000
0000
0000
0000
1000
,
0000
0000
0000
0000
,
0001
0000
0000
0000
0000
0000
0000
0010
,
0000
0000
0000
0000
,
0100
0000
0000
0000
0000
0000
0000
0010
,
0000
0000
0000
0000
,
1000
0000
0000
0000
0000
0000
0000
0001
,
0000
0000
0000
0000
,
0010
0000
0000
1000
,
0000
0000
0000
0001
,
0010
0000
0000
0000
,
0000
0000
0000
0000
,
1000
0000
0000
0000
,
0000
0001
0000
0000
,
0010
0000
0000
1000
,
0000
0000
0010
0000
,
0100
0000
0000
1000
0000
0000
0000
0001
,
0000
0000
0000
0000
,
0010
0000
0000
0000
0000
0000
0000
1000
,
0000
0000
0010
0100
,
0001
0000
0000
0100
0000
0000
0000
0100
,
0000
0000
0000
1000
0000
0000
0000
0000
,
0001
0000
0000
1000
,
0010
0000
0000
1000
0000
0000
0000
0000
,
0010
0000
0000
0000
0000
0000
0000
1000
,
0000
0000
0000
0010
0000
0000
0100
0000
,
1000
0000
0000
0001
0000
0000
0000
0000
,
0010
0000
0000
0100
0000
0000
0000
0000
,
1000
0000
0000
0001
0000
0000
0000
0010
,
0000
0000
0100
0000
,
1000
0000
0000
0001
0000
0000
0000
0010
,
0100
0000
0000
1000
0000
0000
0001
1000
,
0000
0000
0000
0000
,
0000
1000
0000
0001
0000
1000
0000
0000
,
0010
0000
0000
0000
0000
0000
0000
1000
,
0000
0000
0000
0000
,
0010
0000
0000
0100
0000
0000
0000
0001
,
0000
0000
0000
0000
,
1000
0000
0000
0001
0000
0000
0000
0010
,
0000
0000
0000
0000
,
0100
0000
0000
0010
0000
0000
0000
0001
,
0000
0000
0000
0000
,
1000
0000
0000
0001
0000
0000
0000
0100
,
0000
0000
0000
0010
0000
0000
0000
0000
,
1000
0000
0000
0001
0000
0000
0000
0010
,
0000
0000
0100
0000
,
1000
0000
0000
0001
0000
0000
0000
0010
,
0000
0000
0000
0000
,
0001
0000
0000
1000
0000
0000
0000
0010
,
0000
0000
0000
0000
,
1000
0001
0100
0000
,
0010
0000
0000
0100
0000
0000
0000
0000
,
1000
0000
0000
0001
0000
0000
0000
0010
,
0000
0000
0000
0000
,
0100
0000
0000
1000
0000
0000
0000
0000
,
0001
0000
0000
0100
0000
0000
0000
0000
,
0010
0000
0000
0100
0000
0000
0000
1000
,
0000
0000
0000
0000
,
0001
0000
0000
1000
0000
0000
0000
0010
,
0000
0000
0100
1000
,
0001
0000
0000
0010
0000
0000
0000
0100
,
0000
0000
0000
0000
,
1000
0000
0000
0001
0000
0000
0000
0010
,
0000
0000
0000
0001
0000
0100
0000
0000
,
1000
0000
0000
0001
0000
0000
0000
0010
,
0000
0000
0100
1000
,
0001
1000
0001
0000
,
0010
0000
0000
0100
0000
0000
0000
0000
,
1000
0000
0000
0001
0000
0000
0000
0010
,
0000
0000
0000
0000
,
0100
1000
0001
0000
,
0010
0100
0001
0000
,
1000
0001
0010
0000
,
0100
0000
0010
0000
,
1000
0001
1000
0000
,
0001
1000
0010
0000
,
0100
0000
0010
0000
,
0001
0010
0100
1000
,
0000
0000
0000
0000
,
0000
0000
0000
1001
;

//--------------- dance-single - ----------------
#NOTES:
     dance-single:
     :
     Easy:
     7:
     0,0,0,0,0:
0000
0000
0000
0000
,
0000
0000
0000
0000
,
0000
0000
0000
0000
,
0000
0000
0000
0000
,
0000
0000
0000
0000
,
0000
1000
0001
0000
,
0010
0000
0000
0100
0000
0000
0000
0000
,
1000
0000
0000
0001
0000
0000
0000
0100
,
0000
0000
0000
0000
,
1000
0000
0000
0001
0000
0000
0000
0010
,
0000
0000
0000
0000
,
0100
0000
0000
1000
0000
0000
0000
0001
,
0000
0000
0000
0000
,
0010
0000
0000
0100
0000
0000
0000
1000
,
0000
0000
0000
0000
,
0001
0000
0000
0010
0000
0000
0000
0100
,
0000
0000
0000
0000
,
1000
0000
0001
0100
0000
1000
0000
0000
,
0000
0001
0000
1000
0000
0001
0000
1000
,
0001
0000
0000
0010
0000
0000
0000
1000
,
0000
0000
0000
0000
,
0001
0000
0000
0010
0000
0000
0000
0001
,
0000
0000
0100
1000
0000
0000
0001
0000
,
0010
0000
0000
0100
0000
0000
0000
0010
,
0000
0000
1000
0001
,
0100
0000
0000
0010
0000
0000
0000
0001
,
0000
1000
0000
0001
0100
0000
0001
0000
,
0100
0000
0000
0010
0000
0000
0000
0001
,
0000
0000
0010
0100
,
0001
0000
0000
1000
0000
0000
0001
1000
,
0000
0010
0000
0100
,
1000
0000
0000
0001
0000
0000
0010
0100
,
0000
0000
1000
0001
0000
0100
0000
0010
,
0000
0000
0000
0001
0000
0000
0000
1000
,
0000
0001
0000
0010
,
0100
0000
0000
1000
0000
0000
0000
0000
,
0010
0000
0000
0100
0000
0000
0000
0000
,
0001
0000
0000
0010
0000
0001
0000
1000
,
0000
0010
0001
0010
,
0100
0000
0000
1000
0000
0000
0000
0000
,
0001
0000
0000
0010
0000
0000
1000
0002
,
0000
0000
0000
0003
,
0000
0000
0000
0000
,
1000
0001
0100
0000
,
1000
0001
0000
0100
0000
0000
0000
0000
,
0010
0000
0000
0100
0000
0000
0000
0001
,
0000
1000
0001
0100
,
1000
0000
0001
0000
,
0100
0000
0000
0010
0000
0000
0000
0000
,
1000
0000
0000
0001
0000
0000
0000
0100
,
0000
0000
0000
1000
0000
0001
0000
0010
,
0100
0000
0000
1000
0000
0000
0000
0001
,
0000
0000
0010
0100
,
0001
0000
0000
0010
0000
0000
0000
0100
,
0000
0000
1000
0001
,
0100
0000
0000
0010
0000
0000
0000
0100
,
0000
0000
0000
0010
0000
0000
1000
0000
,
0001
0000
0000
0010
0000
0000
0000
0100
,
0000
1000
0001
1000
,
0010
0100
1000
0000
,
0001
0000
0000
0100
0000
0000
0000
0000
,
0010
0000
0000
0100
0000
0000
0000
0001
,
0000
0000
1000
0001
,
0100
0010
0100
0000
,
1000
0000
0000
0001
0000
0000
0000
0000
,
0010
0000
0000
0100
0000
0000
0000
1000
,
0000
0000
0000
0001
0000
0010
0000
0100
,
0001
0000
1000
0000
0001
0000
0000
0100
,
0000
0000
0010
1000
,
0001
0000
0000
0100
0000
0000
0000
0000
,
0010
0000
0100
0010
,
1000
0000
0000
0001
0000
0000
0000
0100
,
0000
0000
0010
0100
,
1000
0000
0000
0001
0000
0000
0000
0000
,
0010
0100
1000
0001
,
0010
0100
1000
0000
,
0001
1000
0000
0100
0000
0000
0000
0000
,
0010
0000
0100
0000
0010
1000
0000
0001
,
0000
0010
0100
0000
,
0010
0100
0001
1000
,
0001
0100
0010
1000
,
0001
0100
0010
0100
,
0001
1000
0001
0010
,
0100
1000
0001
0100
,
0010
0100
1000
0001
,
0010
1000
0001
0000
0001
1000
0100
0000
,
0001
0010
0100
1000
,
0001
0000
0000
0000
,
0000
0000
0000
1001
;

//--------------- dance-single - ----------------
#NOTES:
     dance-single:
     :
     Medium:
     10:
     0,0,0,0,0:
0000
0000
0000
0000
,
0000
0000
0000
0000
,
0000
0000
0000
0000
,
0000
0000
0000
0000
,
0000
0000
0000
0000
,
0000
0000
0000
0000
,
0000
0000
0000
0000
,
1000
0000
0000
0001
0000
0000
0000
0100
,
0000
0000
0000
0000
,
1000
0000
0001
0100
0000
0000
0010
0100
,
1000
0000
0001
0000
1000
0001
0100
0010
,
0100
0000
1000
0001
0000
1000
0001
0010
,
0000
0001
1000
0000
1000
0001
0100
0010
,
1000
0000
0010
0100
0000
1000
0001
0010
,
0000
0000
1100
0001
0010
0100
1000
0001
,
0010
0000
0100
0001
0000
0000
0010
1000
,
0000
0100
0001
0000
1000
0000
0001
0100
,
1000
0000
0001
0010
0100
0000
1000
0001
,
0000
0010
0100
0000
1000
0000
0001
0000
,
0010
0000
0100
1000
0000
0010
0100
0000
,
1000
0000
0001
0100
0010
0000
1000
0000
,
0001
0100
0000
0010
0000
0001
0010
0100
,
1000
0000
0001
0000
0010
0100
1000
0000
,
0001
0000
0010
1000
0000
0001
1000
0010
,
0000
0001
0010
0100
1000
0000
0001
0000
,
0100
0000
1000
0010
0000
0100
1000
0001
,
0000
1000
0010
0001
0100
0000
0001
0000
,
0100
0000
1000
0010
0000
0001
1000
0001
,
0000
0010
0100
0000
0010
0000
0100
0000
,
0001
0010
0001
1000
0000
0000
0001
1000
,
0100
0000
0010
1000
0000
0000
0100
0000
,
1000
0000
0100
0001
0000
0000
0010
0100
,
0001
0000
1000
0001
0000
0100
1000
0010
,
0000
0000
0100
0001
0000
0010
0100
1000
,
0000
0000
0001
1000
0001
0000
0010
0000
,
0200
0000
0000
2300
0000
0000
0000
0000
,
3020
0000
0000
0230
0000
0000
0000
0310
,
0001
0000
1000
0010
0000
0001
0000
1000
,
0000
0100
0010
0000
0001
0000
0010
0000
,
0200
0000
0000
2300
0000
0000
3000
0100
,
0002
0000
0000
0203
0000
0000
2300
3002
,
0000
1000
1000
1003
,
0000
0001
0010
0100
0001
0010
1000
0000
,
1001
0011
0110
1001
,
1000
0001
0000
0100
1000
0000
0001
1000
,
0010
1000
0001
0100
0000
0100
0000
0001
,
0000
0010
1000
0100
0001
0000
0100
0000
,
1000
1010
1001
0101
,
0100
1000
0000
0010
0000
0000
0001
0010
,
1000
0001
0100
0001
0000
1000
0001
0100
,
0000
0001
0000
1000
0000
0001
0000
0010
,
0100
0000
0001
0000
0100
1000
0100
0001
,
1000
0100
0001
0000
0200
0000
0001
0300
,
0001
0000
1000
0010
0001
0010
0000
0200
,
0000
1300
0001
1000
0020
0000
0031
0000
,
0100
0000
1000
0010
0000
0001
1000
0200
,
0000
0310
0001
0010
0200
0000
1300
0000
,
0001
1000
0001
0010
1000
0100
0001
0100
,
0000
0010
1000
0100
0020
0000
1030
0000
,
0010
0101
1010
1001
,
0001
1000
0001
0100
0000
0000
0001
1000
,
0010
1000
0000
0100
0010
0000
0000
1001
,
0000
0010
0000
0001
1000
0000
0001
0010
,
0100
1010
0101
0010
,
1000
0001
0100
0001
0000
1000
0001
0100
,
0010
0001
1000
0100
0000
0001
0010
1000
,
0000
0100
1000
0001
0000
0010
0000
0100
,
1001
0000
1000
0000
0001
0000
0010
0100
,
0000
1000
0001
0100
0010
0000
1000
0010
,
0001
1000
0000
0100
0000
1000
0001
1000
,
0010
0000
0001
0010
0100
1000
0010
0000
,
1000
0100
0000
0001
1000
0000
0001
0100
,
0000
1000
0001
0000
0010
0000
0100
0000
,
1000
0010
1000
0001
0100
0000
1000
0001
,
0010
0000
0100
0000
1000
0010
0001
0000
,
0010
0000
0100
0000
1000
0010
0100
0010
,
0001
1000
0001
0100
1000
0010
0001
0000
,
0010
1000
0100
0000
0010
1000
0000
0001
,
1000
0001
0010
0000
0100
0001
1000
0000
,
0010
0000
0100
0000
0001
0010
1000
0000
,
0001
0000
0100
1000
0010
0001
1000
0000
,
0001
0000
0100
1000
0010
0000
0100
0000
,
0001
0010
1000
0100
0001
1000
0010
0000
,
0100
0000
1000
0010
0001
0000
0100
0000
,
0010
0001
0100
0000
1000
0000
0001
0000
,
0010
1000
0001
0100
0001
1000
0100
0010
,
0001
1000
0010
0001
0100
0010
1000
0100
,
0001
1000
1001
0000
,
0010
0100
0000
1001
0000
0000
0110
0000
;

//--------------- dance-single - ----------------
#NOTES:
     dance-single:
     :
     Hard:
     16:
     0,0,0,0,0:
0000
0000
0000
0000
,
0000
0000
0000
0000
,
0000
0000
0000
0000
,
0000
0000
0000
0000
,
0000
0000
0000
0000
,
0000
0001
0010
0100
,
1000
0001
0000
0100
0000
0010
1000
0000
,
0001
0100
0010
1000
0000
0001
0000
0010
,
0000
0000
0100
0000
1000
0000
0000
0000
0001
0010
0100
0000
1000
0000
0000
0000
,
1001
0200
0000
0302
0000
0013
1000
0001
,
0020
0000
0130
0001
0010
0100
1000
0010
,
0001
0100
1000
0020
0000
0130
1000
0010
,
0001
0000
0100
0000
1000
0000
0010
0000
0100
0001
0000
1000
0010
0000
0100
0000
,
0001
0010
1000
0002
0000
0103
1000
0010
,
0100
1000
0010
0001
0100
1000
0002
0000
,
1003
0000
0010
0100
0001
1000
0001
0100
,
0020
0000
1030
0010
0100
1000
0001
0100
,
2000
0000
3001
0020
0000
0000
1030
0100
,
0010
0000
0001
0000
0010
0000
1000
0000
0100
0010
0000
0001
0020
0000
0000
0000
,
0130
0001
0100
0010
0100
0001
0010
0001
,
1000
0010
1000
0001
0010
0100
0010
0001
,
0100
0010
0100
0001
0100
0010
1000
0010
,
1000
0000
0000
0100
0010
0000
0000
0001
0010
0000
0000
1000
0010
0000
0000
0000
,
1002
0000
1003
0010
1000
0100
1000
0100
,
1000
0010
0100
0010
0100
0010
1000
0100
,
1000
0010
1000
0001
0010
0001
0100
0010
,
1000
0000
0010
0000
0200
0000
0000
0000
0310
0001
0000
0010
0100
0000
1000
0000
,
0110
0000
0010
0100
0010
1000
0010
0100
,
0001
0010
0100
0010
0100
0010
0001
0100
,
0010
0100
0001
0100
0001
0010
0100
0010
,
1000
0000
0000
0100
0010
0000
0000
0001
1000
0000
0000
0010
0100
0000
0000
1000
,
0010
0100
0001
1000
0010
0100
0010
0100
,
0001
0010
0001
1000
0100
1000
0100
0010
,
2000
0000
0000
0010
0000
0000
0001
0000
0000
0000
0000
0100
3001
0000
0010
0000
,
0100
0000
0010
2001
0000
0000
3001
0000
,
0010
0000
0000
0100
0000
0000
0000
1000
,
0002
0000
0000
0023
0000
0000
0000
0000
,
2030
0000
3002
0023
0000
0230
0000
2300
,
0000
3002
0023
0230
,
0320
0000
0000
0032
0000
0000
1003
0010
,
0100
0000
0000
1000
0010
0000
0100
0000
0010
0000
0001
0000
1000
0000
0200
0000
,
0001
0001
0001
0301
,
0000
0000
1000
0100
1000
0000
0001
0010
0001
0000
0100
1000
0100
0000
0000
0000
,
1001
0000
0101
0000
1010
0000
0100
0001
,
1000
0001
0000
1001
0000
0100
0010
1000
,
0001
0100
1000
0002
0000
1003
0100
0010
,
0001
0010
0100
1000
0100
1000
0100
0000
,
1001
0000
0110
0000
0110
0000
1000
0010
,
0001
1000
0000
1001
0000
0010
0100
1000
,
0001
0010
0100
1000
0000
0001
0010
0100
,
0001
0000
1000
0000
0001
0000
1000
0000
0010
0000
0001
0000
0100
0000
1000
0010
,
0100
0000
0200
0000
1300
0001
0000
0200
,
0000
0310
1000
0001
0020
0000
1000
0100
,
0032
0000
0023
0000
1030
0002
0000
0023
,
0000
0031
0010
0100
1002
0000
0100
0000
,
0013
1000
0020
0000
0130
1000
0000
1001
,
0000
0010
0100
0001
2000
0000
0001
0000
,
3010
0000
0001
0010
0100
0000
0010
0000
1000
0000
0001
0100
0000
0000
0010
0000
,
0000
0000
0100
0000
1000
0000
0001
0000
0010
0000
0100
1000
0001
0010
1000
0001
,
0100
0000
0101
0000
1010
0000
0100
0001
,
1000
0001
0000
1001
0000
0100
0010
1000
,
0001
0100
1000
0002
0000
1003
0100
0010
,
0001
0010
0100
1000
0100
1000
0100
0010
,
1001
0000
0110
0000
0110
0000
1000
0010
,
0001
1000
0000
1001
0000
0010
0100
1000
,
0001
0010
0100
1000
0000
0001
0010
0100
,
0001
0000
1000
0000
0001
0000
1000
0000
0010
0000
0001
0000
0100
0000
1000
0010
,
0100
0010
1000
0001
1000
0010
0100
0001
,
1000
0000
0010
0001
1000
0000
0100
0000
0010
0000
0001
0000
0100
0000
0010
0000
,
0100
0000
0010
0000
0100
0000
0001
0100
1000
0000
0100
0000
0010
0000
0001
0010
,
0100
0000
0010
0000
0100
0000
0010
0000
1000
0000
0010
0001
1000
0000
0100
0000
,
0010
0000
0001
0010
0100
0000
0001
0000
0100
1000
0010
0000
1000
0000
0100
0001
,
0010
0000
0001
0000
0010
1000
0001
0000
0100
0000
0010
0000
1000
0000
0010
0001
,
0100
0000
0010
0000
0100
0000
0001
0010
0100
0000
0001
0010
1000
0000
0001
1000
,
0100
0000
0010
0001
0100
0000
0010
0000
1000
0001
0100
0000
0010
1000
0001
0000
,
0110
0000
0010
0000
0001
0000
0010
0000
1000
0010
0001
0000
0100
0000
0001
0000
,
1000
0100
0001
0000
0010
0000
1000
0010
0001
0000
0100
0000
0010
0000
1000
0010
,
0001
0000
0100
0001
1000
0100
0001
0000
0100
0001
1000
0000
0100
0000
0010
1000
,
0001
0000
0010
0000
0100
0000
1000
0001
0100
0000
1000
0000
0100
0010
1000
0000
,
0001
0000
1000
0000
0100
0000
0001
1000
0100
0000
0010
0000
1000
0010
0000
0100
,
0001
0000
1000
0000
0100
0001
0000
1000
0100
0000
0010
0000
0100
0000
1000
0010
,
0001
1000
0000
0001
0100
0000
1000
0010
0000
1000
0001
0000
0010
0000
0100
0010
,
0001
0000
1000
0000
0001
0100
1000
0000
0010
0000
0001
0000
0100
0000
1000
0010
,
0100
0001
0010
0000
0100
0000
0001
0000
1000
0000
0010
0000
0100
0000
0010
0000
,
0100
0000
0001
0000
1000
0000
0100
0000
0010
0000
0100
0000
1000
0000
0001
0010
,
1000
0000
0001
0000
0100
1000
0010
0000
0100
0000
0010
0001
0100
0000
0001
1000
,
0010
0100
0001
0100
1000
0001
0010
0100
1000
0001
0010
1000
0100
0010
0001
0100
,
0010
1010
0101
0000
,
0011
0110
0000
1010
0000
0000
2002
0000
,
0000
3003
0000
0000
;
