
//----- song ID: eygo -----//
#TITLE:Birds fly again;
#ARTIST:NAMCO Sound Team "Ryo Watanabe" feat. LV4;
#GENRE:けものフレンズ×NonStopDance -フレンズの歌の音楽-;
#MUSIC:Birds fly again.ogg;
#BANNER:Birds fly again.png;
#BACKGROUND:Birds fly again-bg.png;
#CDTITLE:./CDTitles/NSD A3.png;
#SAMPLESTART:44.371;
#SAMPLELENGTH:15.000;
#SELECTABLE:YES;
#OFFSET:0.000;
#BPMS:0.000=175.000;
#STOPS:;
#BGCHANGES:;
#FGCHANGES:;

//--------------- dance-single - ----------------
#NOTES:
     dance-single:
     :
     Beginner:
     5:
     0,0,0,0,0:
0000
0000
0000
0000
,
0000
0000
0000
0000
,
0000
0000
0000
0000
,
0000
0000
0000
0000
,
0000
0000
0000
0000
,
0001
0000
0000
0010
,
0000
0000
0100
0000
,
1000
0100
0010
1000
,
0001
0000
0000
0000
,
1001
0000
0000
0000
,
0100
0000
0010
0000
,
1000
0000
0000
0000
,
0010
0000
0100
0000
,
0010
0000
0000
0000
,
0001
0000
0010
0000
,
0100
0000
0000
0000
,
1000
0000
0001
0000
,
0010
0100
1000
0000
,
0010
0000
0100
0000
,
0010
0000
0001
0000
,
1000
0000
0001
0000
,
0100
0000
0010
0000
,
0100
0000
1000
0100
,
0020
0000
0000
0030
,
1000
0000
0001
0000
,
1001
0000
0000
0000
,
0010
0000
0000
0000
,
0100
0000
0000
0000
,
1000
0000
0001
0000
,
0010
0000
0000
0000
,
1000
0000
0000
0000
,
0001
0000
0010
0000
,
1000
0000
0000
0000
,
1001
0000
0100
0000
,
0010
0000
0001
0000
,
0100
0000
0010
0000
,
1000
0000
0001
0000
,
0010
0000
0100
0000
,
1000
0000
0001
0000
,
0010
0000
0100
0000
,
0010
0000
1000
0100
,
0010
0000
0001
0010
,
0100
0000
1000
0000
,
0001
0010
0100
0000
,
1000
0000
0001
0000
,
0100
0000
0010
0000
,
0100
1000
0001
0000
,
0100
0010
0100
0000
,
1000
0000
0001
0000
,
1001
0000
0100
0000
,
0010
0000
0100
0000
,
0001
0010
0100
0000
,
1000
0000
0001
0010
,
0100
0010
0100
0000
,
1000
0001
0100
0000
,
0010
0000
0100
0000
,
1000
0000
0001
0000
,
2002
0000
0000
0000
,
0000
0000
3003
0000
,
0110
0000
0000
0000
,
1000
0000
0000
0000
,
0001
0000
0000
0010
,
0000
0100
0000
1000
,
0001
0000
1000
0000
,
0010
0000
0100
0000
,
0010
0000
0100
0000
,
1000
0001
0100
0000
,
0000
1001
0000
0100
,
0000
0010
0000
1000
,
0000
0001
0000
1000
,
0000
0001
0100
1000
,
1001
0000
0100
0000
,
0010
0000
0100
0000
,
0010
0000
0100
0000
,
1000
0000
0001
0010
,
0100
0000
0000
0000
,
0010
0000
0000
0000
,
1001
0000
0000
0000
,
0100
0000
0000
0000
,
2002
0000
0000
0000
,
0000
0000
0000
0000
,
0000
0000
0000
0000
,
3003
0000
0000
0000
;

//--------------- dance-single - ----------------
#NOTES:
     dance-single:
     :
     Easy:
     7:
     0,0,0,0,0:
0000
0000
0000
0000
,
0000
0000
0000
0000
,
0000
0000
0000
0000
,
0000
0000
0000
0000
,
0000
0000
0000
0000
,
1000
0010
0100
0001
,
1000
0001
0100
0010
,
1000
0001
0100
0010
,
0200
0000
0000
0310
,
1001
0001
0100
0010
,
0100
0010
1000
0001
,
0100
0010
0100
0001
,
0010
0100
1000
0001
,
0100
0010
1000
0001
,
0100
0000
1010
0000
0101
0000
0001
0100
,
1000
1001
0001
0010
,
0100
0001
0100
1000
,
0002
0013
1000
0001
,
0100
0010
0100
0001
,
0010
0100
0001
1000
,
0100
0010
1000
0001
,
0100
0000
0010
0001
,
0010
0110
1010
0001
,
0100
0000
0010
0000
,
0100
1000
0100
0010
,
1002
0000
0100
0000
,
1003
0000
0100
0000
,
0010
0000
0001
0000
,
0010
0100
1000
0000
,
0001
0000
0000
1000
0000
0000
0010
0000
,
0100
0000
0000
0001
0000
0000
1000
0000
,
0001
0000
0000
0100
0000
0000
0010
0000
,
2000
0000
0000
3000
,
1001
0100
0010
1000
,
0001
0100
0010
0100
,
1000
0001
0100
0010
,
0100
1000
0001
0100
,
0010
1000
0001
0010
,
0001
0010
0100
0010
,
1000
0001
0100
0010
,
0100
1000
0001
0010
,
0002
1003
0010
1000
,
0001
1000
0010
1000
,
0100
0010
0001
0010
,
0100
0010
0100
1000
,
0010
0100
0001
0100
,
0010
0100
0010
1000
,
0010
0000
1000
0000
0001
0010
0100
1000
,
0002
0000
0100
0000
,
1003
0100
0000
0000
0010
0000
0001
0000
,
0100
1000
0010
1000
,
0010
0001
0000
0000
1000
0000
0001
0000
,
0100
0010
0100
1000
,
0001
0010
0000
0000
0001
0000
0010
0000
,
0100
0000
1000
0100
0001
0000
0100
0000
,
0020
0000
1030
0000
,
0200
0000
0301
0000
,
2002
0000
0000
0000
,
3003
0000
0000
0000
,
1001
0000
0000
0000
,
0010
0000
0000
0000
,
0010
0000
0100
0000
,
1000
0001
0100
0010
,
0002
1003
0100
1000
,
0001
0010
0100
0010
,
1000
0100
0000
0010
0100
0001
0000
0000
,
0100
0010
1000
0010
,
2000
3100
1000
0001
,
0010
0100
0010
0001
,
0020
0031
2000
3100
,
1000
0001
0010
0000
0100
1000
0010
0000
,
0100
0001
0100
0001
,
1000
0001
0100
0010
,
1000
0001
0010
0000
0100
1000
0010
0000
,
0100
0001
1000
0001
,
0010
0001
0100
0010
,
1000
0001
0100
0000
0010
0000
0100
1000
,
0010
0000
0100
0000
1000
0001
0010
0000
,
0110
0000
0000
0000
,
2002
0000
0000
0000
,
0000
0000
0000
0000
,
0000
0000
0000
0000
,
3003
0000
0000
0000
;

//--------------- dance-single - ----------------
#NOTES:
     dance-single:
     :
     Medium:
     11:
     0,0,0,0,0:
0000
0000
0000
0000
,
0000
0000
0000
0000
,
0000
0000
0000
0000
,
0000
0000
0000
0000
,
0000
0000
0000
0000
,
1000
0100
0010
0100
,
0001
1000
0001
0100
,
0010
0001
1000
0100
0010
0001
1000
0010
,
0102
0000
0000
0103
,
1001
0000
0010
0000
0001
1000
0010
0000
,
0001
0000
0100
0000
0010
0100
1000
0000
,
0001
0000
0100
0001
0010
0000
1000
0000
,
0100
1000
0010
0000
0001
0000
1000
0100
,
0001
0000
1000
0000
0100
0000
0010
0100
,
0001
0000
1010
0000
0101
0010
1000
0010
,
0001
0000
0010
0000
0001
0100
1000
0000
,
0001
0000
0010
0001
0100
0001
0010
1000
,
0002
0000
0013
0000
0001
0000
0100
0001
,
0010
0000
1000
0000
0100
0001
1000
0000
,
0001
0010
0100
0000
0001
0000
0100
1000
,
0010
0000
1000
0000
0010
0001
0100
0000
,
0001
1000
0010
0000
0001
0000
0010
0000
,
0100
0000
0011
0000
1100
0010
1000
0100
,
0001
1000
0001
1000
,
0010
1000
0100
0001
0010
0100
1000
0010
,
2001
0000
0000
0000
3001
0000
0010
0100
,
1000
0000
0001
0000
0010
0000
0100
1000
,
1002
0000
0000
0000
0103
0000
0010
0100
,
1000
0000
0001
0000
0100
0010
0100
0000
,
1000
0000
0000
0001
0000
0000
0100
0000
,
0010
0000
0000
0100
0000
0000
1000
0000
,
0001
0100
0010
0100
1000
0010
0001
0010
,
0200
0000
0000
0301
,
1001
0000
0100
1000
0010
0000
0001
0000
,
1000
0000
0100
0001
0010
0000
0001
0000
,
1000
0010
0100
0000
0010
1000
0100
0000
,
0010
0000
0001
0100
1000
0000
0010
0000
,
1000
0001
0100
0000
1000
0000
0001
0010
,
0100
0000
0010
0000
1000
0001
0100
0000
,
0010
1000
0100
0000
0010
1000
0001
0000
,
0010
0001
0100
0000
1000
0010
0001
0000
,
0201
0000
0310
0000
0100
0000
0010
0100
,
1000
0000
0001
0000
0100
1000
0010
0000
,
2010
3010
2010
3001
,
0010
0001
0100
0010
1000
0000
0010
0000
,
0101
0000
0001
0100
1000
0000
0100
0001
,
1000
0010
1000
0010
,
0100
0000
0001
0010
1000
0000
0100
0001
,
0200
0000
0000
0310
,
1001
0100
0000
0000
0010
0100
1000
0001
,
0010
0000
1000
0000
0001
0100
0010
0000
,
0001
1001
0000
0010
0100
1000
0001
0100
,
0010
0000
1000
0001
0010
0000
0100
0000
,
0011
0010
0000
1000
0001
0100
0010
1000
,
0100
0001
0010
0100
0001
0100
0010
0100
,
1002
0000
1003
0000
,
0210
0000
0301
0000
,
2002
0000
0000
0000
,
0000
0000
3003
0000
,
0120
0000
0000
0000
,
2030
0000
0000
0000
,
3002
0013
2000
3001
,
0010
0100
1000
0000
0001
0000
0010
0000
,
1001
0000
0100
1000
0010
0000
0001
0000
,
1000
0000
0100
0001
0010
0000
0001
0000
,
1000
0010
0100
0000
0010
1000
0100
0000
,
0010
0000
0001
0100
1000
0000
0010
0000
,
2001
0000
3001
0000
1000
0000
0001
0010
,
0100
0000
0010
0000
1000
0001
0100
0000
,
0010
1000
0100
0000
0010
1000
0001
0000
,
0010
0000
0100
0000
1000
0010
0001
0000
,
0100
0000
0010
0000
0100
1000
0010
0100
,
1000
0000
0001
0000
0100
1000
0010
0001
,
0010
0000
1000
0001
0010
0000
0100
1000
,
0001
0000
0010
0100
0010
0001
0010
0100
,
0100
1000
0001
0100
,
0001
1000
0010
0000
0100
0000
1000
0001
,
0100
0000
1000
0100
0010
0001
0100
0010
,
1000
0000
0000
0000
,
2002
0000
0000
0000
,
0000
0000
0000
0000
,
0000
0000
0000
0000
,
3003
0000
0000
0000
;

//--------------- dance-single - ----------------
#NOTES:
     dance-single:
     :
     Hard:
     16:
     0,0,0,0,0:
0000
0000
0000
0000
,
0000
0000
0000
0000
,
0000
0000
0000
0000
,
0000
0000
0000
0000
,
0000
0000
0000
0000
,
1000
0010
1000
0100
0001
0010
0100
0001
,
1000
0100
0010
0100
0001
0100
0010
0100
,
1000
0000
0001
0000
0100
0000
0010
0000
1000
0100
0001
1000
0010
0001
0100
0010
,
0200
0000
0000
0310
,
2001
0000
0010
0000
0010
0000
3010
0100
,
0002
0000
1000
0000
1000
0000
1003
0100
,
0020
0000
0130
1000
0001
1000
0010
0100
,
0002
0100
2003
0100
,
3020
0000
0100
0000
0100
0000
0130
0001
,
2000
0000
3100
1000
0001
0100
0010
1000
,
0002
0000
0100
0000
0103
0001
0010
0100
,
2000
0100
0002
3003
,
1002
0000
0103
0000
0100
0000
0100
0010
,
1000
0000
1000
0000
1000
0000
1000
0100
,
0010
0000
0100
0010
0100
0010
0001
1000
,
0010
0000
0010
1000
0100
0000
0100
0000
,
0002
0000
0010
0000
0010
0000
0013
0100
,
2000
0100
3002
0010
,
1003
0010
0100
0001
0010
0100
1000
0001
,
2002
0000
0000
3003
,
1001
0000
1001
0001
0010
0100
1000
0002
,
0000
0010
0013
0000
0100
0001
0100
1000
,
0020
0000
0031
0010
1000
0001
0010
0200
,
0000
1000
1300
0000
0001
1000
0010
0100
,
0010
0000
0001
1000
0100
0001
1000
0010
,
0000
1000
2000
0000
3200
0000
0320
0000
,
0031
0000
1000
0000
0100
0000
0010
0000
1000
0000
0001
0000
0010
1000
0100
0010
,
0002
0010
0013
0000
0110
0000
0011
0000
,
1001
0100
0001
1000
0010
0100
0001
2000
,
0100
0010
3001
0000
0100
1000
0100
0001
,
2000
0000
3010
0001
0010
1000
0001
0020
,
1030
0010
0100
0001
0100
1000
0001
0010
,
0200
0301
0010
1000
0010
0100
0010
0002
,
0000
1000
2003
0000
3001
0100
0020
0000
,
1030
0000
0001
0010
0100
0000
0000
0000
1001
0000
0010
0000
0100
0000
1000
0000
,
0002
0000
0000
0000
1003
0000
0000
0000
1000
0001
0100
0000
0010
0000
0100
0000
,
1000
0000
0100
0000
0001
0000
0010
0001
0100
0000
1000
0000
0001
0000
0100
0000
,
0010
0000
0100
0001
1000
0000
0001
0000
0100
0000
0010
0000
0100
0000
0000
0000
,
0102
0103
2010
3010
,
0101
0000
0000
0000
1010
0000
0000
0000
1001
0000
0000
0000
0100
0010
1000
0000
,
0001
0100
0010
1000
0010
1000
0010
0100
,
0010
0100
0001
1000
0001
0100
0010
1000
,
0010
1000
0100
0000
0010
1000
0001
0000
0010
0100
0001
0000
0010
0100
0010
0001
,
2000
0000
0000
3001
,
0101
0101
0000
0010
1000
0010
0100
0001
,
0100
0010
0001
0000
1000
0000
0010
0000
1000
0000
0010
0000
0001
0000
0100
0000
,
1010
1010
0000
0100
1000
0100
1000
0010
,
1000
0001
0100
0000
0010
0000
0100
0000
1000
0000
0010
0000
1000
0000
0000
0000
,
0110
0110
0000
0100
1000
0010
0100
0001
,
0010
0001
1000
0100
1000
0001
0100
0001
,
0202
0303
2020
3030
,
0010
0000
0100
0000
1000
0001
0100
0000
1000
0001
0100
0000
0010
0000
0100
0000
,
2002
0000
0000
3003
,
0000
0000
0000
0000
,
0202
0000
0303
0000
,
2020
0000
3030
0000
,
0102
0103
0120
1030
,
1001
0000
0000
0000
0110
0000
0000
0000
1000
0000
0100
0001
0020
0000
1000
0000
,
0031
0000
0100
0010
0000
0100
0010
0000
1000
0000
0100
0000
1100
0000
0000
0000
,
1000
0000
0100
0010
0000
0100
0010
0000
0001
0000
0100
0001
0000
0100
0001
0000
,
1000
0000
0001
0100
0000
0100
0001
0000
1000
0000
0100
0010
0000
0010
0100
0000
,
1000
0000
0000
0010
0000
0000
0001
0000
0100
0010
0100
0010
0100
0000
0100
0010
,
2000
0000
0000
0000
3010
0000
0001
0000
0100
0010
0100
0010
0100
0000
0100
0010
,
0002
0000
0000
0010
0000
0000
1000
0000
0103
0010
0100
0010
0100
0000
0001
0100
,
0020
1030
0020
0031
,
0110
0000
0000
0000
1010
0000
0000
0000
0101
0000
1000
0100
1000
0100
0010
0000
,
0001
0000
0101
0000
0100
0000
0110
0000
0010
0000
1000
0010
1000
0100
0010
0000
,
0001
0100
0000
0100
0010
0000
1000
0000
0100
0010
0000
0010
0001
0000
0100
0000
,
0010
1000
0000
0010
1000
0000
0001
0000
1000
0100
0000
1000
0100
0000
0001
0000
,
0010
0100
0000
1000
0001
0000
0100
0000
0010
0000
1001
0000
0010
0100
0002
0000
,
0000
0023
0000
0000
1030
0000
0002
0000
0000
0203
0000
0000
1300
0001
2000
0000
,
0000
3020
0000
0000
0031
0000
2000
0000
0000
3200
0000
0000
1300
0000
0010
0000
,
1000
0000
0010
0000
0100
0000
0001
0000
0100
0000
0001
0000
1000
0001
1000
0001
,
0200
0000
0000
0301
,
2002
0000
0000
0000
,
0000
0000
0000
0000
,
0000
0000
0000
0000
,
3003
0000
0000
0000
;

//--------------- dance-single - ----------------
#NOTES:
     dance-single:
     :
     Challenge:
     17:
     0,0,0,0,0:
0000
0000
0000
0000
,
0000
0000
0000
0000
,
0000
0000
0000
0000
,
0000
0000
0000
0000
,
0000
0000
0000
0000
,
0001
0000
0100
1000
0001
0000
0010
0000
1000
0001
0100
0000
0010
0000
1000
0100
,
0001
0000
0010
0000
0100
0001
0010
0000
1000
0000
0010
1000
0100
0000
0010
0000
,
0001
0010
1000
0000
0010
0001
0100
0000
0001
0010
1000
0001
0100
1000
0010
0100
,
0020
0000
0000
0130
,
1002
0000
0000
0000
0103
0000
1000
0000
0100
0000
0001
1000
0100
0000
0010
0000
,
2000
0000
0000
0000
3001
0000
0100
0000
0001
0000
1000
0000
0001
1000
0010
0000
,
0200
0000
0000
0000
0310
0000
0001
0000
1000
0000
0001
0010
0100
0000
0010
0000
,
2000
0000
3010
0100
0002
0000
0013
1000
,
0200
0000
0000
0000
0310
0000
1000
0000
0010
0000
0001
0100
0010
0000
1000
0000
,
0002
0000
0000
0000
0013
1000
0001
0000
1000
0001
0010
0000
0100
0000
0001
0010
,
2000
0000
0000
0000
3010
0000
0001
0000
0010
0000
1000
0000
0100
0000
0010
1000
,
0002
0000
0000
0000
0013
0000
0100
0000
1000
0100
0001
0000
1000
0000
0001
0000
,
2000
0000
0000
0000
3001
0000
0000
0000
0010
0000
1000
0001
0010
0000
0100
0000
,
0001
0000
1000
0000
0001
0010
1000
0000
0001
0000
1000
0100
0001
0000
0010
0000
,
0100
0000
0001
0000
0010
0000
0100
1000
0010
0000
0100
0000
1000
0000
0001
0000
,
0100
0000
0010
0000
0100
0000
0001
1000
0010
0000
0100
0000
0010
0001
0100
0000
,
2000
0000
0000
0000
3100
0000
0001
0010
0100
0000
1000
0001
0100
0000
0010
0000
,
0002
0000
0000
0000
0013
0100
1000
0000
0001
1000
0001
0000
0100
0000
1000
0100
,
0001
0000
0100
0000
0010
0000
1000
0001
0100
0000
0010
0100
0001
0000
1000
0000
,
0001
0000
0100
0000
0010
1000
0100
0000
0001
0010
0100
0000
0010
0000
0000
0000
,
1001
0100
0001
1000
0100
0010
0001
2000
,
0000
0000
0100
0000
3100
0000
0001
0000
0010
0000
1000
0100
0010
0000
0001
0000
,
0200
0000
0000
0000
1300
0000
0100
0010
0001
0000
1000
0000
0100
0000
0020
0000
,
0000
0000
0001
0000
0031
0000
0001
0100
1000
0000
0001
0000
0100
1000
0010
0000
,
0100
0000
0000
0001
1000
0000
0001
0000
0010
0100
1000
0000
0001
0000
0100
1000
,
0010
0000
0100
0000
0001
0010
1000
0000
0010
0000
0100
0010
0001
0000
0010
0000
,
1000
0000
0001
1000
0010
0000
0100
0010
0001
0000
1000
0010
0100
0001
0010
0100
,
2000
0100
3001
0010
0100
0010
1000
0000
,
1001
0000
0010
0000
1000
0010
0001
0000
0100
0000
0010
0000
1000
0010
0002
0000
,
0010
0000
0100
0000
1003
0000
0100
0000
0010
1000
0001
0000
0010
0000
1000
0000
,
0002
0000
0000
0000
0103
0000
1000
0001
0100
0000
0001
0100
1000
0000
0200
0000
,
0301
0000
0100
0000
0010
0000
1000
0000
0010
1000
0001
0000
1000
0001
0100
0000
,
0020
0000
1030
0000
0100
0000
0001
0000
0100
1000
0000
0001
0100
0000
2000
0000
,
0000
0001
3002
0000
1003
0010
0200
0000
,
0301
0000
1000
0000
0010
1000
0000
0100
0001
0000
0100
0000
0010
0000
0001
0000
,
2000
0000
0000
0000
3001
0000
0000
0000
0001
1000
0010
0000
0100
0000
0010
1000
,
0001
0000
0010
0000
1000
0000
0100
1000
0010
0000
0001
0000
1000
0000
0010
0001
,
0100
0000
0010
1000
0001
0000
1000
0000
0010
0001
0100
0000
0010
0000
0000
0000
,
2010
0010
3010
0000
0102
0100
0103
0000
,
2020
0000
3030
0000
0202
0000
0303
0000
1001
0000
0000
0100
0010
0000
0001
0000
,
1000
0000
0010
0000
0100
1000
0000
0001
0100
0000
0001
0000
0100
1000
0010
0001
,
0100
0000
0010
0000
1000
0100
0000
0001
1000
0000
0010
0000
0100
1000
0001
0000
,
0100
0001
0010
0000
0100
0001
1000
0000
0100
0010
1000
0000
0100
0010
0100
1000
,
0002
0010
0100
1003
,
1010
0000
1010
0000
0000
0000
0100
0000
0001
1000
0100
0000
0010
0000
1000
0000
,
0010
0100
1000
0000
0001
0010
0100
0000
0001
0010
0100
0000
1000
0000
0010
0000
,
0101
0000
0101
0000
0000
0000
0010
0000
0001
1000
0010
0000
0001
0010
0100
0000
,
0001
1000
0010
0000
0100
0000
0010
0000
0001
1000
0100
0010
0001
0000
1000
0000
,
0110
0000
0110
0000
0000
0000
0010
0000
0001
1000
0100
0000
0010
0000
1000
0001
,
0100
0000
1000
0000
0001
0000
0010
0000
0001
0100
1000
0001
0010
0000
1000
0000
,
0202
0303
0202
0303
,
0100
0000
0010
0000
0001
1000
0010
0000
0001
1000
0010
0000
0100
1000
0010
0000
,
2002
0000
0000
0000
,
0000
0000
0000
3003
,
2020
0000
3030
0100
,
0202
0000
0303
0010
,
2010
0010
3010
0000
0201
0001
0301
0000
,
1001
0000
0000
0000
0110
0000
0000
0000
0001
0000
0010
1000
0200
0000
0001
0000
,
1300
0000
0010
0100
0000
0010
0100
0000
0001
0000
0010
0000
0011
0000
1000
0000
,
0001
0000
0010
0100
0000
0010
0100
0000
1000
0000
0010
1000
0000
0010
1000
0000
,
0001
0000
1000
0010
0000
0010
1000
0000
0001
0000
0010
0100
0000
0100
0010
0000
,
0001
0000
0000
0100
0001
0000
1000
0000
0010
0100
0010
0100
0010
0000
0010
0100
,
0002
0000
0000
0000
0103
0000
1000
0000
0010
0100
0010
0100
0010
0000
0010
0100
,
2000
0000
0000
0100
0000
0000
0001
0000
3010
0100
0010
0100
0010
0001
1000
0010
,
0200
0010
0301
0000
0200
1000
1300
0000
,
0110
0000
0000
0000
0101
0000
0000
0000
1010
0000
0001
0010
0001
0010
0100
0000
,
0001
0000
1000
0100
0010
0000
1000
0001
0100
0000
0001
0100
0001
0010
0100
0000
,
1000
0010
0000
0010
0100
0000
0001
0000
0010
0100
0000
0100
1000
0000
0010
0000
,
0100
0001
0000
0100
0001
0000
1000
0000
0001
0010
0000
0001
0010
0000
1000
0000
,
0100
0010
0000
0001
1000
0000
0010
0000
0100
0000
1001
0000
0100
0010
1000
0000
,
0001
0100
0000
1000
0001
0000
1000
0000
0100
0010
0000
1000
0001
0000
0100
0000
,
0010
0100
0000
0001
1000
0000
0001
0000
1000
0010
0000
1000
0001
0000
0100
0000
,
0001
0010
0100
0000
0010
0100
1000
0000
0010
0001
1000
0100
0001
1000
0001
1000
,
0020
0000
0000
1030
,
2002
0000
0000
0000
,
0000
0000
0000
0000
,
0000
0000
0000
0000
,
3003
0000
0000
0000
;
