
//----- song ID: ba2t -----//
#TITLE:Back 2 the Future;
#ARTIST:NAMCO Sound Team "羽田智之";
#ARTISTTRANSLIT:NAMCO Sound Team "Tomoyuki Haneda";
#GENRE:ナムコオリジナル;
#MUSIC:Back 2 the Future.ogg;
#BANNER:Back 2 the Future.png;
#BACKGROUND:Back 2 the Future-bg.png;
#CDTITLE:./CDTitles/NSD A3.png;
#SAMPLESTART:84.742;
#SAMPLELENGTH:15.000;
#SELECTABLE:YES;
#OFFSET:0.000;
#BPMS:0.000=160.000
,60.000=40.000
,61.000=160.000
;
#STOPS:;
#BGCHANGES:;
#FGCHANGES:;

//--------------- dance-single - ----------------
#NOTES:
     dance-single:
     :
     Beginner:
     5:
     0,0,0,0,0:
0000
0000
0000
0000
,
0000
0000
0000
0000
,
0000
0000
0000
0000
,
0000
0000
0000
0000
,
0000
0000
0000
0000
,
0000
0000
0000
0000
,
0000
0000
0000
0000
,
0000
0000
0000
0000
,
0010
0000
1000
0000
,
0001
0000
0000
0000
,
0100
0000
1000
0000
,
0001
0000
0000
0000
,
0100
0000
1000
0000
,
0001
0000
0100
0000
,
0010
0000
1000
0001
,
0100
1000
0001
0100
,
0000
0010
0100
0001
,
0000
1000
0001
0100
,
0000
0010
0001
0100
,
0000
1000
0001
0100
,
0010
1000
0000
0010
,
0000
0100
0000
1000
,
0001
0100
0000
1000
,
0000
0001
0100
0000
,
0010
0100
0000
1000
,
0000
0001
0000
0010
,
0100
0000
0011
0000
,
1000
0000
0001
0000
,
1100
0000
0010
0000
,
0100
0001
0000
1000
,
0000
0010
0000
0100
,
1000
0000
0001
0000
,
0010
0000
0100
0010
,
0000
1000
0000
0001
,
0000
0100
0000
0010
,
0000
1000
0000
0001
,
0100
1000
0000
0001
,
0000
0100
0000
0010
,
0000
1000
0000
0001
,
0000
0100
0010
1000
,
0000
0001
0000
0100
,
0000
0010
0000
0100
,
0000
0010
0000
0001
,
0010
0200
0000
0000
,
0000
0000
0300
2000
,
0000
0000
0000
0000
,
3000
0002
0000
0000
,
0000
0000
0003
0020
,
0000
0000
0000
0000
,
0000
0130
1000
0001
,
0000
0010
0100
1000
,
0000
0001
1000
0001
,
0000
0100
0000
0010
,
0000
1000
0000
0001
,
0000
0010
0100
1000
,
0001
0000
0000
1001
,
0000
0100
0000
0010
,
0000
1000
0000
0001
,
0000
0010
0000
0100
,
0000
1000
0000
0001
,
0000
0010
0000
1000
,
0000
0001
0100
0010
,
0000
1000
0000
0001
,
0000
0010
0000
0100
,
0000
0010
0000
1000
,
0000
0001
0000
0100
,
0000
0010
0000
0100
,
0000
0001
0000
1000
,
0000
0001
0000
0010
,
0000
0100
0000
1000
,
0001
0100
0010
1000
,
0000
0001
0000
0100
,
0010
1000
0000
0000
,
0001
1000
0001
0100
,
0010
0100
0000
1000
,
0001
0100
0000
0010
,
0000
0100
0000
1000
,
0001
0100
0010
0000
,
1000
0001
0100
1000
,
0001
0100
0010
1000
,
0000
0000
0001
0000
,
0000
0100
0000
0000
,
0010
0000
0000
1000
,
0000
0000
0001
0000
,
0100
0000
0000
0010
,
0000
0000
0100
0000
,
1000
0000
0001
0000
,
0010
0000
0100
0000
,
1000
0000
0001
0000
,
0010
0000
0100
0000
;

//--------------- dance-single - ----------------
#NOTES:
     dance-single:
     :
     Easy:
     7:
     0,0,0,0,0:
0000
0000
0000
0000
,
0000
0000
0000
0000
,
0000
0000
0000
0000
,
0000
0000
0000
0000
,
0000
0000
0000
0000
,
0000
0000
0000
0000
,
0000
0000
0000
0000
,
0000
0000
0000
0000
,
1000
0001
0100
0000
,
0010
1000
0001
0000
,
0100
0001
0010
0000
,
1000
0001
0100
0000
,
1000
0000
0001
0000
,
0100
0000
1000
0001
,
0100
0010
1000
0001
,
0100
1000
0001
0100
,
0010
1000
0001
0100
,
0010
0001
1000
0001
,
0100
0010
1000
0001
,
0100
0010
1000
0001
,
0100
0010
0001
1000
,
0001
0100
0010
1000
,
2001
3100
0010
1000
,
0001
0100
0010
0001
,
1000
0001
0100
0010
,
0001
0010
0100
1000
,
0001
0100
0010
1000
,
0001
0100
0010
1000
,
0001
0100
0010
0001
,
0010
0000
0100
0000
1000
0001
0010
0000
,
0100
0000
1000
0001
,
0010
0000
0100
0001
1000
0000
0001
0000
,
0000
0100
1000
0001
,
0100
0001
0010
0000
1000
0000
0000
0000
,
0000
0001
0100
0010
,
1000
0100
0001
0000
0100
0000
0010
0000
,
1000
0000
0010
0000
0001
0100
1000
0000
,
0001
0000
1000
0001
,
0100
1000
0001
0100
,
0000
0000
0010
1000
,
0001
0100
0010
0000
,
1000
0001
0100
0010
,
0001
0010
0000
0000
,
1000
2002
0000
0000
,
0000
3003
0000
0020
,
0000
0000
0030
0000
,
0000
2000
0000
0000
,
0000
3000
0000
0002
,
0000
0000
0000
0003
,
0000
0110
0000
0001
,
0000
1000
0001
0100
,
0000
1000
0000
0001
,
0010
1000
0001
0000
0100
0000
1000
0000
,
0001
0100
0010
1000
,
0001
0100
0010
0001
,
0200
0020
0330
1001
,
0100
0001
0001
0010
,
0001
1000
0010
0100
,
0001
0010
0001
0100
,
0001
1000
0100
1000
,
0010
0100
0010
1000
,
0010
1000
0100
1000
,
0100
0010
0001
0010
,
0001
1000
0010
0100
,
0001
1000
0001
1000
,
0100
0010
0001
1000
,
0010
1000
0001
0100
,
0001
0100
0010
1000
,
0010
1000
0100
1000
,
0100
0010
0100
1000
,
0010
0100
0001
1000
,
0010
0100
0001
0010
,
0100
0010
0100
1000
,
0100
0010
0001
0100
,
0010
1000
0100
0010
,
0100
0010
0100
1000
,
0001
1000
0100
1000
,
0100
0010
0001
0010
,
0100
0010
0100
1000
,
0100
1000
0010
1000
,
0000
1000
0001
0000
0000
0000
0010
0100
,
1000
0001
0000
0000
,
1000
0001
0100
0000
0000
1000
0000
0000
,
0001
0000
0000
0000
1000
0001
0100
0000
,
0000
0000
0000
0000
0010
1000
0001
0000
,
0000
0000
0000
0000
0000
0000
1000
0001
,
0100
0000
0010
0100
1000
0000
0000
1000
,
0000
0000
0000
0000
0001
1000
0001
0000
,
0000
0100
0000
0010
,
1000
0000
0001
1000
0001
0000
0000
0000
;

//--------------- dance-single - ----------------
#NOTES:
     dance-single:
     :
     Medium:
     10:
     0,0,0,0,0:
0000
0000
0000
0000
,
0000
0000
0000
0000
,
0000
0000
0000
0000
,
0000
0000
0000
0000
,
0000
0000
0000
0000
,
0000
0000
0000
0000
,
0000
0000
0000
0000
,
0000
0000
0000
0000
,
0001
0000
1000
0000
0010
0001
0000
0000
,
0100
0000
0001
0010
1000
0001
1000
0000
,
0010
0000
1000
0001
0100
0000
0000
1000
,
0001
0100
1000
0100
0010
0000
0000
0000
,
0001
0000
0000
0001
1000
0000
0000
1000
,
0010
0001
1000
0000
0001
0000
1000
0000
,
0010
0000
0100
0010
0001
0010
1000
0001
,
0000
0000
0001
0100
1000
0000
0010
1000
,
0100
0001
1000
0010
,
0100
0001
1000
0000
0001
0010
1000
0000
,
0010
0001
0100
1000
0001
0010
1000
0100
,
0010
0000
0100
0000
0001
0010
1000
0000
,
0010
0000
0100
0001
1000
0000
0001
0000
,
1000
0100
0010
0000
0100
0010
0001
0000
,
1000
0100
0010
0001
0100
0000
0001
0000
,
1000
0000
0010
1000
0100
0000
1000
0000
,
0001
0010
1000
0000
0010
0000
0100
0001
,
1000
0000
0100
0000
0010
1000
0001
0010
,
1000
0000
0010
0000
0100
0010
0001
0000
,
1000
0000
0010
0001
0100
1000
0001
0000
,
1000
0000
0010
0000
0100
0001
1000
1000
,
0100
0000
0010
0000
0001
1000
0100
0000
,
0010
0000
0000
0100
0001
0000
1000
0001
,
0100
0000
0010
1000
0001
0000
1000
0000
,
0000
1000
0010
0000
0001
0000
1000
0000
,
0010
1000
0100
0010
0001
0000
0000
0001
,
0100
0010
1000
0001
0010
0000
0100
0000
,
0001
0010
1000
0100
0010
0000
0100
0000
,
0001
0010
0100
0000
1000
0010
0001
0000
,
1000
0010
0001
1000
,
0010
0001
1000
0010
,
0100
0001
0100
0001
,
1000
0010
0100
1000
,
0001
1000
0010
0100
,
1000
0100
0001
1000
,
0001
2002
0000
0000
,
0000
3003
0000
0200
,
0000
0000
0300
0000
,
0000
0002
0000
0000
,
0000
0003
0000
2000
,
0000
0000
0000
3000
,
0000
0110
0000
1000
,
0000
0001
1000
0010
,
0000
0001
0000
1000
,
0100
0001
1000
0000
0010
0000
0001
0000
,
1000
0010
0100
0001
,
1000
0010
0100
1000
,
0020
0200
0330
1001
,
0100
0000
1000
0001
0010
0000
1000
0000
,
0100
0001
1000
0000
0001
1000
0100
0001
,
0010
1000
0100
1010
,
0101
0000
0010
1000
0100
0000
0010
0000
,
0001
0010
0100
0000
0001
0000
1000
0000
,
0100
0000
0010
1000
0001
0100
0010
0000
,
0001
0000
0100
1000
0001
0000
0010
0000
,
0100
0001
0010
0000
0100
0000
0010
1000
,
0001
0000
0100
0000
0010
0001
1000
0000
,
0100
0000
1000
0010
0001
0000
0010
0000
,
0001
0010
0100
0000
0010
0000
1000
0100
,
0010
0000
0100
0000
0001
1000
0100
0000
,
0010
0000
1000
0001
0100
0000
0010
0000
,
0100
0000
1000
0010
0001
0000
0100
0000
,
0010
0100
1000
0000
0100
0000
1000
0001
,
0010
1000
0001
0100
,
0001
0100
1000
0000
0100
0000
1000
0001
,
0100
0000
1000
0100
0010
0001
0100
0000
,
0010
0000
1000
0000
0001
1000
0010
0000
,
0100
0000
0010
0001
0100
0000
1000
0000
,
0010
0001
0100
0000
0001
0000
0010
1000
,
0100
0000
0010
0001
0100
0000
1000
0010
,
0010
0000
1000
0001
0100
0000
1000
0001
,
0100
0000
0010
1000
0001
0100
1000
0000
,
0001
0100
0010
0000
0000
0010
1000
0010
,
0001
0000
0100
0000
1000
0000
0000
0001
0000
0000
0000
0010
0000
0000
1000
0000
,
0001
0000
0100
0000
0010
0000
1000
0000
0000
0000
0001
0000
0000
0010
0000
0000
,
1000
0000
0000
0001
0000
0010
0000
0000
1000
0000
0001
0000
1000
0000
0000
0000
,
0010
0000
0000
0100
0000
0000
0000
0001
1000
0000
0010
0000
0100
0000
1000
0000
,
0000
0000
0001
0000
0100
0000
0000
1000
0000
0000
0001
0000
0100
0000
1000
0000
,
0001
0000
0100
0000
0010
0000
1000
0000
0001
0000
0000
0010
0000
0000
1000
0000
,
0010
0000
0000
0001
1000
0000
0000
0000
0010
0000
0100
0000
0001
0000
0010
0000
,
0000
0000
0000
0000
0001
0000
0000
0000
0000
1000
0000
0000
0001
0000
0000
0000
,
0100
0000
0010
0001
2000
0000
0000
0000
,
3000
0000
0000
0000
;

//--------------- dance-single - ----------------
#NOTES:
     dance-single:
     :
     Hard:
     15:
     0,0,0,0,0:
0000
0000
0000
0000
,
0000
0000
0000
0000
,
0000
0000
0000
0000
,
0000
0000
0000
0000
,
0000
0000
0000
0000
,
0000
0000
0000
0000
,
0000
0000
0000
0000
,
0000
0000
0000
0000
,
1000
0000
0001
0000
0000
0100
0000
0000
,
1000
0000
0000
0001
1000
0001
0100
0000
,
0010
0000
0000
1000
0000
0000
0100
0001
,
0000
0010
1000
0001
0110
0000
1000
0000
,
0000
0001
0000
0010
0000
0000
0100
1000
,
0001
0100
0010
0000
1000
0000
0010
0000
,
0001
0000
1000
0001
0100
0010
0100
1000
,
0000
0000
0000
0000
0100
0000
0010
0000
0001
1000
0010
0000
0001
0000
0100
0000
,
0001
0000
0100
0000
0010
0000
0100
0000
0010
0001
1000
0000
0001
0010
0100
0000
,
0010
0000
1000
0000
0100
0000
0010
1000
0001
0000
0010
0000
0001
0000
0100
1000
,
0001
0000
0100
0000
0010
0000
0100
1000
0001
0000
0010
0000
0001
0000
0100
0010
,
0001
1000
0010
0000
0100
0000
1000
0000
0001
0100
1000
0000
0010
0000
0100
0000
,
0001
0010
0100
0000
0001
1000
0100
0000
0010
0000
1000
0001
0010
0000
0100
1000
,
0010
0001
0100
0000
0001
0000
0100
0000
0001
0010
1000
0010
0100
0000
1000
0000
,
0001
0100
1000
0001
0100
0000
0010
0000
0100
1000
0010
0000
0100
0000
1000
0001
,
0010
0000
1000
0000
0100
1000
0010
0100
0001
0000
0010
0000
0100
0000
0010
0001
,
0100
0000
1000
0000
0001
0010
0100
1000
0001
0000
0100
1000
0010
0000
1000
0000
,
0010
0001
1000
0001
0100
0000
1000
0000
0100
0001
0010
0000
0100
0000
0000
0100
,
0010
0000
1000
0001
0010
0000
0100
0000
0001
0000
0100
0000
0001
0000
0000
1000
,
0010
0000
1000
0000
0001
0000
0100
0000
0010
0000
0100
0000
0001
0000
0000
1000
,
0100
0000
0010
0000
0001
0000
0100
1000
0001
0000
0100
0000
0001
0000
1000
0000
,
0001
0200
0320
0000
0032
2003
3002
0023
,
0230
0000
0301
0010
0100
1000
0100
0010
,
0002
0000
1003
0100
1000
0001
0100
0010
,
1000
0100
0002
0000
1003
0100
2000
0000
,
3100
0001
0010
0100
2000
0000
0010
3100
,
0001
0010
1000
0001
0200
0000
0310
1000
,
0001
0000
0100
0000
2000
0000
0000
0000
3001
0000
0000
0010
1000
0000
0100
0000
,
0001
0000
0010
0100
0010
0000
0100
0000
0010
0000
0100
0000
0010
0000
1000
0000
,
0001
0010
0001
0100
0001
0010
0100
0010
,
0100
1000
0001
0010
0001
0100
0001
1000
,
0100
0000
1000
0000
0100
0000
1000
0000
0001
1000
0010
1000
0001
0000
0010
0000
,
0100
0000
0010
0000
0100
0000
1000
0000
0010
0000
1000
0000
0100
0001
0010
0001
,
0100
0010
0001
0010
0001
0100
0001
1000
,
0010
1000
0010
0100
0001
0010
0001
1000
,
0100
1000
0001
0100
0020
0000
0000
0000
0000
0000
0000
0000
0000
0000
0000
0000
,
2030
0000
0000
3002
,
0000
0000
0000
0203
,
0000
0320
0000
0000
,
2030
0000
0000
3002
,
0000
0000
0203
0000
,
0320
1030
1010
0001
,
0110
1000
0101
0100
,
0010
1001
0100
0011
,
0100
0001
1000
0000
0001
0000
0100
0000
,
0010
0000
1000
0000
0001
0000
0100
1000
,
0010
0001
0100
1000
0001
0100
1000
0001
,
0020
0200
0330
1001
,
0001
1000
0010
1000
0100
0001
0000
0100
,
1000
0100
0010
0001
0100
0001
0101
0000
,
0010
1000
0010
0100
0001
0100
0000
0010
,
1000
0100
1000
0010
0100
0001
0011
0000
,
0001
1000
0100
1000
0001
0100
0000
0010
,
1000
0100
1000
0001
0010
0001
0101
0000
,
0010
1000
0100
0001
0100
1000
0001
0010
,
1000
0000
0010
0000
0000
0000
1001
0000
0000
0010
1000
0000
0001
0000
0010
0000
,
0001
0100
1000
0000
0100
0001
0100
0010
,
1000
0000
0100
0000
1000
0000
0100
0000
0001
0100
0010
0000
0001
0000
0010
0000
,
0100
1000
0100
0010
1000
0001
1000
0001
,
0000
0010
0000
0000
1000
0000
0010
0000
0000
0010
1000
0000
0001
0000
0100
0000
,
0001
1000
0100
0000
0010
0001
0100
0001
,
1000
0000
0010
0000
1000
0000
0100
0000
0000
0100
0010
0000
0001
0000
0100
0000
,
1000
0100
0001
1000
0001
0010
1000
0010
,
0001
0000
1000
0000
0001
1000
0001
0000
1000
0000
0001
0000
0100
0000
0000
0000
,
1000
0001
0010
0100
1000
0001
0100
1000
,
0010
0000
0000
0001
1000
0001
0100
0000
0010
1000
0000
0001
0100
0000
1000
0000
,
0010
1000
0001
0100
1000
0001
0100
0010
,
0100
1000
0001
0010
0100
0001
0010
0100
,
1000
0000
0001
0000
0010
0100
0001
0010
,
0100
1000
0001
0010
0100
0001
0010
0100
,
1000
0001
0010
0100
1000
0001
0010
0100
,
0001
1000
0010
0000
0100
0001
1000
0000
0001
0010
0100
0000
1000
0000
0000
0000
,
0001
0010
0100
0000
0000
0100
1000
0100
,
0001
0000
0010
0000
1000
0000
0000
0001
0000
0000
0000
0100
0000
0000
1000
0000
,
0001
0000
0010
0000
0100
0000
1000
0000
0000
0000
0001
0000
0000
0100
0000
0000
,
1000
0000
0000
0001
0000
0100
0000
0000
1000
0000
0001
0000
1000
0000
0000
0000
,
0100
0000
0000
0010
0000
0000
0000
0001
1000
0000
0100
0000
0010
0000
1000
0000
,
0000
0000
0001
0000
0010
0000
0000
1000
0000
0000
0001
0000
0010
0000
1000
0000
,
0001
0000
0010
0000
0100
0000
1000
0000
0001
0000
0000
0100
0000
0000
1000
0000
,
0100
0000
0000
0001
1000
0000
0000
0000
0100
0000
0010
0000
0001
0000
0100
0000
,
0000
0000
0000
0000
0001
0000
0000
0000
0000
1000
0000
0000
0001
0000
0000
0000
,
0010
0000
0100
0001
2000
0000
0000
0000
,
3000
0000
0000
0000
;
