
//----- song ID: rope -----//
#TITLE:Astro Pops;
#ARTIST:Aethral & S2 -heart- feat. Nanoha。;
#GENRE:けものフレンズ;
#MUSIC:Astro Pops.ogg;
#BANNER:Astro Pops.png;
#BACKGROUND:Astro Pops-bg.png;
#CDTITLE:./CDTitles/NSD A3.png;
#SAMPLESTART:53.182;
#SAMPLELENGTH:15.000;
#SELECTABLE:YES;
#OFFSET:0.000;
#BPMS:0.000=185.000;
#STOPS:;
#BGCHANGES:;
#FGCHANGES:;

//--------------- dance-single - ----------------
#NOTES:
     dance-single:
     :
     Beginner:
     4:
     0,0,0,0,0:
0000
0000
0000
0000
,
0000
0000
0000
0000
,
0000
0000
0000
0000
,
0000
0000
0000
0000
,
0000
0000
0000
0000
,
0000
0000
0000
0000
,
0100
0000
1000
0000
,
0001
0000
0010
0000
,
1000
0100
0010
0001
,
0010
0000
0000
0000
,
1001
0000
0000
0000
,
0100
0000
0010
0000
,
0100
0000
0000
0000
,
0001
0000
0010
0100
,
1000
0000
0001
0000
,
0010
0000
0100
0000
,
0001
0000
1000
0000
,
0001
0000
0000
0000
,
1001
0000
0100
0000
,
0010
0000
0001
0000
,
0010
0000
0100
0000
,
1000
0000
0001
0000
,
0010
0000
1000
0000
,
0001
0000
0010
0000
,
1000
0000
0001
0000
,
0000
0000
0000
0000
,
1001
0000
0000
0000
,
0100
0000
0010
0000
,
1000
0000
0000
0000
,
0001
0000
0010
0000
,
0100
0000
0000
1001
0000
0000
0220
0000
,
0000
0000
0330
0000
,
0101
0000
0000
1010
0000
0000
0220
0000
,
0000
0000
0000
0330
,
1000
0000
1000
0000
,
1000
0000
0000
0000
,
0001
0000
0001
0000
,
0001
0000
0000
0000
,
0010
0000
1000
0000
,
0001
0000
0010
0000
,
1000
0100
0010
0001
,
1001
0000
0000
0000
,
0010
0100
1000
0000
,
0001
0000
0100
0000
,
0001
0010
0100
0000
,
1000
0000
0001
0100
,
0010
0000
1000
0000
,
0001
0010
0100
0000
,
1000
0000
0000
0000
0001
0000
0000
0110
,
0000
0000
0000
0000
,
2000
3001
0000
0010
,
0000
0100
1000
0001
,
0100
0000
0010
0000
,
0001
0000
0010
0100
,
1000
0000
0001
0000
,
0010
0000
0100
0000
,
1000
0000
0000
0000
0001
0000
0000
2002
,
0000
0000
0000
3003
,
0110
0000
0000
0000
,
1000
0000
0000
0000
,
0001
0000
0000
0000
,
0100
0000
0000
0000
,
1000
0000
0100
0000
,
0010
0000
0000
0000
,
0001
0000
0010
0000
,
0100
0000
0000
0000
,
1001
0000
0000
0000
,
0100
0000
0010
0001
,
0010
0000
0000
0000
,
1000
0000
0001
0010
,
0100
0000
1000
0000
,
0001
0000
0000
0000
,
0010
0000
0100
0000
,
0001
0000
0000
0000
,
1001
0000
0100
0000
,
0010
0000
0001
0000
,
0010
0000
0100
0000
,
1000
0000
0001
0000
,
0010
0000
0100
0000
,
1000
0000
0001
0000
,
1000
0100
0010
0001
,
1001
0000
0000
0000
,
0110
0000
1000
0000
,
0001
0000
0010
0100
,
1000
0000
0001
0000
,
0010
0100
1000
0000
,
1001
0000
0100
0000
,
0010
0001
0010
0000
,
0100
0000
1000
0000
,
0001
0000
0100
1000
,
0002
1003
0000
0010
,
0000
0100
0000
1000
,
0001
0100
0000
0010
,
0000
1000
0001
0100
,
0010
0000
1000
0000
,
0001
0000
0100
0000
,
0001
0010
0100
0000
,
1000
0000
0001
0000
,
1001
0000
0000
0000
;

//--------------- dance-single - ----------------
#NOTES:
     dance-single:
     :
     Easy:
     8:
     0,0,0,0,0:
0000
0000
0000
0000
,
0000
0000
0000
0000
,
0000
0000
0000
0000
,
0000
0000
0000
0000
,
0000
0000
0000
0000
,
0000
0000
0000
0000
,
1000
0001
0100
0000
,
1000
0001
0100
0000
,
1000
0001
0100
0010
,
2002
0000
0000
3003
,
1001
0010
0100
1000
,
0001
0100
0010
1000
,
0000
0001
0100
0000
,
0010
1000
0001
0100
,
0000
0010
0100
0000
,
1000
0001
0100
0010
,
1000
0001
0100
0010
,
0100
0000
0000
0000
,
1001
0100
0010
0000
,
1000
0001
0100
0010
,
0000
0001
0001
0000
,
0001
0100
1000
0001
,
0100
0010
0100
0000
,
1000
0001
0100
0000
,
2002
0000
0000
0000
,
0000
0000
3003
0000
,
1000
0001
0010
0000
,
0100
1000
0101
0000
,
0100
1000
0001
0000
,
0100
0000
1010
0000
,
0100
0000
0000
0001
0000
0000
2002
0000
,
0000
0000
3003
0000
,
0110
0000
0000
1001
0000
0000
2002
0000
,
0000
0000
0000
3003
,
0010
0000
1000
0000
,
0001
0010
0100
0000
,
1000
0000
0001
0000
,
0010
0100
1000
0000
,
0001
0000
0010
0000
,
1000
0000
0001
0000
,
0010
0000
1000
0000
0001
0010
0100
1000
,
0001
0000
0000
0000
,
1001
0100
1000
0001
,
0000
0100
0000
0010
,
0000
0100
1000
0001
,
0100
0000
0010
0100
,
0010
1000
0000
0001
,
0000
0100
0010
0001
,
1000
0000
0000
0000
0001
0000
0000
2000
,
0000
0000
3001
0000
,
0200
1300
0010
0100
,
0000
1000
0000
0001
,
0000
0010
0100
1000
,
0001
0000
0100
0100
,
0010
0000
0100
0000
,
1000
0000
0001
0000
,
1000
0000
0100
0000
0010
0000
0001
0200
,
0000
0000
0000
0000
,
0310
0000
1000
0000
,
0001
0000
0010
0100
,
0000
1000
0001
0000
,
0010
0000
0100
1000
,
0001
0000
0100
0000
,
0010
0000
1000
0000
,
0001
0000
0000
0010
0000
0000
0220
0000
,
0000
0000
0000
0000
0000
0330
0000
0000
,
1000
0100
0001
0010
,
0100
0000
1000
0001
,
0100
0000
0010
0100
,
1000
0002
2003
3020
,
0130
0000
1000
0000
,
0001
0000
0010
0000
,
0100
1000
0001
0000
,
0110
0000
1001
0000
,
0110
0000
0100
1000
,
0000
0010
0000
0100
,
0001
0000
0100
0000
,
1000
0002
0203
0320
,
1030
0100
0010
0001
,
1000
0001
0100
0010
,
1000
0001
0010
0100
1000
0000
0001
0010
,
0200
0000
0000
0310
,
0010
0000
0001
0000
0010
0000
0001
0000
1000
0010
0000
0010
0000
0000
0000
0000
,
1000
0000
0010
0000
1000
0000
0010
0000
0100
0001
0000
0001
0000
0000
0000
0000
,
0010
0001
0100
0010
1000
0100
0001
0100
,
1000
0010
0100
0001
0001
0000
1001
0000
,
0100
0000
1000
0000
0100
0000
1000
0000
0010
0100
0000
0100
0000
0000
0000
0000
,
0001
0000
0010
0000
0001
0000
0010
0000
0100
0010
0000
0010
0000
0000
0000
0000
,
0100
1000
0010
0100
0001
0100
1000
0100
,
0001
0010
0100
1000
1000
0000
1001
0000
,
0001
1000
0001
1000
0010
0100
0010
0000
,
1000
0100
1000
0000
0001
0100
0001
0000
,
0010
0100
0010
0100
1000
0001
1000
0000
,
0010
1000
0010
0000
0100
0001
0100
0000
,
0001
0001
0100
0100
,
1000
1000
0010
0010
,
1000
0100
0010
0100
0001
0100
1000
0000
,
0010
0100
0010
0100
0001
0000
0010
0000
,
2002
0000
0000
0000
,
0000
0000
0000
0000
,
3003
0000
0000
0000
;

//--------------- dance-single - ----------------
#NOTES:
     dance-single:
     :
     Medium:
     12:
     0,0,0,0,0:
0000
0000
0000
0000
,
0000
0000
0000
0000
,
0000
0000
0000
0000
,
0000
0000
0000
0000
,
0000
0000
0000
0000
,
0000
0000
0000
0000
,
0001
0100
1000
0001
,
0100
1000
0001
0100
,
1000
0001
0010
0100
1000
0001
0010
0100
,
2000
0000
0000
0000
,
3001
0000
0010
0000
0100
0000
0000
1000
,
0000
0001
0000
0010
0100
1000
0001
0000
,
0000
0000
0010
0000
0100
0000
0000
0001
,
0000
0100
1000
0001
0010
0100
1000
0100
,
0000
0000
0001
0000
0010
0000
0000
1000
,
0000
0001
0100
1000
0001
0010
0100
0000
,
1000
0000
0001
0000
0010
0100
0000
0002
,
0000
1003
0100
1000
,
2010
0000
0001
0000
0010
0000
0000
3001
,
0000
0010
1000
0001
0010
0100
1000
0000
,
0000
0000
1001
0000
0110
0000
0000
0001
,
0000
0010
1000
0001
0010
0100
1000
0000
,
0001
0000
0010
0100
0000
1000
0001
0010
,
0000
0100
1000
0000
0100
0000
1000
0000
,
0002
0000
0000
2000
0000
0000
0000
0000
,
0000
0000
3003
0000
,
1001
0000
0000
0000
1000
0000
0001
0000
1000
0010
0000
1000
0000
0000
0100
0000
,
0010
0000
0001
0000
1000
0000
0001
0000
0100
0001
0000
0010
0000
0000
0001
0000
,
1000
0000
0100
0000
0010
0000
0001
0000
0100
0010
0000
1000
0000
0000
0100
0000
,
0010
0100
1000
0100
0001
0100
1000
0000
,
1001
0000
0000
1100
0000
0000
2002
0000
,
0000
0000
3003
0000
,
0101
0000
0000
1010
0000
0000
2002
0000
,
3000
0000
0000
0000
0103
0000
1000
0000
0100
0010
0100
0010
0100
0000
1000
0000
,
0010
0001
1000
0001
2000
0000
0010
0000
,
0001
0001
0100
0001
,
3010
1000
0001
1000
0002
0000
0010
0000
,
1000
1000
0100
1000
,
0103
0001
0100
0001
0020
0000
0001
0000
,
0100
0100
1000
0100
,
1030
0000
0100
0000
0001
0000
0100
0000
0010
0000
1000
0000
0100
0010
0001
1000
,
0010
0000
0000
0000
,
1000
0000
1000
0000
0010
0100
0001
0000
,
1000
0001
1000
0000
0100
0010
0001
0010
,
1000
0000
1000
0000
0010
0100
0001
0100
,
1000
0010
0001
0000
1010
0000
0011
0000
,
1000
0100
1000
0000
0001
0010
0001
0000
,
1000
0000
0010
0000
0001
1000
0100
0001
,
1000
0100
1000
0000
0001
0010
0001
2002
,
0000
0000
0000
0000
3003
0000
0000
0000
0010
0000
0000
0001
0000
0000
1000
0000
,
0010
0000
1010
0000
0100
1000
0001
0000
,
0010
0000
0011
0000
0100
0001
1000
0010
,
0001
0101
1000
1100
,
0010
0001
0100
0000
1001
0000
0110
0000
,
1001
0000
0001
0000
0100
0010
1000
0000
,
0001
1000
0001
0000
0010
0100
1000
0100
,
0001
0000
0001
0000
0100
0010
1000
0220
,
0000
0000
0000
0330
,
2000
0100
0000
3100
,
0020
0001
0000
0031
,
0002
0100
0000
0103
,
0020
1000
0000
1030
,
0001
0000
0001
0000
0100
0010
1000
0000
,
0100
0000
0100
0000
0010
0001
1000
0000
,
0001
1000
0001
1000
0020
0000
0130
0000
,
0001
1000
0100
0000
0110
0000
1001
0000
,
2000
0000
3010
0100
0001
0000
1000
0100
,
0020
0000
0031
0000
1000
0000
0001
0100
,
0020
0000
1030
0001
0100
0000
0001
0000
,
0010
0000
0100
1000
0001
0000
2000
0000
,
3200
0302
0103
0010
,
2000
3002
0103
0010
,
1002
0000
0013
1000
0100
0000
0010
0100
,
2002
0000
0000
3003
,
0001
0000
0001
0000
0010
0001
0010
0000
,
0100
0000
0100
0000
1000
0100
1000
0000
,
0010
0100
0010
0000
0100
0001
0100
0000
,
0001
0010
0100
0010
0100
1000
0020
0000
,
1030
0000
1000
0000
0010
1000
0010
0000
,
0100
0000
0100
0000
0001
0100
0001
0000
,
0100
0010
0100
0010
1000
0100
0010
0100
,
0010
0100
0001
0100
,
0001
0100
0001
0000
1001
0000
0110
0000
,
1000
0100
1000
0000
1001
0000
0110
0000
,
0010
1000
0010
1000
0010
0000
0100
0001
,
0100
0001
0100
0000
0010
0010
0010
0000
,
1000
0100
0010
0000
0110
0000
1001
0000
,
0001
0100
0010
0000
0110
0000
1001
0000
,
0001
0100
0001
0100
0001
0000
1000
0100
,
1000
0000
0100
0000
1000
0000
0000
0000
0010
0000
0000
0100
0000
0000
0010
0000
,
2000
0000
3001
0000
0001
0100
1000
0000
,
0010
1000
0001
0000
0100
0001
1000
0000
,
0010
1000
0001
0000
0001
0100
0010
0000
,
0001
0010
1000
0000
1000
0100
0010
0000
,
0001
0000
1000
0000
0001
0100
0010
1000
,
0001
0000
1000
0000
0001
0100
0010
1000
,
0001
0000
0010
0000
0100
0000
0010
0100
,
0010
0100
1000
0000
0002
0000
0000
0000
,
2000
0000
0000
0000
,
0000
0000
0000
0000
,
3003
0000
0000
0000
;

//--------------- dance-single - ----------------
#NOTES:
     dance-single:
     :
     Hard:
     16:
     0,0,0,0,0:
0000
0000
0000
0000
,
0000
0000
0000
0000
,
0000
0000
0000
0000
,
0000
0000
0000
0000
,
0000
0000
0000
0000
,
0000
0000
0000
0000
,
0001
0010
0100
1000
0001
0010
0000
0101
,
0000
0010
0100
1000
0001
0010
0100
0000
,
1000
0001
0010
0100
0000
1001
0010
0100
,
0020
0000
0030
0100
,
1001
0100
0010
1000
,
0001
0010
0100
1000
0010
0000
0100
0000
,
0001
0000
0010
0000
0100
0000
1000
0010
,
0001
0000
0100
1000
0010
0001
0100
0000
,
1000
0001
0100
0010
,
0001
1000
0010
0001
0100
0010
1000
0000
,
0001
0000
0100
0000
0010
0000
0100
0001
,
1000
0000
0001
0000
0100
1000
0010
0000
,
0100
0000
0201
0000
0001
0000
0000
0301
,
0000
1000
0001
1000
0010
0100
0001
0000
,
1000
0000
0010
0000
1001
0000
0000
0001
,
0010
0000
0100
1000
0001
0010
0100
1000
,
0001
0100
0001
0000
0010
0100
0001
1000
,
0100
0010
0100
0001
1000
0010
0100
0001
,
2000
0000
0000
0002
0000
0000
0000
0000
,
0000
0000
3003
0000
,
0001
0010
0100
1000
0010
0100
0001
1000
,
0010
1000
1010
0001
0101
0010
0011
0000
,
1000
0000
0100
0000
0001
0000
0100
0000
0010
0000
0001
0000
1000
0000
0000
1000
,
0100
0000
0000
0100
0010
0000
0000
0010
0002
0000
1000
0000
1000
0000
1003
0000
,
0101
0000
0100
1001
0000
0001
0220
0000
,
0000
0000
0000
0000
0330
0000
0000
0001
,
1100
0000
0010
0101
0000
0100
2002
0000
,
0000
0000
0000
3003
,
0001
0000
0100
0000
0010
0000
1000
0000
0001
0100
0001
0000
0010
0000
0100
0000
,
1000
0000
0100
0000
0001
0000
0100
0000
1000
0000
0001
0000
0011
0000
0000
0001
,
1000
0000
0000
1000
0010
0000
0000
0010
0200
0000
0001
0000
0001
0000
0301
0000
,
0100
0000
0000
0100
0010
0000
0000
0010
2000
0000
0001
0000
0001
0000
3001
0000
,
1000
0100
0001
1000
0010
0001
1000
0002
,
2000
0000
0000
3003
,
0001
0010
0001
0010
0001
0010
0001
0010
0001
0010
0001
0010
0001
0010
0001
0010
,
0001
0000
0000
0000
,
1001
0000
0000
0000
0100
0000
0001
0000
0010
0001
1000
0001
0010
0000
0000
0000
,
0001
0000
0100
0000
0010
0000
1000
0000
0100
1000
0001
1000
0100
0000
0010
0000
,
1001
0001
1000
0100
0001
0100
1000
0001
,
0100
0000
0010
0000
1000
0000
0001
0000
0100
0010
1000
0010
0100
0000
0010
0000
,
1000
0000
0001
0000
0100
0000
0010
0000
1000
0001
0100
0001
1000
0000
0000
0000
,
0010
0000
1000
0000
0001
0000
1000
0000
0010
0100
0001
0100
0010
0000
0100
0000
,
0000
0001
0100
0010
1000
0100
0010
0011
,
0000
0000
1100
0000
1000
0000
0001
0010
0100
0000
0100
1000
0001
0000
0100
0000
,
0010
0000
0100
0001
1000
0000
0010
0000
0100
0000
0001
0000
0010
0001
1000
0001
,
0010
0000
0000
0000
0001
0000
0100
0000
0010
0000
1000
0000
0100
1000
0001
1000
,
0100
0010
0000
0001
1000
0100
0001
0100
,
1000
0000
0001
0000
0100
0000
0010
0000
1000
0000
0001
0000
0100
0010
1000
0010
,
0100
0000
0010
0000
1000
0000
0001
0000
0100
0000
0010
0000
1000
0001
0100
0001
,
1000
0000
0000
0000
0010
0000
1000
0000
0001
0000
1000
0000
0010
0100
0001
0100
,
0010
0100
0000
0001
0100
0010
1000
0120
,
0000
0000
0000
0000
0000
0000
0000
0000
0000
0000
0000
0000
0130
0000
0001
0100
,
2000
0000
0000
0000
0000
0000
0000
0000
0100
0000
0000
0010
0000
0000
0002
0000
,
0000
0000
3000
0013
,
0002
0000
0000
0000
0000
0000
0000
0000
0100
0000
0000
0010
0000
0000
2000
0000
,
0000
0003
3020
0130
,
0010
0000
1000
0000
0001
0000
1000
0100
0000
0010
0000
0001
0000
0000
0000
0000
,
1000
0000
0100
0000
0010
0000
0001
0100
0000
0010
0000
1000
0000
0000
0000
0000
,
0010
0100
0001
1000
0100
0010
0001
1000
,
0001
0100
0010
1000
0110
0000
1001
0100
,
1000
0100
1000
0000
0100
0000
0010
0100
0010
0000
0001
0000
1001
0000
1000
0000
,
0001
0100
0001
0000
0100
0000
0010
0000
1000
0000
0001
0100
0001
0000
1000
0000
,
0001
0010
0001
0000
0010
0000
0100
1000
0100
0000
1000
0000
1001
0000
0001
0000
,
0100
0010
0100
0000
1000
0000
0000
0000
0020
0000
0000
0000
0230
0000
0000
0000
,
1300
0010
1000
0000
0001
0000
0010
0100
0010
0000
0001
0000
1000
0001
1000
0000
,
0010
0000
0100
0001
0100
0000
0010
0000
0021
0000
0000
0000
1030
0000
0000
0000
,
0001
0010
0001
0000
0010
0000
0100
0010
0100
0000
1000
0000
1001
0000
0001
0000
,
1000
0010
1000
0000
0010
0000
0100
0000
0001
0000
1000
0010
1000
0000
0001
0000
,
1000
0100
1000
0000
0100
0000
0010
0001
0010
0000
0001
0000
1001
0000
1000
0000
,
0010
0100
0010
0000
0001
0000
0000
0000
0200
0000
0000
0000
0320
0000
0000
0000
,
0031
0100
0001
0000
1000
0000
0100
0010
0100
0000
1000
0000
0001
1000
0001
0000
,
0100
0000
0010
1000
0010
0000
0100
0000
1200
0000
0000
0000
0320
0000
0000
0000
,
1030
0100
1000
0000
0100
0000
0010
0100
0010
0000
0001
0000
1001
0000
1000
0000
,
0001
0100
0001
0000
0100
0000
0010
0000
1000
0000
0001
0100
0001
0000
1000
0000
,
0001
0100
0001
0100
0001
0100
0001
0100
0001
0100
0001
0100
0001
0100
0001
0100
,
0001
1001
0220
0330
,
0110
0000
1000
1000
0010
1000
0001
0100
,
0001
0100
0001
0000
0100
0010
0100
0000
0010
0000
1000
0000
0101
0000
0000
0000
,
1100
0000
0100
0100
1000
0100
0001
0100
,
0001
0100
0001
0000
0010
0000
0100
0000
1000
0001
0100
0000
0010
0000
0100
0000
,
1001
0000
0010
0010
1000
0001
0100
0010
,
1000
0010
1000
0000
0100
0010
0100
0000
0010
0000
0001
0000
1100
0000
0000
0000
,
0101
0000
0010
0010
0001
0100
1000
0100
,
0001
0000
0001
0000
0010
0100
0010
0000
0100
0000
0000
0110
0000
0000
0110
0000
,
1001
0000
0000
0000
1000
0001
0100
0000
0001
1000
0100
0000
0010
0000
0100
0000
,
0010
0100
1000
0000
0010
0100
0001
0000
0010
0000
0001
0000
1000
0000
0010
0000
,
0001
0000
0001
0000
1000
0001
0010
0000
0001
1000
0010
0000
1000
0000
0010
0000
,
1000
0001
0100
0000
1000
0000
0001
0000
1000
0001
0100
0000
0010
0000
0100
0000
,
1001
0000
0000
0000
0010
0100
0010
0000
1000
0100
1000
0000
0100
0000
0010
0000
,
0001
0100
0001
0000
0100
0010
0100
0000
0010
0000
1000
0000
0001
0000
0000
0000
,
0010
0000
0001
0100
1000
0000
0010
0000
1000
0000
0001
0000
0100
0000
0001
0000
,
1000
0001
0100
0000
0001
0000
0001
0000
1000
0001
0010
0000
0110
0000
0000
0000
,
2002
0000
0000
0000
,
0000
0000
0000
0000
,
3003
0000
0000
0000
;
