
//----- song ID: auroch -----//
#TITLE:Arouser;
#ARTIST:Masahiro "Godspeed" Aoki feat. Bruno Valverde;
#GENRE:ミュージックガンガン;
#MUSIC:Arouser.ogg;
#BANNER:Arouser.png;
#BACKGROUND:Arouser-bg.png;
#CDTITLE:./CDTitles/Music Gun Gun 3 -Shoot Away!-.png;
#SAMPLESTART:77.077;
#SAMPLELENGTH:15.000;
#SELECTABLE:YES;
#OFFSET:0.000;
#BPMS:0.000=130.000
,36.000=260.000
,164.000=130.000
,188.000=260.000
,468.000=130.000
;
#STOPS:;
#BGCHANGES:;
#FGCHANGES:;

//--------------- dance-single - ----------------
#NOTES:
     dance-single:
     :
     Beginner:
     6:
     0,0,0,0,0:
0000
0000
0000
0000
,
0000
0000
0000
0000
,
0000
0000
0000
0000
,
0000
0000
0000
0000
,
0000
0000
0000
0000
,
1000
0000
0100
0000
,
0001
0000
0010
0000
,
0100
0000
0000
0010
0000
0000
0001
0000
0000
1000
0000
0000
0220
0000
0000
0000
,
0000
0000
0330
0000
,
1000
0000
0001
0000
,
0010
0000
0100
0000
,
1000
0000
0001
0100
,
1000
0000
0001
0000
,
0010
0000
0100
0000
,
0001
0000
0010
0000
,
0100
0000
0001
0000
,
1000
0001
0100
0000
,
0010
0000
0100
0000
,
1000
0000
0001
0000
,
0100
0000
0010
0000
,
1000
0001
0100
0000
,
0010
0000
0100
0000
,
1000
0000
0001
0000
,
0100
0000
0010
0000
,
1000
0001
0100
0000
,
0010
0000
0000
0000
,
0100
0000
0000
0000
,
1000
0000
0100
0000
,
0010
0000
0001
0000
,
0010
0000
0000
0000
,
0100
0000
0000
0000
,
0001
0000
0010
0000
,
0100
0000
1000
0000
,
0001
0000
0000
0000
,
0010
0000
0000
0000
,
1000
0000
0100
0000
,
0010
0000
0000
0000
,
0001
0000
0000
0000
,
0010
0000
0000
0000
,
0100
0000
1000
0000
,
0001
0000
0100
0000
,
0010
0000
0100
0000
,
1000
0000
0001
0000
,
0010
0000
0100
0000
,
1000
0000
0100
0000
,
0010
0000
0001
0000
,
0010
0100
1000
0001
,
1000
0000
0001
0000
,
0100
0000
0010
0000
,
0100
0000
1000
0000
,
0001
0000
0010
0000
,
0100
0000
0010
0000
,
1000
0000
0001
0000
,
0100
0000
0010
0000
,
0001
0000
0010
0000
,
0100
0000
1000
0000
,
0001
0000
0100
0000
,
0010
0000
0100
0000
,
1000
0000
0001
0000
,
0010
0000
0100
0000
,
1000
0000
0001
0000
,
0010
0100
1000
0000
,
0001
0100
0001
0000
,
1000
0000
0001
0000
,
0100
0000
0010
0000
,
0100
0000
0000
0000
,
1000
0000
0000
0000
,
0001
0000
0001
0000
,
0001
0000
0000
0000
,
1001
0000
0100
0000
,
0010
0000
0000
0000
,
0001
0000
0010
0000
,
0100
0000
0000
0000
,
1000
0000
0000
0001
,
0000
1000
0010
0100
,
0001
0000
0010
0000
,
0100
1000
0001
0000
,
0100
0000
0010
0000
,
0100
0000
0000
0000
,
1000
0000
0001
0000
,
0100
0000
0000
0000
,
0001
0000
0000
0010
,
0100
1000
0000
0001
,
1000
0000
0001
0000
,
0100
0000
0010
0000
,
2000
0000
0000
0000
,
0000
0000
0000
0000
,
0002
0000
0000
0000
,
0000
0000
0000
0000
,
3003
0010
0000
0000
,
0000
0100
0000
0000
,
0000
1000
0000
0000
,
0000
0001
0000
0010
,
0000
0100
0000
1000
,
0000
0001
0000
0100
,
0000
0010
0000
0100
,
0000
1000
0000
0001
,
0000
0010
0100
1000
,
0000
0001
1000
0001
,
0000
0100
0010
1000
,
0000
0002
0000
0000
,
1003
0000
0010
0000
,
0100
0000
0010
0000
,
1000
0000
0001
0000
,
0100
0000
0000
0000
,
0010
0000
0001
0000
,
0010
0000
0100
0000
,
1000
0000
0001
0000
,
0100
0000
0000
0000
,
0010
0000
0100
0000
,
1000
0000
0001
0000
,
0100
0000
0010
0000
,
1000
0000
0000
0000
,
0001
0000
0010
0000
,
0100
0000
1000
0000
,
0001
0000
0100
0000
,
0010
0000
0000
0000
,
0220
0000
0000
0000
,
0000
0000
0000
0000
,
0330
0000
0000
0000
1001
0000
0000
0000
0000
0000
0000
0000
;

//--------------- dance-single - ----------------
#NOTES:
     dance-single:
     :
     Easy:
     9:
     0,0,0,0,0:
0000
0000
0000
0000
,
0000
0000
0000
0000
,
0000
0000
0000
0000
,
0000
0000
0000
0000
,
0000
0000
0000
0000
,
0001
0000
0100
0000
,
1000
0000
0001
0000
,
0010
0000
0100
0000
,
2002
0000
3003
0000
,
0010
0000
0100
0000
,
1000
0000
0001
0000
,
0100
0000
0010
0000
,
1000
0000
0001
0000
,
0100
0000
0010
0000
,
0001
0000
0100
0000
,
0010
0000
0001
0000
,
0100
0000
0010
0000
,
1001
0000
0100
0000
,
0010
0000
0001
0000
,
1000
0000
0001
0000
,
0100
0000
1000
0000
,
0010
0000
0100
0000
,
0010
0000
0001
0000
,
0100
0000
1000
0000
,
0001
0000
0100
0000
,
0010
0000
0000
0000
,
0100
0000
1000
0000
,
0001
0010
0100
0000
,
1000
0000
0000
0000
,
0001
0000
0000
0000
,
0100
0000
0010
0000
,
0001
0000
0010
0000
,
0100
1000
0001
0000
,
0100
0000
0010
0000
,
0001
0000
1000
0000
,
0001
0000
0100
0000
,
0001
0010
0100
0000
,
1000
0000
0001
0000
,
0100
0000
0010
0000
,
0001
0000
0010
0000
,
0100
0000
1000
0000
,
2002
0000
0000
0000
,
0000
0000
0000
3003
,
0100
0100
0100
0100
,
0100
0100
0100
0000
,
0001
0000
0010
0000
0100
1000
0100
0000
,
0010
0001
0100
0100
,
0010
1000
0010
0000
,
0100
0000
0000
0000
,
0001
0010
0001
0000
,
0100
0000
0000
0000
,
0010
0000
1000
0000
,
0001
0000
0001
0000
,
0010
0000
0001
0000
,
1000
0000
1000
0000
,
0001
0000
0010
0000
,
1000
0000
0010
0000
,
0001
0000
0100
0000
,
1000
0000
0010
0000
,
0100
0000
1000
0000
,
0001
0000
0100
0000
,
0010
1000
0001
0000
,
0100
0000
0010
0000
,
1000
0001
0100
0000
,
0010
0000
0000
0001
,
0000
1000
0001
0010
,
0100
1000
0001
0200
,
0000
0000
0000
0000
,
0000
0000
0300
0000
,
0010
0000
1000
0000
,
0001
0100
0001
0000
,
0010
0000
0100
0000
,
1000
0001
1000
0000
,
0001
0000
0001
0000
,
0010
0000
1000
0000
,
0010
0000
0010
0000
,
0001
0000
0000
0000
,
0100
0000
0001
0000
,
1000
0010
1000
0000
,
0100
0000
0010
0000
,
0001
1000
0001
0000
,
1000
0000
1000
0000
,
0100
0000
0001
0000
,
0100
0000
0100
0000
,
1000
0000
0000
0000
,
2002
0000
3003
0000
,
1000
0000
0100
0000
,
1100
0000
1100
0000
,
0011
0000
0000
0000
,
1000
0000
0001
0000
,
0100
0000
1000
0000
,
0010
0000
0001
0000
,
0010
0000
0100
0000
,
1000
0000
0001
0000
,
0100
0000
0010
0000
,
1000
0000
0001
0000
,
0100
1000
0001
0010
,
0100
0000
1000
0000
,
0001
0000
0100
0000
,
0220
0000
0000
0000
,
0000
0000
0000
0330
,
1000
0100
0010
0001
,
0000
0001
0010
0010
,
0100
0100
2002
3003
,
1000
0100
1000
0100
,
0001
0100
1000
0010
,
0100
0001
0100
0000
0001
0010
0001
0000
,
0011
0000
1001
0000
,
0001
0100
0001
0100
,
1000
0100
0001
0010
,
0100
1000
0100
0000
1000
0010
1000
0000
,
1010
0000
1001
0000
,
0001
0110
1000
0110
,
0001
1000
0001
1000
,
1001
0000
0010
0000
,
0100
1000
0001
0100
,
0010
0000
1000
0000
,
2002
0000
0000
0000
,
0000
0000
0000
0000
,
3003
0000
0000
0000
0110
0000
0000
0000
0000
0000
0000
0000
;

//--------------- dance-single - ----------------
#NOTES:
     dance-single:
     :
     Medium:
     11:
     0,0,0,0,0:
0000
0000
0000
0000
,
0000
0000
0000
0000
,
0000
0000
0000
0000
,
0000
0000
0000
0000
,
0000
0000
0000
0000
,
0001
1000
0010
0001
0100
0010
1000
0000
,
0001
0000
0000
0010
0000
0000
0100
0000
0000
0010
0000
0000
1000
0000
0001
0000
0010
0000
0100
0000
0000
0000
0000
0000
,
1000
0000
0010
0000
0001
0000
1000
0000
0000
0010
0000
0000
2002
0000
0000
0000
,
0000
0000
3003
0000
,
0010
1000
0010
1000
,
0010
0001
0100
0000
0001
0000
0100
0000
,
0001
0100
0010
1000
,
0001
1000
0010
0000
0001
0000
0010
0000
,
0001
0100
0010
1000
,
0100
0001
0010
0000
0100
0000
0010
0000
,
0100
1000
0001
1000
,
0010
0100
1000
0000
0100
0000
0010
0000
,
0001
0010
0100
1000
,
0001
0010
1000
0000
0010
0000
1000
0000
,
0010
0100
0001
0100
,
0010
0100
1000
0000
0001
0000
0100
0000
,
0010
0100
0001
0010
,
0100
0001
0010
0000
0001
0000
1000
0000
,
0010
1000
0001
0010
,
0001
0010
0100
0000
0001
0000
0010
0000
,
0010
0100
0010
0000
0100
0000
0000
1001
,
0000
0000
0110
0000
0000
1001
0000
0000
,
0010
1000
0100
0000
,
0010
0001
0100
0000
,
0001
0100
1000
0000
,
1000
0100
0001
0000
,
1000
0100
0001
0100
,
1000
0000
1001
0000
,
0100
0010
0100
0000
0010
0000
0000
1001
,
0000
0000
0110
0000
0000
1001
0000
0000
,
0100
0001
0010
0000
,
0100
1000
0010
0000
,
1000
0010
0001
0000
,
0001
0010
1000
0000
,
0001
0000
0000
0010
0000
0000
1000
0000
,
0000
0010
0000
0000
0001
0000
1001
0000
,
0020
0100
0000
0100
,
0000
0000
0000
0000
0130
0000
0010
0100
0010
0000
1000
0000
0001
0000
0010
0000
,
0200
0010
0010
0310
,
0001
0001
1000
1000
0100
0010
0110
0000
,
1001
0000
0100
0000
0001
0100
0001
0000
,
1001
0000
0100
0000
1000
0100
1000
0000
,
0001
0100
0001
0000
0010
0000
0000
0000
,
0001
0100
0010
0000
,
1000
0100
1000
0000
0010
0000
0000
0000
,
1000
0100
0010
0000
,
0001
0100
0010
0001
,
0010
0100
0001
0010
,
0100
0001
0100
0010
,
0001
0100
0010
0000
,
1000
0100
0010
1000
,
0010
0100
1000
0010
,
0100
1000
0100
0010
,
1000
0100
0010
0000
,
1001
0000
0010
0100
,
0010
0100
0010
0200
,
0020
0000
0000
0000
,
0330
0000
0000
0000
,
1000
0100
0001
0010
,
0100
0000
1000
0000
,
0001
0100
0010
0100
,
1000
0001
0010
0100
,
2002
0000
0000
0000
,
0000
0000
3003
0000
,
0001
0000
1000
0000
0010
0100
0010
0000
,
1000
0001
0010
0100
,
1000
0000
0001
0000
0100
0001
0100
0000
,
0010
1000
0100
0001
,
0100
0000
1000
0000
0010
1000
0010
0000
,
0100
0000
0001
0000
0010
0001
0010
0000
,
0100
1000
0001
1000
,
0100
0000
0110
0000
,
0001
0000
0100
0000
0010
1000
0010
0000
,
1000
0100
0001
0100
,
1000
0000
0010
0000
0100
0001
0100
0000
,
0010
0100
1000
0100
,
0001
0000
1000
0000
0010
0000
1000
0001
,
1000
0000
0001
1000
0001
0000
0000
0000
,
0100
1000
0100
0001
,
1000
0001
0100
0010
,
1001
0000
0001
0100
,
0000
0100
0010
1000
,
0001
0001
0001
0000
,
1000
1000
1000
0000
,
0001
0010
0100
1000
,
0010
0100
0001
1000
,
0001
1000
0001
0000
0100
0000
0000
0000
,
0001
1000
0001
0000
0100
0000
0000
0000
,
1000
0001
0010
0100
,
1000
0001
0010
0000
,
1000
0001
0100
0000
0010
0000
0000
0000
,
0100
1000
0001
0000
0010
0000
0000
0000
,
1000
0100
0010
1000
,
0001
0010
0100
0000
,
1000
0001
0010
0100
,
2000
0000
0000
0000
,
3001
0010
0001
0100
,
1000
0100
0001
0000
,
2000
0000
0100
0000
,
3002
0000
0100
0000
,
0023
0000
0100
0000
,
0032
0000
1003
0000
,
0010
0001
0010
0000
0001
0000
0000
0101
,
0000
0000
1100
0000
0000
1010
0000
0000
,
1000
0010
1000
0100
,
0001
0100
1000
0000
,
0002
0000
0100
0000
,
2003
0000
0100
0000
,
3020
0000
0100
0000
,
2030
0000
3001
0000
,
0001
1000
1001
0000
,
1000
0001
1001
0000
,
0220
0000
0000
0000
,
0000
0000
0000
0330
,
0100
0000
0010
0000
0100
0000
0000
0000
0000
0000
0000
0000
;

//--------------- dance-single - ----------------
#NOTES:
     dance-single:
     :
     Hard:
     16:
     0,0,0,0,0:
0000
0000
0000
0000
,
0000
0000
0000
0000
,
0000
0000
0000
0000
,
0000
0000
0000
0000
,
0000
0000
0000
0000
,
0001
0000
0000
1000
0001
0000
0010
0000
0100
0000
1000
0001
0100
0000
1000
0000
,
0001
0000
0000
0000
0000
0000
0000
0000
0000
0010
0000
0000
0100
0000
0000
0000
0000
0000
0001
0000
0000
0000
0000
0000
1000
0000
0000
0000
0010
0000
0000
0000
0001
0000
0000
0000
0100
0000
0000
0000
0000
0000
0001
0000
0000
1000
0000
0000
,
0010
0000
1000
0010
0001
0000
1001
0000
0000
0110
0000
0000
2002
0000
0000
0000
,
0000
0000
3003
0000
,
0100
0010
0001
1000
0010
0100
0001
0010
,
0001
1000
0001
0010
0100
1000
0001
0010
,
0001
0010
0001
1000
0100
1000
0100
1000
,
0010
0000
0100
0000
0001
0000
0010
1000
0100
0000
1000
0000
0010
0000
1000
0000
,
0010
1000
0100
0010
0100
1000
0010
0100
,
0001
1000
0001
1000
0001
0010
0100
0010
,
0100
0010
0001
1000
0010
1000
0010
1000
,
0100
0000
0010
0000
0001
0000
1000
0000
0100
0000
0010
0000
0001
0000
0010
1000
,
0001
0100
0010
0100
0010
0100
0001
0010
,
0001
1000
0010
0100
0001
1000
0001
0010
,
0100
0010
0001
0100
0001
0010
0001
0010
,
0100
0000
1000
0000
0100
0000
1000
0000
0100
0000
0010
0000
0001
0000
0010
0001
,
0100
1000
0100
1000
0001
0100
0010
0100
,
0010
0100
0001
1000
0001
1000
0010
0100
,
0010
0100
0010
1000
0001
0100
0010
1000
,
0001
1000
0001
0010
0100
1000
0100
1000
,
0001
0100
0001
0000
0100
0010
0000
0010
,
1000
0000
1000
0001
0000
0001
0010
0000
,
0100
0001
0100
1000
,
0010
0100
0010
0000
1000
0001
1000
0001
,
2000
0000
3001
0010
,
1000
0000
0010
0000
0001
0100
0000
0110
,
0000
0000
1000
0100
1000
0100
0010
0000
,
0001
0100
0001
0000
1001
0000
0000
0000
,
1000
0100
1000
0000
0100
0010
0000
0010
,
0001
0000
0001
1000
0000
1000
0010
0000
,
0100
1000
0100
0001
,
0010
0100
0010
0000
0001
1000
0001
1000
,
0002
0000
1003
0010
,
0001
0000
0010
0000
1000
0100
0000
0110
,
0000
0000
0001
0100
0001
0100
0010
0000
,
1000
0100
1000
0000
1001
0000
0110
0000
,
0002
0100
0000
0100
,
0000
0000
0000
0000
0000
0000
0103
0000
0000
0001
0100
0001
0100
0000
0000
0010
0000
0000
1000
0000
0000
0000
0000
0000
,
2000
0000
0000
0000
3001
0000
1000
0100
1000
0000
1000
0100
1000
0000
0000
0000
,
0100
0100
1100
1100
1001
1001
0110
0000
,
0001
0010
0001
0000
0010
0000
0000
0110
0000
0011
0000
0100
0010
0000
1000
0010
,
0100
0000
1000
0100
0020
0000
0000
1030
0010
0000
0100
0000
0110
0000
0000
0000
,
0001
0010
0000
0100
0001
0000
0100
0010
,
0000
0001
0100
0000
0002
0000
0000
0000
,
1003
0010
0000
0100
1000
0000
0100
0010
,
0000
1000
0100
0000
2000
0000
0000
0000
,
3001
0000
0010
0100
0010
0000
0000
0100
,
0001
0000
0010
0100
0010
0000
1000
0000
,
0001
0100
0010
0000
0100
0001
0100
0000
,
0001
0010
0110
0001
,
1000
0000
0000
0010
0100
0010
0100
0000
0000
0010
1000
0010
,
1000
0000
0000
0010
0100
0010
0100
0000
0000
1000
0000
0000
,
0010
1000
0010
1000
0100
0000
0001
0000
,
0010
0010
0010
0010
,
2001
0000
0001
0001
,
0001
0001
0001
0001
,
0002
0000
3003
0010
,
1000
0100
0010
0001
,
1001
0000
0010
0000
1000
0000
0010
0100
,
0010
1000
0010
0100
,
0001
0000
0010
1000
,
0010
0000
0100
0000
1000
0000
0010
1000
,
0100
0000
0010
0001
0100
0000
0010
1000
,
0100
0000
0010
0001
0100
0000
0100
0001
,
1001
0000
0010
0000
0100
0001
0000
0100
,
0010
0000
1000
0010
0000
1000
0001
0000
,
1001
0000
0010
0000
0001
0010
0000
0100
,
0010
0000
0001
1000
0000
0100
1000
0000
,
0001
0000
0010
0000
0100
1000
0000
0100
,
0010
0000
0001
0010
0000
0001
1000
0000
,
0100
0000
0010
0001
1000
0010
0000
0100
,
0010
0000
1000
0001
0000
0100
0001
0000
,
1000
0000
0100
0000
0010
0001
0000
0100
,
0010
0000
1000
0100
0000
1000
0001
0000
,
1000
0000
0010
0000
0001
0100
0000
0010
,
0100
0000
0001
1000
0000
0100
1000
0000
,
0001
0000
0100
0000
0010
1000
0000
0100
,
0010
0000
0001
0100
0000
0001
1000
0000
,
0001
0000
0100
0000
1000
0010
0000
0100
,
0010
0000
1000
0001
0000
0010
0001
0000
,
1000
0000
0000
0100
0000
0000
0001
0000
,
1000
0000
0000
0010
0000
0000
0001
0000
,
0100
0100
0100
0100
,
0010
0100
1000
0000
0010
0000
1000
0000
,
0001
0000
0000
0100
0000
0000
1000
0000
,
0001
0000
0000
0010
0000
0000
1000
0000
,
0010
0000
0001
0000
0100
0010
0000
1000
,
0010
0000
0000
1000
0000
0000
0100
0000
,
1000
0100
1000
0000
0100
0010
0000
0010
,
1000
0000
1000
0010
0000
0010
0001
0000
,
0010
0100
0010
0001
0010
0000
0100
0000
,
1000
0010
1000
0000
0001
0000
0100
0000
,
1001
0000
1000
0100
,
0001
0000
0100
0000
1000
0100
0000
0110
,
0000
0000
0001
0100
0010
0000
0100
0010
,
1000
0100
0110
0000
,
0001
0010
0100
0000
1001
0000
0000
0000
,
1000
0010
0100
0000
1001
0000
0000
0000
,
0001
0010
0001
0010
0000
0000
0100
1000
0100
1000
0000
0000
,
0001
1000
0001
1000
0000
0000
0001
0000
1000
0000
0001
0000
,
1000
0100
0010
0000
1001
0000
0000
0000
,
0001
0100
0010
0000
1001
0000
0000
0000
,
1000
0100
1000
0100
0000
0000
0010
0001
0010
0001
0000
0000
,
1000
0001
1000
0001
0000
0000
1000
0000
0001
0000
1000
0000
,
0001
0010
0100
0000
1001
0000
0000
0000
,
1000
0010
0100
0000
1001
0000
0000
0000
,
0001
0010
0001
0010
0000
0000
0100
1000
0100
1000
0000
0000
,
0001
1000
0001
1000
0000
0000
0001
0000
1000
0000
0001
0000
,
1000
0100
0010
0000
1001
0000
0000
0000
,
0001
0100
0010
0000
1001
0000
0000
0000
,
1000
0100
1000
0100
0000
0000
0010
0001
0010
0001
0000
0000
,
1000
0001
1000
0001
0000
0000
1000
0000
0001
0000
1000
0000
,
0220
0000
0000
0000
,
0000
0000
0000
0330
,
1001
0000
0110
0000
2002
0000
0000
0000
0000
0000
0000
0000
,
3003
0000
0000
0000
;
