
//----- song ID: apse -----//
#TITLE:Aposematism;
#ARTIST:GARIN;
#GENRE:シンクロニカ;
#MUSIC:Aposematism.ogg;
#BANNER:Aposematism.png;
#BACKGROUND:Aposematism-bg.png;
#CDTITLE:./CDTitles/Synchronica 2nd Avenue.png;
#SAMPLESTART:12.913;
#SAMPLELENGTH:15.000;
#SELECTABLE:YES;
#OFFSET:0.000;
#BPMS:0.000=130.000;
#STOPS:;
#BGCHANGES:;
#FGCHANGES:;

//--------------- dance-single - ----------------
#NOTES:
     dance-single:
     :
     Beginner:
     3:
     0,0,0,0,0:
0000
0000
0000
0000
,
0000
0000
0000
0000
,
0000
0000
0000
0000
,
0000
0000
0000
0000
,
0000
0000
0000
0000
,
0000
0000
0000
0000
,
0000
0000
0000
0000
,
1000
0000
0000
0000
0000
0001
0000
0000
,
0010
0000
0000
0000
0000
0100
0000
0000
,
0010
0000
0000
0000
0000
1000
0000
0000
,
0001
0000
0000
0000
0000
0000
0000
2002
0000
0000
0000
3003
0000
0000
0000
0000
,
0000
1000
0000
0000
0000
0000
0000
0001
0000
0000
0200
0000
0000
0000
0000
0000
,
0310
0000
0000
0000
0000
1000
0000
0000
,
0001
0000
0000
0000
0000
0010
0000
0000
,
0100
0000
0000
0000
0000
0000
0000
0000
0000
1000
0000
0000
0000
0000
0000
0000
,
0001
0000
1000
0000
0000
0010
0000
0000
,
0100
0000
0010
0000
0000
1000
0000
0000
,
0001
0000
0010
0000
0000
0100
0000
0000
,
0010
0000
0000
0000
0100
0000
0000
1000
0000
0000
0000
0001
0000
0000
0000
0000
,
0010
0000
0000
0000
0000
1000
0000
0000
,
0010
0000
1000
0000
0000
0010
0000
0000
,
0010
0000
0100
0000
0000
1000
0000
0000
,
0000
0001
0000
0000
0000
0000
0000
1000
0000
0000
0000
0000
0000
1001
0000
0000
,
0110
0000
0000
1000
0001
0000
0000
0010
,
0100
0000
0000
0000
0000
0000
0000
0000
1000
0000
0000
0000
0000
0000
0000
0001
,
0000
0000
0000
1000
0001
0000
0000
0000
,
0010
1000
0001
0010
,
0100
0000
1000
0000
0000
0001
0000
0000
,
0100
0000
0000
0000
1000
0000
0000
0001
0000
0000
0000
1000
0000
0000
0000
0000
,
0010
0000
0000
0100
0000
0000
0010
0000
0000
0100
0000
0000
0001
0000
0000
1000
,
0000
0000
0001
0000
0000
1000
0000
0000
1001
0000
0000
0000
0010
0000
0000
0000
,
0000
0100
0000
0000
0000
1000
0000
0000
0001
0000
0000
0000
0100
0000
0000
0000
,
0020
0000
0130
0000
,
1000
0000
0000
0001
0000
0000
0020
0000
0000
0000
0000
0000
0130
0000
0000
0000
,
1000
0000
0000
0000
0000
0000
0000
0000
0000
0001
0000
0000
0100
0000
0000
0010
,
0000
0000
0000
0000
1000
0000
0000
0000
0000
0100
0000
0000
0010
0000
0000
2000
,
0000
0000
0000
0000
0000
0000
0000
3001
0000
0000
0000
0110
0000
0000
0000
0000
,
1000
0000
0000
0100
0000
0000
0001
0000
0000
0000
1000
0000
0010
0000
0000
0000
,
0001
0000
0000
0100
0000
1000
0000
0000
0000
0001
0000
0000
0010
0000
0000
0100
,
0000
0001
0000
0000
0010
0000
0000
1000
0000
0020
0000
0000
0000
0000
0000
2000
,
0000
0000
3030
0010
,
0100
0000
0000
0001
0000
0000
1000
0000
0000
0000
0000
0000
0100
0000
0000
0000
,
0010
0000
0000
0000
0001
0000
0000
0000
0000
1000
0000
0000
0010
0000
0000
0100
,
0000
0000
0000
0000
0001
0000
0000
0000
0000
1000
0000
0000
0020
0000
0000
0000
,
0000
0000
0000
0000
0000
0000
0000
0130
0000
0000
0000
0110
0000
0000
0000
0000
,
0001
0000
0000
0010
0000
0000
1000
0000
0000
0000
0001
0000
0100
0000
0000
0000
,
1000
0000
0000
0010
0000
0001
0000
0000
0000
1000
0000
0000
0100
0000
0000
0010
,
0000
1000
0000
0000
0100
0000
0000
0001
0000
0200
0000
0000
0000
0000
0000
0001
,
0000
0000
0301
0000
0000
1000
0000
0000
,
0000
0001
0000
0000
1000
0000
0000
2002
0000
0000
0000
0000
0000
0000
0000
0000
,
0000
0000
0000
0000
0000
0000
0000
3003
0000
0000
0000
0000
0000
0000
0000
0000
,
0000
0000
0001
0000
,
0000
1000
0000
0000
0100
0000
0000
0000
,
0000
0010
0000
0000
0100
0000
0000
0000
,
0000
0000
0001
0000
0000
0000
0000
0000
1000
0000
0000
0000
0000
0000
0000
2002
,
0000
0000
0000
3003
0000
0000
0000
0000
0000
0001
0000
0000
0000
0000
0000
1000
,
0000
0020
0000
0000
0130
0000
0000
0000
,
0000
0001
0000
0000
1000
0000
0000
0000
,
0000
0100
0000
0000
0010
0000
0000
0000
,
0000
0001
0000
0000
0000
0000
0000
0000
1000
0000
0010
0000
0001
0000
0000
0000
;

//--------------- dance-single - ----------------
#NOTES:
     dance-single:
     :
     Easy:
     7:
     0,0,0,0,0:
0000
0000
0000
0000
,
0000
0000
0000
0000
,
0000
0000
0000
0000
,
0000
0000
0000
0000
,
0000
0000
0000
0000
,
0000
0000
0000
0000
,
0000
0000
0000
0000
,
1000
0000
0000
0010
0000
0000
0000
0001
0000
0000
0200
0000
0000
0000
0000
0000
,
0310
0000
0000
0100
0000
0000
0000
1000
0000
0000
0002
0000
0000
0000
0000
0000
,
1003
0000
0000
0001
0000
0000
0000
0010
0000
0000
0200
0000
0000
0000
0000
0000
,
1300
0000
0000
0001
0000
0000
0000
0020
0000
0000
0000
0200
0000
0000
0000
0330
,
0000
0002
0000
0000
0000
0000
0000
1003
0000
0000
0110
0000
0001
0000
0000
0000
,
1000
0000
0000
0010
0000
0000
0000
1000
0000
0000
0001
0000
0000
0010
0000
0000
,
1000
0000
0000
0010
0000
0000
0000
0000
0000
0000
0001
0000
0100
0000
0000
0000
,
0010
0000
0100
0000
0000
0000
1000
0000
0000
0001
0000
1000
0000
0001
0000
0000
,
1000
0000
0010
0000
0000
0001
0000
0010
,
0100
0000
0000
0000
0001
0000
1000
0000
0000
0000
0001
0000
0000
0010
0000
0000
,
0100
0000
0000
0001
0000
0000
0000
0100
0000
0000
0010
0000
0000
0000
0000
0000
,
0001
0000
0000
0000
1000
0000
0000
0010
0000
0000
0000
0200
0000
0000
0000
0000
,
0301
0000
0000
0000
1000
0000
0000
0001
0000
0000
0100
0000
0000
0000
0000
0000
,
0010
0000
0000
0000
1000
0000
0000
0001
0000
0000
0100
0000
0000
0010
0000
0000
,
2000
0000
0000
0000
3001
0000
0000
0010
0000
0000
2000
0000
0000
0000
0000
3000
,
0000
0001
0000
0000
0000
0000
0000
0010
0000
0000
0000
0000
0000
0100
0000
0000
,
2000
0000
0000
3010
0001
0000
0000
0001
,
0010
0000
0000
1000
0000
0100
0000
0000
0010
0000
0000
0000
1000
0000
0000
0010
,
0000
0001
0000
1000
0001
0000
0010
0100
,
1000
0000
0000
0001
0000
0000
0100
0000
0010
0000
0000
0000
0002
0000
0000
0000
,
1003
0000
0000
0000
0100
0000
0000
0001
0000
0000
0010
0000
0000
0000
1000
0000
,
0001
0000
0000
0000
0010
0000
0000
1000
0000
0000
0000
0001
0000
0000
0000
0000
,
1000
0000
0000
0100
0000
0000
0010
0000
0000
0100
0000
0000
1000
0000
0000
0001
,
0000
0000
0100
0000
0000
0010
0000
0000
0100
0000
0000
0000
0001
0000
1000
0000
,
0000
0010
0000
0000
0000
0100
0000
0000
0010
0000
0000
0000
1000
0000
0001
0000
,
0020
0000
0130
1000
,
0001
0000
0000
1000
0000
0000
0100
0000
0000
0000
0000
0000
1000
0000
0000
0000
,
0010
0000
0000
0100
0000
0000
0000
0000
0000
0001
0000
0000
1000
0000
0000
0100
,
0000
0010
0000
0000
0001
0000
0000
1000
0000
0001
0000
0000
0020
0000
0000
0100
,
0000
0000
0000
0000
0100
0000
0000
0030
0000
0000
0000
2002
0000
0000
3003
0000
,
0100
0000
0000
0010
0000
0000
1000
0000
0000
0001
0000
0000
0010
0000
0000
0000
,
0100
0000
0000
0001
0000
1000
0000
0000
0000
0010
0000
0000
0100
0000
0000
0001
,
0000
1000
0000
0001
0000
0000
0000
0100
0000
0020
0000
0000
0000
0000
0000
0200
,
0000
0000
0000
0000
0000
0330
0000
0000
1001
0000
0000
0000
0010
0000
0000
0000
,
0100
0000
0000
1000
0000
0000
0010
0000
0000
1000
0000
0000
0001
0000
0000
0000
,
0010
0000
0000
1000
0000
0001
0000
0000
0000
0100
0000
0000
0010
0000
0000
0100
,
0000
1000
0000
0000
0001
0000
0000
0100
0000
0010
0000
0000
2000
0000
0000
0000
,
0000
0000
0000
0000
0000
0000
0000
3000
0000
0000
0000
2002
0000
0000
3003
0000
,
0010
0000
0000
0100
0000
0000
0001
0000
0000
1000
0000
0000
0100
0000
0000
0000
,
0010
0000
0000
1000
0000
0001
0000
0000
0000
0100
0000
0000
0010
0000
0000
1000
,
0000
0001
0000
1000
0000
0000
0000
0010
0000
0200
0000
0000
0000
0000
0000
0320
,
0000
0000
0000
0000
0130
0000
0000
0100
0000
0000
1000
0000
0100
0000
0010
0000
,
0000
0100
0000
0000
0010
0000
0000
0220
0000
0000
0000
0000
0000
0000
0000
0000
,
0000
0000
0330
0000
,
0000
0000
0000
0000
0000
0000
0000
0000
0001
0000
0000
0100
0000
0000
0000
1000
,
0000
0000
0020
0000
0000
0000
0000
0000
0130
0000
0000
0010
0000
0000
0000
0001
,
0000
0000
2000
0000
0000
0000
0000
0000
3001
0000
0000
1000
0000
0000
0000
0100
,
0000
0000
0020
0000
0000
0000
0000
0000
0031
0000
0000
1000
0000
0000
0000
0200
,
0000
0000
0000
0020
0000
0000
0000
0330
0000
2000
0000
0000
0000
0000
0000
3001
,
0000
0000
0110
0000
1000
0000
0000
0000
0001
0000
0000
0100
0000
0000
0000
0001
,
0000
0000
1000
0000
0000
0100
0000
0000
0001
0000
0000
0100
0000
0000
0000
0000
,
0000
1000
0010
0000
0100
0010
0000
0001
,
0000
1000
0000
0001
0000
1000
0000
0000
0001
0000
1000
0000
0100
0000
0000
0000
;

//--------------- dance-single - ----------------
#NOTES:
     dance-single:
     :
     Medium:
     12:
     0,0,0,0,0:
0000
0000
0000
0000
,
0000
0000
0000
0000
,
0000
0000
0000
0000
,
0000
0000
0000
0000
,
0000
0000
0000
0000
,
0000
0000
0000
0000
,
0000
0000
0000
0000
,
1001
0000
0000
0100
0000
0001
0000
1000
0000
0000
0001
0000
0010
0000
0001
0000
,
0100
0000
0000
1000
0000
0000
0100
1000
0000
0000
0010
0000
0000
0100
0000
0000
,
1000
0000
0000
0001
0000
0010
0000
1000
0000
0000
0010
0000
0002
0000
0000
0000
,
0103
0000
0000
1000
0000
0000
0000
1001
0000
0000
0000
0010
0000
0000
0100
0000
,
0000
1000
0000
0100
0000
0010
0000
0001
0000
1000
0001
0000
0200
0000
0000
0000
,
0310
0000
0000
0100
0000
0001
0000
0010
0000
0000
1000
0000
0000
0100
0000
0000
,
0001
0000
0000
1000
0000
0001
0000
0100
0000
0000
0010
0000
1000
0000
0000
0001
,
0000
0000
0100
0000
0020
0000
0000
0000
0000
1030
0000
0001
0000
2000
0000
0000
,
3001
0000
0100
0000
0001
0000
0000
0100
0000
0000
0010
0000
0000
0000
1000
0000
,
0001
0000
0000
0100
0000
0000
0010
0000
0000
0000
0100
0000
0010
0000
1000
0000
,
0001
0000
0000
0100
0000
0000
0000
0001
0000
0000
1000
0000
0001
0000
0000
0010
,
0000
0100
1000
0001
0100
0000
0000
0001
0000
0000
0100
1000
0000
0001
0010
1000
,
0100
0000
0001
0000
1000
0000
0000
0010
0000
0000
0100
0000
0000
0000
0001
0010
,
0100
0000
0000
1000
0001
0000
0000
0100
0000
0000
1000
0000
0001
0010
0000
0000
,
1000
0000
0000
0001
0100
0000
0000
0010
0000
1000
0001
0000
0100
1000
0001
0000
,
0000
0200
0000
0000
1300
0000
0000
0020
0000
0000
0031
0000
0000
0001
0000
0000
,
0200
0000
0000
1300
0000
0000
0100
0000
0000
0000
0001
0000
1000
0000
0001
0000
,
0100
0000
0000
0010
0000
0001
0000
0020
0000
0000
0000
0000
0130
0000
0000
1000
,
0000
0000
0001
0000
0000
0100
0000
0010
0000
0000
1000
0000
0010
0000
0100
0000
,
1000
0000
0000
0001
0000
0000
0100
0000
0000
0000
0010
0000
0100
0000
1000
0000
,
0001
0000
0000
0100
0000
0010
0000
0001
0000
0000
1001
0000
0010
1000
0001
0000
,
0010
0000
0000
1000
0000
0001
0000
0010
0000
0100
0000
0010
0000
0000
0001
0010
,
1000
0000
0000
0101
0000
0000
1010
0000
0000
0110
0000
0000
0101
0000
0000
1001
,
0000
0000
0101
0000
0000
0110
0000
0000
1001
0000
0000
0000
0100
0000
0001
0000
,
0010
1000
0000
0000
0010
0100
0000
0000
0010
0000
0000
0000
1000
0000
0001
0100
,
2000
3002
1003
0100
,
0010
0000
0000
1000
0000
0000
0001
0000
0000
0100
0000
0000
0010
0000
0000
0000
,
1000
0000
0000
0001
0000
0010
0000
0100
0000
1000
0000
0000
0001
0000
0000
0010
,
0000
0100
0000
0000
0010
0000
0000
1000
0000
0001
0000
0000
0010
0000
0000
1000
,
0000
0000
0010
0000
0000
0100
0000
0001
0000
0000
0000
2002
0000
0000
3003
0000
,
0010
0000
0000
0100
0000
0000
1000
0000
0000
0001
0000
0000
0020
0000
0000
0000
,
1030
0000
0000
0001
0000
0010
0000
0000
0000
1000
0000
0000
0010
0000
0000
0100
,
0000
0001
0000
0100
0000
0000
0000
1000
0000
0001
1000
0002
0000
0000
0000
2003
,
0000
0000
3001
0000
0010
1000
0000
0000
0110
0000
0000
0000
0001
0000
0000
0000
,
0100
0000
0000
0001
0000
0000
0010
0000
0000
1000
0001
0000
0010
0000
0000
1000
,
0000
0000
0000
0001
0010
0100
0000
0000
0000
0001
0000
0000
0100
0000
0000
0010
,
0000
0001
0000
0000
0010
0000
0000
0100
0000
0010
0000
0000
1000
0000
0002
0000
,
0000
0000
0000
0000
0000
0000
0000
1003
0000
0000
0000
2002
0000
0000
3003
0000
,
0100
0000
0000
0010
0000
0000
0001
0000
0000
1000
0000
0000
0200
0000
0000
0000
,
0301
0000
0000
1000
0000
0100
0000
0000
0000
0001
0000
0000
0100
0000
0000
0010
,
0000
1000
0000
0010
0000
0000
0000
0001
0000
1000
0001
2000
0000
0000
0000
3002
,
0000
0000
1003
0000
0100
0001
0000
0001
0000
0000
0100
0000
0010
0000
0100
0000
,
0000
0011
0000
0000
1100
0000
0000
2002
0000
0000
0000
0000
0000
0000
0000
0000
,
0000
0000
0000
0000
0000
0000
0000
3003
0000
0000
0000
0000
0000
0000
0000
0000
,
0000
0000
0000
0000
0110
0000
0000
0000
1001
0000
0000
0100
0000
0001
0000
1000
,
0000
0000
0001
0000
0010
0000
0001
0000
0100
0000
0000
1000
0000
0000
0100
1000
,
0000
0000
0010
0000
0000
0100
0000
0000
1000
0000
0000
0001
0000
0010
0000
1000
,
0000
0000
0010
0000
0002
0000
0000
0000
0103
0000
0000
1000
0000
0000
0000
1001
,
0000
0000
0000
0010
0000
0000
0100
0000
0000
1000
0000
0100
0000
0010
0000
0001
,
0000
1000
0001
0000
0200
0000
0000
0000
0310
0000
0000
0100
0000
0001
0000
0010
,
0000
0000
1000
0000
0000
0100
0000
0000
0001
0000
0000
1000
0000
0001
0000
0100
,
0000
0000
0010
0000
1000
0000
0000
0001
0000
0000
0100
0000
0020
0000
0000
0000
,
0000
1030
0000
0001
0000
2000
0000
0000
3010
0000
0001
0000
0200
0000
0000
0300
;

//--------------- dance-single - ----------------
#NOTES:
     dance-single:
     :
     Hard:
     15:
     0,0,0,0,0:
0000
0000
0000
0000
,
0000
0000
0000
0000
,
0000
0000
0000
0000
,
0000
0000
0000
0000
,
0000
0000
0000
0000
,
0000
0000
0000
0000
,
0000
0000
0000
0000
,
1001
0000
0000
0100
0000
0001
0010
0100
0000
0000
2000
0000
3002
0000
0000
0013
,
0100
0000
0000
1000
0100
0000
0000
0010
0000
0000
1000
0000
0001
0010
0000
0000
,
0101
0000
0000
1000
0000
0010
0100
1000
0000
0000
0010
0000
0100
0000
0000
1000
,
0010
0000
0000
0100
0010
0000
1000
0100
0010
0000
0001
0020
0000
0000
0031
0100
,
0000
1000
0100
0010
0001
0010
0100
1000
0000
0100
0010
0000
0002
0000
0000
0103
,
1000
0000
0000
0100
0000
0001
0010
1000
0000
0001
0100
0000
0010
0100
0000
0000
,
1001
0000
0000
0100
0000
0001
0100
1000
0000
0010
0100
0000
2000
0000
0000
3001
,
0010
0000
0100
0000
0010
0000
1000
0100
0010
0100
0000
1000
0000
0001
0000
0000
,
0100
1000
0100
0010
0000
0010
0000
2000
0000
0000
3001
0000
0010
0000
1000
0100
,
0010
0001
0010
0100
0000
1000
0020
0000
0000
0000
1030
0000
0100
0001
0010
0000
,
2000
0000
0000
3001
0010
0000
1000
0100
0000
0001
1000
0100
0010
0001
0000
1000
,
0000
0010
0100
1000
0001
0010
0000
2000
0000
0000
3010
0002
0000
0000
0013
0000
,
0001
1000
0100
0010
0000
0001
0000
0200
0000
0000
0301
0000
1000
0000
0001
0010
,
0100
1000
0001
0100
0000
0010
2000
0000
3000
0001
0010
1000
0001
0100
0010
1000
,
0020
0000
0000
0130
1000
0001
0000
0101
0000
1000
0001
0010
1000
0100
0010
0000
,
0000
1000
0010
0100
0010
0000
0000
0001
1000
0001
0100
0000
0000
0110
0000
0000
,
0102
0000
0000
1000
0000
0000
1000
0000
1000
0000
0000
0203
0000
0000
0320
0000
,
2030
0000
0000
3001
0000
0001
0000
1000
0200
0000
0000
0000
0310
0001
0010
1000
,
0000
0000
1000
0010
0000
0001
0000
0020
0000
0000
1030
0000
0100
0000
0010
0000
,
0002
0000
0000
0203
0000
0000
2300
0000
3020
0000
0000
0000
1030
0100
1000
0000
,
0101
0000
0000
1000
0100
0010
0000
1001
0000
0000
0101
0000
1000
0100
1000
0010
,
0002
0000
0000
1003
0100
1000
0000
0101
0000
1000
0000
0101
0000
1000
0100
0010
,
0001
0000
0000
0202
0303
0000
2002
3003
0000
0220
0330
0000
0202
0303
0000
2020
,
3030
0000
0220
0330
0000
2002
3003
0000
0001
0000
0100
1000
0001
0000
0010
1000
,
0100
0001
0010
0000
0001
0010
0100
0000
0001
0100
1000
0000
0010
0001
0100
0000
,
0001
0010
0100
0000
0001
0010
1000
0100
0020
0000
0000
0000
0001
0000
0000
0000
,
2030
0000
0000
3200
0000
0000
0302
0000
0000
0023
0000
0000
2030
0000
0000
0000
,
3002
0000
0000
0103
0000
1000
0100
0010
0000
0001
0000
0000
0100
0000
0000
0001
,
1000
0010
0000
0000
0100
0000
0000
0010
0000
0100
0001
0000
0010
0100
0000
0010
,
0000
1000
0001
0100
0010
0001
1000
0100
0000
0000
0000
2002
0000
0000
3003
0000
,
0100
0000
0000
0001
0000
0000
1000
0000
0000
0001
0010
0000
0100
0001
1000
0100
,
0010
0000
0000
0101
0000
0001
1000
0100
0010
2000
0000
0000
3002
0000
0000
1003
,
0100
0000
1000
0000
0000
0000
0010
0000
0100
0000
0000
0000
0000
0000
0101
0000
0000
0000
1000
0001
1000
0000
0100
0000
0010
0000
0001
0000
0010
0000
0100
1000
,
0000
0001
0010
0000
0100
2000
0000
0000
3001
0000
0000
0000
0101
0000
0000
0000
,
1000
0000
0000
0001
0100
0000
0010
1000
0000
0002
0000
0000
0103
0000
1000
0100
,
0010
0000
1000
0001
0010
0200
0000
0000
0000
0301
0000
0000
0100
0000
0001
0100
,
0000
0010
0000
1000
0010
0000
0000
1000
0000
0001
0010
0000
0100
0000
0001
0010
,
0100
0000
0000
1000
0000
0000
0100
0000
0000
0000
0100
0000
0000
0000
0010
0000
0000
0000
0010
0000
0000
0000
0010
0000
0000
0000
0000
0000
0000
0000
0000
0000
0000
2002
0000
0000
0000
0000
0000
0000
0000
0000
3003
0000
0000
0000
0000
0000
,
0001
0100
0000
1000
0001
0000
0020
0000
0000
2030
0000
0000
3001
0000
0010
0100
,
1000
0001
0000
0100
1000
0001
0000
0000
0010
1000
0000
0000
0102
0000
0000
1003
,
0000
0000
0100
0000
0000
0000
0001
0000
0100
0000
0010
0000
0000
0000
1000
0000
0000
0000
0001
0100
0010
0000
1000
0000
0010
0000
0100
0000
0010
0000
0001
1000
,
0010
0000
0100
0000
0010
0000
1000
0010
0000
0000
0101
0000
0110
0000
0101
0000
,
0000
1001
0000
0000
0110
0000
0000
2002
0000
0000
0000
0000
0000
0000
0000
0000
,
0000
0000
0000
0000
0000
0000
0000
0000
0000
0000
0000
0000
0000
0000
0000
0000
0000
0000
0000
0000
0000
0000
0000
0000
0000
0000
0000
0000
0000
0000
0000
0000
0000
0000
0000
0000
0000
0000
0000
0000
0000
0000
0000
0000
0000
3003
0000
0000
1000
0000
0000
0000
0000
0000
0000
0000
1000
0000
0000
0000
0000
0000
0000
0000
1000
0000
0000
0000
0000
0000
0000
0000
0100
0000
0000
0000
0000
0000
0000
0000
0100
0000
0000
0000
0000
0000
0000
0000
0100
0000
0000
0000
0000
0000
0000
0000
,
0001
0001
0001
0001
0100
0000
0000
0000
1001
0000
0000
0100
0000
0001
0010
0100
,
0000
0000
2000
0000
3002
0000
0000
0013
0100
0000
0000
1000
0100
0001
0000
0010
,
0000
0100
1000
0000
0001
0010
0000
0000
0101
0000
0000
1000
0000
0010
0100
1000
,
0000
0100
0010
0000
0100
0000
0001
1000
0010
0000
0000
0100
0010
0000
1000
0100
,
0010
0000
0001
0020
0000
0000
0031
0100
0000
1000
0100
0010
0001
0010
0100
1000
,
0000
0100
0010
0000
0002
0000
0000
0103
1000
0000
0000
0100
0000
0001
0010
1000
,
0000
0001
0100
0000
0010
0100
1000
0000
1001
0000
0010
0100
0000
0001
0100
1000
,
0000
0010
0100
0000
2000
0000
0000
3001
0010
0000
0100
0000
0010
0000
1000
0100
,
0010
0100
0000
1000
0000
0001
0000
0000
0001
0000
1000
0000
2002
0000
0000
3003
;
