
//----- song ID: anki -----//
#TITLE:Ancient Kingdom;
#ARTIST:SDF;
#GENRE:ナムコオリジナル;
#MUSIC:Ancient Kingdom.ogg;
#BANNER:Ancient Kingdom.png;
#BACKGROUND:Ancient Kingdom-bg.png;
#CDTITLE:./CDTitles/NSD A3.png;
#SAMPLESTART:89.802;
#SAMPLELENGTH:15.000;
#SELECTABLE:YES;
#OFFSET:0.000;
#BPMS:0.000=155.000
,60.000=310.000
,68.000=155.000
,224.000=310.000
,232.000=155.000
;
#STOPS:67.750=1.549
,231.750=1.547
;
#DISPLAYBPM:155.000;
#BGCHANGES:;
#FGCHANGES:;

//--------------- dance-single - ----------------
#NOTES:
     dance-single:
     :
     Beginner:
     6:
     0,0,0,0,0:
0000
0000
0000
0000
,
0000
0000
0000
0000
,
0000
0000
0000
0000
,
0000
0000
0000
0000
,
0000
0000
0000
0000
,
1000
0000
0001
0000
,
0100
1000
0001
0000
,
0100
0000
0010
1000
,
0001
0000
1001
0000
,
0100
0000
1000
0000
,
0001
0000
0100
0000
,
0010
0000
0100
0000
,
1000
0000
0001
0000
,
1000
0000
0001
0000
,
0100
0000
0010
0000
,
1000
0000
0100
0000
,
0010
0000
0001
0000
,
1001
0000
0100
0000
,
1000
0000
0001
0100
,
0010
0000
1000
0000
,
0001
0000
0100
0010
,
1000
0000
0001
0000
,
0100
0000
0010
0000
,
0100
0000
0010
0000
,
1000
0100
0010
0000
,
1001
0000
0100
0000
,
0010
0000
0001
1000
,
0001
0000
0100
0000
,
0010
0000
0001
0010
,
0100
0000
1000
0000
,
0001
0000
0100
0000
,
0010
0000
0100
0000
,
1000
0000
0000
0000
,
0001
0000
0100
0000
,
0000
0000
1000
0001
,
0100
0000
0010
0000
,
0001
0000
0000
0000
,
1000
0000
0001
0000
,
0100
0000
0010
0000
,
1000
0100
0010
0001
,
1000
0000
0010
0000
,
2002
0000
3003
0000
,
0010
0000
0100
0000
,
1000
0001
0100
0000
,
0010
0000
0100
0000
,
1000
0000
0001
0000
,
0100
0000
0010
0000
,
0100
1000
0001
0000
,
0010
0000
0100
0000
,
0001
0000
0010
0000
,
1000
0000
0000
0000
,
0001
0000
0000
0100
,
1000
0000
0000
0000
,
0001
0000
0000
0000
,
1000
0000
0001
0000
,
0100
0000
0010
0000
,
1000
0000
0001
0000
,
0100
0000
0010
0000
,
1001
0100
1000
0001
,
0100
0010
1000
0000
,
0001
0010
0100
0001
,
1000
0000
0001
0000
,
0100
1000
0001
0000
,
0100
0000
0010
0000
,
1000
0001
0100
0010
,
1000
0000
0001
0000
,
0100
0000
0010
0000
,
1000
0000
0001
0000
,
0100
0000
1000
0000
,
0001
0100
0010
0000
,
1000
0000
0001
0000
,
0010
0100
1000
0000
,
0001
1000
0100
0010
,
1000
0000
0001
0000
,
1001
0100
0010
1000
,
0001
0000
0100
0000
,
0010
1000
0001
0000
,
0100
0000
0010
0000
,
1000
0001
0000
0100
,
0000
0010
0000
1000
,
0001
0100
1000
0001
,
0100
0000
0010
0000
,
1001
0000
0000
0000
;

//--------------- dance-single - ----------------
#NOTES:
     dance-single:
     :
     Easy:
     10:
     0,0,0,0,0:
0000
0000
0000
0000
,
0000
0000
0000
0000
,
0000
0000
0000
0000
,
0000
0000
0000
0000
,
0000
0000
0000
0000
,
1000
0001
0100
1000
,
0001
0100
0010
0000
,
1000
0000
0001
0100
,
0010
0000
0110
0000
,
1000
0001
0100
0000
,
0001
0010
0100
0000
,
1000
0001
0100
0000
,
0010
0100
1000
0000
,
1000
0001
0100
0000
,
0010
0100
1000
0000
,
1000
0000
0001
0000
,
1000
0000
0001
0000
,
1001
0010
0100
1000
,
0001
0000
0100
0000
0010
0000
1000
0001
,
0100
0000
0010
1000
0001
0000
0100
1000
,
0001
0100
0010
1000
,
0001
1000
0100
0010
,
1000
0000
0001
0000
0100
0000
0010
1000
,
0001
0000
0100
1000
0001
0000
0100
0010
,
0100
1000
0001
0100
,
1001
0100
1000
0001
,
0100
0010
0001
0100
,
0001
0010
0001
1000
,
0001
0100
0010
0100
,
1000
0100
0001
1000
,
0001
0000
0100
0000
0010
0000
1000
0001
,
0100
0000
0010
1000
0001
0000
0100
1000
,
0001
0100
0020
0000
,
1030
0000
0001
0000
,
0010
0000
0100
1000
,
0001
0000
0100
0000
,
0010
1000
0002
0000
,
1003
0100
0010
1000
,
0001
0100
0010
1000
,
0001
1000
0001
0000
0100
0010
1000
0000
,
0001
0010
0100
1000
,
2002
0000
3003
0000
,
0010
0000
1000
0000
,
0001
0100
0010
0000
,
1000
0000
0001
0000
,
0010
0100
1000
0000
,
0001
0000
1000
0000
,
0001
0100
0010
0000
,
0001
0000
1000
0001
,
0200
0000
0310
0000
,
1000
0001
0100
0000
,
0010
0100
0001
0000
,
1000
0001
0100
0000
,
0010
1000
0001
0000
,
0100
0000
1000
0000
,
0001
0000
0010
0000
,
1000
0000
0001
0000
,
0100
0000
0010
0000
,
1001
0100
1000
0001
,
0100
0010
1000
0000
,
0001
0100
0010
1000
,
1001
0000
0110
0000
,
1001
0100
0010
0001
,
1000
0001
0100
0000
,
0010
1000
0001
0100
,
1000
0000
0001
0000
,
1001
0000
0100
0000
,
1000
0000
0001
0000
,
0100
0010
1000
0001
,
0100
0000
0010
0000
,
1000
0001
0100
0010
,
1000
0001
0100
0000
,
1000
0001
0100
0000
0010
1000
0001
0000
,
0100
0010
0001
0000
,
1001
0100
0010
1000
,
0001
0000
0000
0000
0100
0000
0010
1000
,
0001
0001
0100
0010
,
1000
0001
0100
0000
,
0010
1000
0001
0100
,
0010
1000
0001
0100
,
1000
0001
0100
0000
1000
0001
0100
0000
,
0010
1000
0001
0000
,
1001
0000
0000
0000
;

//--------------- dance-single - ----------------
#NOTES:
     dance-single:
     :
     Medium:
     12:
     0,0,0,0,0:
0000
0000
0000
0000
,
0000
0000
0000
0000
,
0000
0000
0000
0000
,
0000
0000
0000
0000
,
0000
0000
0000
0000
,
1000
0000
0001
0100
1000
0000
0001
1000
,
0010
0100
1000
0001
0010
0000
1000
0001
,
0100
0000
1000
0001
0100
0000
0010
0000
,
0200
0010
0310
0000
,
1000
0001
0100
0010
,
1000
0001
1000
0000
0100
0000
0010
1000
,
0001
0000
0010
0000
0100
0000
1000
0100
,
0001
0000
0100
0000
0010
1000
0100
0000
,
1000
0001
0100
0000
1000
0001
0100
0000
,
0010
0100
1000
0000
0001
0100
1000
0000
,
0001
1000
0001
0010
,
0100
1000
0001
0100
,
1001
0000
0100
1000
0010
0000
0100
0001
,
1000
0000
0001
1000
0100
0010
1000
0001
,
0100
0000
1000
0001
0100
0000
0010
0100
,
1000
0000
0001
0000
0100
1000
0001
0000
,
0100
0000
0010
1000
0001
0000
0100
0010
,
0100
0000
1000
0000
0001
0100
0010
0000
,
0001
0000
0010
0100
1000
0000
0001
0100
,
1000
0000
0001
0000
0100
0010
0100
0000
,
1001
0000
0110
0000
1000
0001
0100
0000
,
0010
0000
0100
0000
1000
0001
0100
0010
,
0100
0000
0110
0000
1000
0000
0001
0100
,
0010
0000
0100
0000
1000
0001
0100
1000
,
0001
0000
0010
1000
0100
0000
0001
0010
,
0100
0000
0010
1000
0001
0000
0100
1000
,
0010
0100
1000
0001
0100
0000
0010
0000
,
2000
0000
3001
0110
,
2000
0000
0000
3001
0100
0000
0010
0000
,
0200
0000
1300
0001
,
0020
0000
0000
0130
1000
0001
0000
0000
,
0100
0010
0200
0000
,
0310
0000
1000
0001
0000
0000
0100
1000
0000
0001
0000
0000
,
0010
0000
0100
1000
0000
0001
0000
0010
0000
0100
0000
0000
,
1000
0000
0000
0001
0000
0000
0010
0000
0000
0100
0000
0000
1000
0000
0001
0000
,
0100
0000
0010
0000
0100
1000
0001
0100
,
2000
0000
3000
0000
,
0001
0000
1000
0001
0100
0000
0010
0000
,
0100
1000
0001
0010
0100
0000
0010
0000
,
1000
0000
0001
0010
0100
0000
0001
0000
,
0010
0000
0100
1000
0001
0000
0100
0000
,
0010
0000
1000
0001
0010
0000
0100
0000
,
0001
0010
0100
1000
0001
0000
0010
0000
,
0100
0110
1100
0001
,
2002
3003
0220
0330
,
1000
0001
0100
0010
,
1000
0001
1000
0000
0100
0000
0010
1000
,
0001
0000
0010
0000
0100
0000
1000
0100
,
0001
0000
0010
0000
0001
1000
0100
0000
,
1000
0001
0010
0000
1000
0001
0010
0000
,
0001
0100
1000
0000
0001
0100
1000
0000
,
0001
1000
0001
0010
,
0100
1000
0001
0100
,
1001
1010
0001
0100
,
0010
0000
0000
0000
0100
0000
0000
0000
1000
0001
0000
0000
0001
0000
0100
0000
,
1000
1001
0101
0010
,
0100
0000
1000
0001
0100
0000
0020
0000
,
0130
1000
0001
1100
,
0010
0000
0000
0000
0100
0000
0000
0000
0001
0010
0000
0000
1000
0000
0001
0000
,
0100
0000
1000
0010
0001
0000
0100
0000
,
0001
1000
0001
0100
1000
0001
0020
0000
,
0130
0000
0000
0000
0000
0000
1000
0100
0001
0000
0000
0000
0001
1000
0010
0100
,
0010
0000
0000
0000
1001
0000
0000
0000
0100
0010
0000
0000
1000
0001
0000
0100
,
0000
0000
1000
0000
0000
0001
0000
0000
0010
0000
0100
1000
0000
0100
0000
0010
,
0001
0100
1000
0001
0100
0000
1000
0000
,
0001
1000
0001
0100
1000
0001
0010
0100
,
1000
0001
0010
0100
1000
0100
0001
0010
,
0100
0001
1000
0001
0100
1000
0001
0010
,
0200
0000
0310
0000
,
0010
0000
1000
0000
0010
0000
0100
0001
1000
0000
0100
0000
0010
0000
0001
0000
,
0100
0000
0010
0000
1000
0000
0010
0100
0001
0000
0010
0000
0100
0000
1000
0000
,
0010
0000
0100
0000
0001
0000
1000
0100
0010
0000
0001
0000
1000
0000
0001
0000
,
0100
0000
0010
0100
0000
0000
0100
0010
1000
0000
0010
0000
0001
0000
1000
0000
,
0001
0000
1000
0100
1000
0000
0010
0000
0100
0000
0001
0010
0100
0000
1000
0000
,
0001
0000
0100
0010
0100
0000
0001
0000
1000
0000
0001
0100
0010
0000
1000
0000
,
0001
1000
0001
0000
0010
0100
0010
0000
0001
0100
0010
0000
0001
0100
0010
1000
,
0001
0000
1000
0001
0000
1000
0001
0000
0220
0000
0000
0000
0330
0000
0000
0000
,
2002
0000
0000
3003
;

//--------------- dance-single - ----------------
#NOTES:
     dance-single:
     :
     Hard:
     16:
     0,0,0,0,0:
0000
0000
0000
0000
,
0000
0000
0000
0000
,
0000
0000
0000
0000
,
0000
0000
0000
0000
,
0000
0000
0000
0000
,
1000
0000
0000
0000
0001
0000
0100
0000
0010
0000
0000
0001
0100
0000
1000
0000
,
0001
0100
0010
0100
1000
0000
0001
0100
,
0010
0000
0100
1000
0001
0010
1000
0000
,
0200
0000
0310
0000
,
0010
0100
0010
0100
0010
1000
0100
0010
,
0001
1000
0010
1000
0001
0100
0010
1000
,
0100
0010
0100
1000
0001
1000
0010
1000
,
0010
0100
0010
1000
0001
0010
0001
0010
,
0001
1000
0100
1000
0010
1000
0010
0100
,
1000
0010
0001
0100
0001
0010
0100
0010
,
0001
0010
0100
1000
0010
1000
0010
0100
,
0001
0100
0001
1000
0010
0100
0010
0100
,
1001
0101
0110
0110
,
1100
0000
0000
0000
1100
0000
0000
0000
0110
0000
0000
0000
1001
0000
0100
0010
,
2000
0000
0000
0000
3010
0000
0100
0010
2000
0000
0000
0000
3001
0000
0010
0000
,
1000
0000
0000
0001
0020
0000
0000
0000
1030
0000
0100
0000
0001
0010
0001
0010
,
0001
0100
1000
0001
0100
0001
1000
0010
,
1000
0000
0100
0000
1000
0000
0001
0000
0100
0000
0001
0000
1000
0000
0010
0100
,
0002
0000
0000
0000
0013
0000
0100
1000
0010
0000
0100
0000
0010
0000
0001
0000
,
1000
0000
0010
0000
1000
0100
0001
0010
1000
0000
0010
0000
0100
0010
0001
0100
,
1000
0001
0010
0100
1000
0010
1000
0010
,
0100
0000
0010
0000
1000
0000
0100
0000
0010
0000
0001
0000
1000
0000
0010
1000
,
0100
0000
0001
0000
1000
0000
0100
0000
1000
0000
0010
0000
0100
0000
0001
1000
,
0010
0000
0001
0000
0010
0000
0100
0001
1000
0000
0001
1000
0010
0100
0001
0100
,
0010
0001
0100
0010
0100
0010
0100
0001
,
1000
0100
1000
0100
0010
0100
1000
0010
,
1000
0100
0010
0000
0100
1000
0001
0000
0100
0010
0001
0000
0010
1000
0100
0000
,
2000
0000
0000
0000
0000
0000
0000
0000
0000
0000
0000
0000
0000
0000
0000
0000
3001
0010
0100
0000
1000
0000
0100
0000
0010
0001
0100
0000
1000
0000
0100
0000
,
0020
0000
0000
0001
0032
0000
0000
2003
,
0000
3200
0302
0000
2003
3200
0000
0000
,
0320
0000
0032
2003
3200
0320
0000
0032
,
0000
2003
3200
0000
0320
0000
0000
0000
,
1030
0000
0010
1000
0000
0001
1000
0000
0001
0010
0000
0100
,
0001
1000
0001
0010
0100
1000
0100
0001
0010
0100
0000
1000
,
0001
0000
0000
0110
0000
0000
0100
0000
1000
0001
0000
1000
0001
0010
0100
1000
,
0001
0000
0100
0010
0000
1000
0001
0000
0100
0010
0000
1000
0001
0010
0001
0010
,
0200
0000
0000
0000
0010
0010
0000
0000
,
1300
0000
0010
1000
0001
0000
0010
0100
,
1000
0001
0010
0100
0001
0000
0010
0000
,
0100
0000
1000
0001
0010
0000
0100
0010
,
1000
0100
0010
0000
1001
0000
0000
0000
,
0001
0000
0000
0000
1000
0000
0010
0000
0100
0000
0000
1000
0010
0000
0001
0000
,
1000
0010
0100
0010
0001
0000
1000
0010
,
0100
0000
0010
0001
1000
0100
0001
0000
,
0020
0000
0130
0000
,
0100
0010
0100
0010
0100
0001
0010
0100
,
1000
0001
0100
0001
1000
0010
0100
0001
,
0010
0100
0010
0001
1000
0001
0100
0001
,
0100
0010
0100
0001
1000
0100
1000
0100
,
1000
0001
0010
0001
0100
0001
0100
0010
,
0001
0100
1000
0010
1000
0100
0010
0100
,
1000
0100
0010
0001
0100
0001
0100
0010
,
1000
0010
1000
0001
0100
0010
0100
0010
,
0101
0000
0000
0000
1100
0000
0000
1000
0100
0000
0010
0000
0001
0000
0100
0000
,
1000
0000
0100
0000
0001
0000
0000
1000
0100
0000
0001
0000
0100
0000
1000
0000
,
0010
0000
1000
0010
1000
0000
0001
0010
0001
0000
1000
0010
1000
0000
0001
0000
,
0010
0000
1000
0000
0010
0000
0001
0000
0100
0010
0100
0010
0000
0010
0100
0000
,
1001
0000
0000
0000
0011
0000
0000
0001
0010
0000
0100
0000
1000
0000
0010
0000
,
0001
0000
0010
0000
1000
0000
0000
0001
0010
0000
1000
0000
0010
0000
0001
0000
,
0100
0000
0001
0100
0001
0000
1000
0100
1000
0000
0001
0100
0001
0000
1000
0000
,
0000
0001
0100
1000
0100
0001
1001
0000
,
1010
0000
0000
0000
1000
0000
0100
0010
0001
0000
0100
0000
1000
0000
0100
0000
,
0001
0000
0010
0000
0100
0000
0000
0001
0100
0000
0010
0000
0001
0000
1000
0020
,
0000
0000
0032
0000
0000
0203
0000
0000
0302
0000
0000
1003
0100
0000
0001
1000
,
0010
0000
0000
1000
0010
0000
0100
0000
0001
0010
0100
1000
0000
0010
0100
0000
,
0001
0000
0010
0100
1000
0000
0010
0100
0001
0000
0010
0100
1000
0000
0010
0100
,
0001
0000
0010
0001
0100
0000
0010
1000
0100
0000
0010
0001
0100
0000
0010
1000
,
0100
0010
0100
0010
0001
0010
0001
0010
0001
0100
0001
0100
0010
1000
0010
1000
,
0010
0000
0000
0110
0000
0000
1001
0000
0100
0010
0001
0010
0200
0000
0000
0000
,
0310
0000
1000
0000
0010
0000
0100
0001
1000
0000
0100
0000
0010
0000
0001
0000
,
0100
0000
0010
0000
1000
0000
0010
0100
0001
0000
0010
0000
0100
0000
1000
0000
,
0010
0000
0100
0000
0001
0000
1000
0100
0010
0000
0001
0000
1000
0000
0001
0000
,
0100
0000
0010
0100
0000
0010
0100
0010
1000
0100
0010
0001
0010
0100
1000
0000
,
0001
0000
1000
0100
1000
0000
0010
0000
0100
0000
0001
0010
0100
0000
1000
0000
,
0001
0000
0100
0010
0100
0000
0001
0000
1000
0000
0001
0100
0010
0000
1000
0000
,
0001
1000
0001
1000
0010
0100
0010
0100
0001
0100
0010
1000
0001
0100
0010
1000
,
0001
0000
1000
0001
0000
1000
0001
0000
0220
0000
0000
0000
0330
0000
0000
0000
,
2002
0000
0000
3003
;
