
//----- song ID: amib -----//
#TITLE:Amazing Bomberman;
#ARTIST:TESSEI TOJO;
#GENRE:ミュージックガンガン;
#MUSIC:Amazing Bomberman.ogg;
#BANNER:Amazing Bomberman.png;
#BACKGROUND:Amazing Bomberman-bg.png;
#CDTITLE:./CDTitles/Music Gun Gun 3 -Shoot Away!-.png;
#SAMPLESTART:78.171;
#SAMPLELENGTH:15.000;
#SELECTABLE:YES;
#OFFSET:0.000;
#BPMS:0.000=87.500
,20.000=175.000
,84.000=87.500
,92.000=175.000
,140.000=87.500
,156.000=175.000
;
#STOPS:;
#BGCHANGES:;
#FGCHANGES:;

//--------------- dance-single - ----------------
#NOTES:
     dance-single:
     :
     Beginner:
     3:
     0,0,0,0,0:
0000
0000
0000
0000
,
0000
0000
0000
0000
,
0000
0000
0000
0000
,
0000
0000
0000
0000
,
0000
0000
0000
0000
,
1000
0000
0000
0000
,
0001
0000
0000
0000
,
0010
0000
0000
0000
,
0100
0000
0000
0000
,
0010
0000
0010
0000
,
0100
0000
0100
0000
,
1000
0001
1000
0001
,
0100
0000
0000
0000
,
1001
0000
0100
0000
,
0010
0000
0100
0000
,
1000
0000
0001
0000
,
0010
0000
0100
0000
,
1000
0000
0001
0000
,
0010
0000
0100
0000
,
1000
0000
0001
0000
,
0100
0010
0001
0000
,
1000
0000
0000
0000
,
0001
0000
0000
0000
,
0010
0000
0100
0000
,
0010
0000
1000
0000
,
0001
0000
1000
0000
,
0001
0000
0000
0000
,
0010
0000
0100
0000
,
1000
0000
0001
0000
,
0010
0000
0100
0000
,
0010
0000
1000
0000
,
0001
0000
1000
0000
,
0001
0000
0010
0000
,
1000
0100
0010
0001
,
0100
0000
0000
0000
,
1001
0000
0000
0000
,
1001
0000
0000
0000
,
0110
0000
0000
0000
,
0110
0000
0000
0000
,
1000
0000
0000
0000
,
1000
0000
0000
0000
,
0001
0000
0000
0000
,
0001
0000
0000
0000
,
0010
0000
0000
0000
,
0100
0000
0000
0000
,
0010
0000
0100
0000
,
0010
0100
0010
0000
,
1000
0000
0001
0000
,
0100
0000
1000
0100
,
0010
0000
0001
0000
,
0010
0000
1000
0001
,
0100
0000
0010
0000
,
0100
0000
1000
0000
,
0001
0000
0100
0000
,
0010
0000
0100
0000
,
0010
0000
0000
0000
,
1000
0000
0000
0000
,
0001
0000
0000
0000
,
0010
0000
0000
0000
,
0100
0000
1000
0000
,
0001
0000
0100
0000
,
0010
0000
1000
0000
,
0001
0100
0010
0000
,
1000
0000
0000
0000
,
0001
0000
0000
0000
,
0100
0000
0000
0000
,
0010
0000
0000
0000
,
0100
0000
0000
0000
,
0010
0000
0000
0000
,
1000
0000
0001
0000
,
0010
0100
1000
0000
,
1001
0000
0000
0000
;

//--------------- dance-single - ----------------
#NOTES:
     dance-single:
     :
     Easy:
     6:
     0,0,0,0,0:
0000
0000
0000
0000
,
0000
0000
0000
0000
,
0000
0000
0000
0000
,
0000
0000
0000
0000
,
0000
0000
0000
0000
,
1000
0000
0001
0000
,
0100
0000
0010
1000
,
0001
0000
0100
0000
,
1000
0000
0001
0100
,
0010
1000
0001
0100
,
0010
0100
1000
0001
,
0100
0010
1000
0001
,
2000
0000
3000
0000
,
0001
0000
0100
0000
,
0010
0100
0001
1000
,
0001
0000
0100
0000
,
0010
0100
0001
1000
,
0001
0000
0100
0000
,
0010
1000
0001
0000
,
0100
0000
0010
0000
,
0002
0000
0003
0000
,
1000
0000
0010
0100
,
0010
0000
1000
0001
,
0100
1000
0001
0000
,
0100
0010
1000
0000
,
0001
0010
0100
1000
,
1001
0000
0010
0000
,
0100
1000
0001
0000
,
0100
0010
1000
0000
,
0001
1000
0001
0000
,
0010
0100
0001
1000
,
0001
0100
0010
1000
,
0001
0100
0010
1000
,
0001
0100
0010
1000
,
0200
0000
0300
0000
,
1001
0100
0010
1000
,
0110
0001
0010
0100
,
0101
1000
0001
0010
,
1010
0000
0001
0000
1000
0001
0100
1000
,
0010
0100
1000
0100
,
0001
1000
0001
0010
,
0100
0010
1000
0010
,
0001
0100
1000
0010
,
0001
0100
1000
0100
,
0010
0001
0100
0001
,
1000
0001
0100
0000
0010
1000
0001
0000
,
0110
0100
1000
0110
,
1001
0100
1000
0001
,
0100
0010
1000
0000
,
0001
0100
0001
0010
,
0100
1000
0001
0000
,
0010
1000
0001
0100
,
0010
1000
0001
0000
,
1000
0001
0100
0010
,
1000
0001
0100
0000
,
0002
0000
0003
0000
,
2000
0000
3000
0000
,
0010
0000
0100
0000
,
0010
1000
0001
0000
,
0010
0000
0100
0000
,
0010
0000
1000
0001
,
0100
0000
0010
0000
,
0001
0010
0100
1000
,
0001
0000
0100
0000
,
0010
1000
0001
0000
,
0010
0000
0100
0000
,
1000
0001
0100
0000
,
0010
0100
0010
0000
,
1000
0001
0100
0000
,
0001
0010
0100
1000
,
0001
1000
0001
1000
,
2002
0000
0000
0000
,
0000
0000
0000
0000
,
3003
0000
0000
0000
;

//--------------- dance-single - ----------------
#NOTES:
     dance-single:
     :
     Medium:
     9:
     0,0,0,0,0:
0000
0000
0000
0000
,
0000
0000
0000
0000
,
0000
0000
0000
0000
,
0000
0000
0000
0000
,
0000
0000
0000
0000
,
1000
0001
0010
0000
1000
0000
0001
0000
,
0100
0000
1000
0000
0001
0100
0010
0000
,
1000
0000
0001
0000
0100
1000
0001
0000
,
0100
0000
0010
0000
1000
0001
0100
0000
,
0010
0100
1000
0001
,
0100
0010
1000
0001
,
0100
1000
0001
0100
0010
0100
1000
0001
,
0020
0000
0030
0000
,
1001
0000
0100
0000
1000
0001
0100
0000
,
0010
0000
0100
0000
1000
0001
0100
0000
,
0010
0000
0001
0000
1000
0001
0100
0000
,
0010
1000
0001
0100
0020
0000
0130
0000
,
1000
0000
0001
0000
0010
0100
1000
0000
,
0001
0000
0100
0000
0001
0010
0100
0000
,
0001
1000
0001
0000
0100
1000
0001
0000
,
0100
0010
1000
0001
,
1000
0000
0001
0000
0100
1000
0001
0000
,
0010
0000
0100
0000
0001
0010
0100
0000
,
1000
0001
0100
0010
,
1000
0001
0100
0010
,
1000
0001
0010
0000
0100
1000
0001
0000
,
0010
0100
2000
3000
,
0001
0100
1000
0001
,
0100
0010
0100
0001
,
1000
0010
1000
0001
,
0100
0000
1000
0000
0001
0100
1000
0000
,
0001
0010
0100
0001
,
1000
0001
0100
0010
,
1000
0001
0100
0000
0010
1000
0001
0000
,
0001
0010
0100
1000
0002
0000
1003
0000
,
2002
3003
0200
0300
,
0220
0330
0002
0003
,
2000
3000
0200
0300
,
0002
0003
2000
3000
,
0001
0010
0100
0001
,
1000
0000
0001
0000
0100
1000
0001
0000
,
0100
0010
0001
1000
,
0001
0000
0100
0000
0010
1000
0001
0000
,
0100
1000
0001
0000
0100
0010
0100
0000
,
0001
0100
1000
0000
0001
0010
0100
0000
,
1001
0110
0011
0110
,
2002
0000
3003
0000
,
0001
0010
0100
0001
,
1000
0000
0001
0000
0100
1000
0001
0000
,
0100
0010
0100
1000
,
0001
0000
0100
0000
0010
1000
0001
0000
,
0010
0100
0001
1000
,
0100
0000
0010
0000
0100
0001
1000
0000
,
0010
0100
1000
0001
,
0100
1000
0001
0100
0010
1000
0001
0000
,
0010
0000
0100
0000
0001
1000
0001
0000
,
0100
0000
0010
0000
1000
0001
0010
0000
,
0100
0000
0001
0000
0010
0100
1000
0000
,
0001
0000
0010
0000
0100
1000
0001
0000
,
0100
0010
0001
1000
,
0001
0000
0100
0000
0010
0100
1000
0000
,
0001
0100
0010
0100
,
1000
0001
0010
0100
1000
0000
0001
0000
,
0100
0010
0001
0010
,
0100
0000
1000
0000
0001
0100
0010
0000
,
1000
0001
0100
0010
,
1000
0000
0001
0000
0100
1000
0001
0000
,
0100
1000
0001
0000
0100
0010
1000
0000
,
0001
0100
1000
0000
0001
0010
0100
0000
,
0001
1000
0001
0100
,
0010
1000
0001
0100
,
2002
0000
0000
0000
,
0000
0000
0000
0000
,
3003
0000
0000
0000
;

//--------------- dance-single - ----------------
#NOTES:
     dance-single:
     :
     Hard:
     15:
     0,0,0,0,0:
0000
0000
0000
0000
,
0000
0000
0000
0000
,
0000
0000
0000
0000
,
0000
0000
0000
0000
,
0000
0000
0000
0000
,
1000
0001
0100
0000
0010
0100
0000
1000
,
0000
0010
1000
0000
0001
0010
0100
1000
,
0001
0100
0010
0000
1000
0001
0000
0100
,
0000
1000
0001
0100
0010
1000
0001
0010
,
0100
1000
0001
0010
0100
0010
1000
0001
,
0100
0010
0100
1000
0001
0100
1000
0001
,
0010
1000
0010
0000
0100
0001
0100
0000
1000
0010
1000
0000
0010
0100
0010
1000
,
0002
0000
0000
1003
,
0200
0000
0301
1000
0001
0010
2000
0000
,
3001
0000
0000
1000
0000
0000
0010
0000
1000
0001
1000
0000
0020
0000
0000
0000
,
0130
0000
0000
1000
0000
0000
0001
0000
0100
0000
1000
0000
0002
0000
0000
0000
,
2003
0000
0000
0000
3010
0000
0001
0010
0100
0000
0000
0000
1001
0000
0000
0000
,
2000
0000
0000
0000
3001
0000
0010
0000
0100
1000
0100
0000
0001
0000
0000
0000
,
1000
0000
0100
0000
0010
0000
0001
0000
0100
0010
1000
0000
0002
0000
0000
0000
,
1003
0100
0001
1000
0010
0100
0001
1000
,
0001
0100
0010
1000
0010
1000
0100
0010
0100
1000
0010
1000
0100
0010
0001
1000
,
0100
0000
0001
0000
1000
0000
0110
0000
0001
0000
0010
0000
1000
0100
0001
0000
,
0100
0000
0010
0000
0010
0000
1001
0000
0100
0000
0010
0000
1000
0100
0001
0000
,
0100
1000
0001
0000
0010
0100
0000
0010
,
0000
0001
1000
0000
0001
0100
0010
1000
,
0001
0000
0100
0000
1000
0000
0001
0000
0100
0000
0010
0000
0100
0001
1000
0000
,
0001
1000
0000
1000
0001
0000
0100
0000
0020
0000
0000
0000
0030
0000
0000
0000
,
1001
0000
0000
0101
0000
0000
0110
0000
0000
1000
0000
0000
0001
0000
0010
0000
,
1000
0000
0000
0010
0000
0000
0001
0000
1000
0000
0010
0000
0100
0000
0001
0000
,
0110
0000
0000
1001
0000
0000
0011
0000
1000
0000
0100
0000
0001
0000
0100
0000
,
1000
0000
0000
0011
0000
0000
1010
0000
0001
0000
0100
0000
1000
0000
0010
0000
,
1001
0000
0000
0101
0000
0000
0110
0000
0000
1000
0000
0000
0001
0000
0010
0000
,
1000
0000
0000
0010
0000
0000
0001
0000
1000
0000
0010
0000
0100
0000
0001
0000
,
0100
0010
0001
0000
1000
0010
0001
0000
1000
0001
0100
0000
0001
0010
0100
0001
,
1000
0001
0020
0230
0302
0000
1003
0000
,
2000
0000
3002
0203
,
2300
0000
3002
0023
,
0230
0302
2003
3002
,
1003
0000
0000
0000
0010
0000
0000
0000
1000
0000
0001
0000
0100
1000
0001
0000
,
0100
0001
0010
0000
1000
0001
0000
0100
,
0000
0010
0100
0000
1000
0001
0010
0100
,
1000
0001
0010
0000
0100
0001
0000
1000
,
0000
0001
0100
0000
0010
1000
0001
0100
,
1000
0010
0001
1000
0001
0100
0010
0100
,
1000
0001
0010
0100
1000
0010
1000
0001
,
0010
1000
0100
0000
0001
0100
0001
0000
0010
0100
1000
0000
0001
0100
0010
1000
,
0002
0000
2003
3000
1001
0000
0110
0000
,
1001
0110
0011
0110
,
1010
0000
0010
0100
1000
0001
0010
0000
,
0101
1010
0101
0101
,
0110
0000
1010
0010
0100
0010
0100
0000
,
1001
0000
0000
0010
0100
0000
0000
0010
0001
0000
0000
1000
0100
0000
0000
0000
,
1010
0000
0110
0010
0100
1000
0001
0000
,
0010
1000
0001
0100
0010
0100
1000
0010
,
0001
0010
0001
0010
0001
0010
0001
0010
0100
1000
0100
1000
0100
1000
0100
1000
,
0100
0000
0001
0000
0010
0000
1000
0000
0001
0010
0100
1000
0010
0000
0100
0000
,
1000
0000
0001
0000
0100
0000
0010
0000
0100
0010
1000
0100
0001
0000
0010
0000
,
0100
0000
0010
0000
0100
0000
1000
0000
0001
0010
0100
1000
0010
0000
0100
0000
,
1000
0000
0001
0000
0010
0000
0100
0000
1000
0010
0001
0100
0010
0000
0000
0000
,
0100
0001
1000
0100
0001
0000
0010
0000
0100
0001
0010
1000
0100
0000
1000
0000
,
0010
0100
0001
0010
0100
0000
0010
0000
0100
0000
1000
0000
0001
0000
0010
0000
,
1000
0100
0010
0100
0001
0000
0010
0000
0100
1000
0100
0010
0001
0000
0100
0000
,
0010
1000
0010
0000
0100
0001
1000
0000
0100
0010
0001
0000
1000
0000
0100
0001
,
1000
0000
0000
0101
0000
0000
0100
0000
0001
0000
0100
0000
0001
0000
0010
0000
,
1000
0000
0000
0010
0000
0000
0001
0000
1000
0000
0010
0000
0100
0000
0001
0000
,
0110
0000
0000
1001
0000
0000
0011
0000
1000
0000
0100
0000
0001
0000
0100
0000
,
1000
0000
0000
0011
0000
0000
1010
0000
0001
0000
0100
0000
1000
0000
0010
0000
,
1001
0000
0000
0101
0000
0000
0110
0000
0001
0000
1000
0000
0001
0000
0010
0000
,
1000
0000
0000
0010
0000
0000
0001
0000
1000
0000
0010
0000
0100
0000
0001
0000
,
0100
1000
0100
1000
0100
1000
0100
0010
0100
0010
0001
0010
0001
0010
0001
0010
,
0001
0010
0001
0010
0001
0010
0001
0010
,
2002
0000
0000
0000
,
0000
0000
0000
0000
,
3003
0000
0000
0000
;
