
//----- song ID: alic -----//
#TITLE:愛縁ラビリンス;
#ARTIST:なうふぃ feat.はらもりよしな;
#TITLETRANSLIT:Aien Labyrinth;
#ARTISTTRANSLIT:Naufy feat. Haramori Yoshina;
#GENRE:ナムコオリジナル;
#MUSIC:Aien Labyrinth.ogg;
#BANNER:Aien Labyrinth.png;
#BACKGROUND:Aien Labyrinth-bg.png;
#CDTITLE:./CDTitles/NSD A3.png;
#SAMPLESTART:43.670;
#SAMPLELENGTH:15.000;
#SELECTABLE:YES;
#OFFSET:-0.000;
#BPMS:0.000=125.000
,92.000=250.000
,156.000=125.000
,188.000=250.000
;
#STOPS:;
#BGCHANGES:;
#FGCHANGES:;

//--------------- dance-single - ----------------
#NOTES:
     dance-single:
     :
     Beginner:
     3:
     0,0,0,0,0:
0000
0000
0000
0000
,
0000
0000
0000
0000
,
0000
0000
0000
0000
,
0000
0000
0000
0000
,
0000
0000
0000
0000
,
0000
0000
0000
0000
,
0001
0010
0100
0000
,
1000
0001
0100
0000
,
0010
0100
1000
0000
,
1001
0000
0100
0000
,
0001
0010
0100
0000
,
1000
0100
0010
0000
,
0010
0100
1000
0000
,
1001
0000
0000
0000
,
0010
0000
0100
0000
,
1000
0100
0010
0000
,
0001
0000
0010
0000
,
0100
1000
0001
0000
,
0100
0000
0010
0000
,
1000
0001
0100
0000
,
0010
0000
0100
0000
,
0010
0100
1000
0000
,
2002
0000
0000
3003
,
0010
0000
0100
0000
,
0010
0000
0001
0000
,
1000
0000
0001
0000
,
0100
0000
0010
0000
,
2000
0000
3000
0000
,
0002
0000
0003
0000
,
0010
0000
0100
0000
,
1001
0000
0000
0000
,
0100
0000
0010
0000
,
1000
0000
0000
0000
,
0001
0000
0100
0000
,
0010
0000
0000
0000
,
0200
0000
0300
0000
,
0020
0000
0030
0000
,
1000
0000
0001
0000
,
0100
0000
0000
0000
,
0010
0000
0000
0000
,
0100
0000
0000
0000
,
0001
0000
1000
0000
,
0001
0000
0100
0000
0100
0100
0001
0000
,
1001
0000
0100
0000
,
0010
0001
0010
0000
,
0100
0000
1000
0000
,
0001
0000
0100
0000
,
1001
0000
0000
0000
,
0100
0000
0000
0000
,
0001
0000
0000
0000
,
1000
0000
0000
0000
,
0001
0000
0000
0000
,
0100
0000
0000
0000
,
0010
0000
0100
0000
,
0010
0000
0000
0000
,
2002
0000
0000
0000
,
0000
0000
3003
0000
,
0110
0000
1000
0000
,
0001
0000
0000
0000
,
0100
0000
0010
0000
,
0001
0000
0000
0000
,
0020
0000
0030
0000
,
0200
0000
0300
0000
,
1000
0000
0001
0000
,
0100
0000
0000
0000
,
0010
0000
0001
0000
,
0010
0000
0000
0000
,
1000
0000
0001
0000
,
0100
0000
0000
0000
,
2000
0000
3000
0000
,
0002
0000
0003
0000
,
0100
0000
0010
0000
,
1000
0000
0000
0000
,
0100
0000
0000
0000
,
0010
0000
0000
0000
,
0001
0000
1000
0000
,
0001
0000
0000
0000
,
0100
0000
0000
0000
,
0010
0000
0000
0000
,
0100
0000
1000
0000
,
0001
0000
0000
0000
,
0100
0000
0000
0000
,
0010
0000
0000
0000
,
0010
0000
0100
0000
,
1000
0000
0000
0000
,
0001
0000
0000
0000
,
0100
0000
0000
0000
,
1001
0000
0000
0000
,
0000
0010
0100
0000
;

//--------------- dance-single - ----------------
#NOTES:
     dance-single:
     :
     Easy:
     8:
     0,0,0,0,0:
0000
0000
0000
0000
,
0000
0000
0000
0000
,
0000
0000
0000
0000
,
0000
0000
0000
0000
,
0000
0000
0000
0000
,
0000
0000
0000
0000
,
1001
0000
0100
0000
0010
0100
1000
0000
,
0001
0000
0100
0000
0010
0001
0100
0000
,
0010
0000
0100
0000
1000
0010
0001
0000
,
0100
0000
0010
0000
0100
0100
0001
0000
,
0100
0000
1000
0000
0001
0010
0100
0000
,
0001
0000
0010
0000
0001
1000
0010
0000
,
0100
1000
0001
0100
,
0110
0000
0000
0000
0000
0100
0110
0000
,
1000
0000
0100
0000
0010
1000
0001
0000
,
0010
0000
0100
0000
0010
0001
1000
0000
,
0001
0100
0010
0100
,
1000
0010
0001
0000
0100
0000
0010
0000
,
1000
1000
1000
0000
0010
0000
1000
0000
,
0001
0010
0100
0000
0010
0000
1000
0000
,
0001
0001
0001
0000
0100
0000
1000
0000
,
0001
0100
0010
0000
0100
0000
0010
0000
,
2000
0001
0100
3010
,
1000
0000
0001
0000
,
0100
0010
1000
0000
,
0001
0000
0100
0000
,
0010
1000
0001
0000
,
0200
0000
0310
0000
,
0020
0000
0130
0000
,
1000
0000
0001
0000
,
0110
0000
1000
0001
,
0100
0000
0010
0000
,
0100
1000
0001
0000
,
0100
0000
0010
0000
,
0001
1000
0001
0000
,
0002
0010
1003
0000
,
0200
0010
0301
0000
,
1000
0001
0100
0000
,
0010
0000
0100
0000
,
1001
0000
0000
0000
0000
0000
0000
0100
,
0001
0000
0000
0000
0000
0000
0000
0001
,
1000
0100
0010
1000
,
0001
0000
0000
0000
0100
0100
0001
0000
,
1001
0000
0100
0000
1000
0001
0100
0000
,
0010
0000
1000
0000
0001
0100
0010
0000
,
0100
1000
0001
0100
,
0010
1000
0001
0000
0100
0000
0010
0000
,
1000
1000
1000
0000
,
0001
0000
0100
0000
,
0010
0100
1000
0000
,
0001
0000
0100
0000
,
0010
0100
1000
0000
,
0001
0000
0100
0000
,
0010
0000
0001
0000
,
0010
0100
1000
0000
,
0002
0000
0100
0000
,
0010
0000
1003
0000
,
1001
0000
0100
0000
,
0010
1000
0001
0000
,
0100
0010
1000
0001
,
0100
0000
0010
0000
,
0020
1000
0031
0000
,
0002
0010
1003
0000
,
0010
0100
1000
0000
,
0001
1000
0001
0000
,
0110
0000
1000
0000
,
0001
0100
0010
0000
,
0100
0000
1000
0001
,
0100
0000
0010
0000
,
2000
0100
3010
0000
,
0002
0010
0103
0000
,
0010
1000
0001
0000
,
0100
0000
0000
0000
,
0010
0000
1000
0000
,
0001
0100
0010
0000
,
1000
0001
0100
0000
,
0010
0100
1000
0000
,
0001
0000
0100
0000
,
0010
0001
0010
0000
,
0100
1000
0001
0100
,
0010
0000
1000
0000
,
0001
0100
0010
0000
,
1000
0000
0001
0000
,
0100
0010
0100
1000
,
0001
0000
0100
0000
,
0010
0100
1000
0001
,
0100
0000
0010
0000
,
0100
0000
0000
0000
,
0000
1001
0110
0000
;

//--------------- dance-single - ----------------
#NOTES:
     dance-single:
     :
     Medium:
     13:
     0,0,0,0,0:
0000
0000
0000
0000
,
0000
0000
0000
0000
,
0000
0000
0000
0000
,
0000
0000
0000
0000
,
0000
0000
0000
0000
,
0000
0000
0000
0000
,
1000
0001
0100
0010
0100
1000
0001
0000
,
0100
1000
0001
0100
0010
0100
1000
0000
,
0001
0100
0010
0100
1000
0001
0100
0000
,
0110
0000
1000
0000
0001
0100
0010
0000
,
1000
0001
0100
0010
0100
0000
1000
0000
,
0001
0100
0010
0100
1000
0001
0010
0000
,
0100
0010
0100
1000
0001
0100
0010
0000
,
1001
0000
0000
0000
0000
0110
1001
0000
,
0100
0001
1000
0010
0001
0100
0010
0100
,
1000
0001
0100
0010
0001
0100
1000
0000
,
0101
0000
1001
0010
0100
1000
0001
0100
,
0010
0100
1000
0001
0100
0010
0100
0001
,
1000
1000
1000
0001
0100
0010
0100
1000
,
0001
0100
0010
0100
1000
0001
0100
0010
,
0001
0001
0001
0100
1000
0001
0010
0100
,
1000
0001
0100
0010
0100
1000
0001
0010
,
0022
0033
0220
0330
2020
3030
0220
0330
,
0001
0100
0001
0100
,
0001
0000
0010
1000
0000
0100
0010
0000
0000
0100
0000
0000
,
0001
1000
0100
0010
,
0100
0000
0010
1000
0000
0010
0001
0000
0000
0010
0000
0000
,
0020
1000
0130
0010
,
0200
0010
0301
0100
,
0010
0000
1000
0100
0000
0010
0001
0000
0100
1000
0000
0000
,
0010
0000
0000
0100
0000
0000
0001
0000
1000
0010
0000
0000
,
0101
0000
0000
1000
0000
0000
0001
0000
0000
0010
0000
1000
,
0100
0000
0000
0010
0000
0000
0001
0000
0100
1000
0000
0000
,
0001
0000
0000
0100
0000
0000
0001
0000
0100
0010
0000
0000
,
0100
0000
0000
1000
0000
0001
0010
0000
0000
0100
0000
0000
,
0002
0100
0013
0100
,
2000
0010
3001
1000
,
0100
0000
0001
0010
0000
0000
0001
0000
0100
1000
0000
0000
,
0010
0000
0100
1000
0000
0000
0010
0000
0000
1000
0000
0000
,
1002
0000
0000
0000
0000
0000
0000
0100
,
0023
0000
0000
0000
0000
0000
0000
0130
,
1000
0010
0001
0010
0100
1000
0001
1000
,
0110
0000
0000
0000
0100
0100
0001
0000
,
0100
1000
0010
0100
0001
0010
0001
1000
,
0001
0100
0010
1000
0001
1000
0010
1000
,
0100
0010
0100
1000
0010
1000
0001
0010
,
0001
1000
0010
1000
0100
0010
0001
0000
,
0100
0100
1000
0001
,
0100
0000
0001
0010
0000
1000
0100
0000
0000
1000
0000
0000
,
0001
0100
0010
0001
,
0010
0000
1000
0100
0000
0010
0001
0000
1000
0100
0000
0001
,
0010
0100
1000
0001
,
0100
0000
1000
0010
0000
0001
0100
0000
0000
1000
0000
0000
,
0001
0000
0000
0100
0000
1000
0010
0000
0100
0001
0000
0000
,
0010
0000
0000
0100
0000
0000
0010
0000
1000
0010
0000
0000
,
0202
0303
2020
3030
,
0220
0330
0001
0000
,
1000
0010
1000
0010
,
1000
0000
0100
0001
0000
0010
0100
0000
0000
0010
0000
0000
,
1000
0000
0100
0001
0000
0000
0010
0000
1000
0100
0000
0000
,
0010
0000
0100
0001
0000
0100
1000
0000
0000
0100
0000
0000
,
0200
0001
0310
0100
,
0020
0100
1030
0010
,
0100
0000
0001
0010
0000
0100
1000
0000
0010
0001
0000
0000
,
0100
0000
1000
0010
0000
0000
1000
0000
0001
0100
0000
0000
,
1010
0000
0000
0001
0000
0000
1000
0000
0010
0100
0000
0001
,
0010
0000
0000
0100
0000
0000
1000
0000
0010
0001
0000
0000
,
1000
0000
0100
0010
0000
0000
1000
0000
0010
0100
0000
0001
,
0010
0000
0000
0001
0000
1000
0100
0000
0000
0010
0000
0000
,
2000
0010
3100
0010
,
0002
0100
1003
0001
,
0010
0000
1000
0100
0000
0000
1000
0000
0010
0001
0000
0000
,
0100
0000
0010
0001
0000
0000
0100
0000
1000
0001
0000
0000
,
0100
0000
0000
1000
0000
0000
0010
0000
0001
0100
0000
0000
,
0010
0000
0000
0100
0000
1000
0010
0000
0000
1000
0000
0000
,
0001
0000
0010
1000
0000
0000
0001
0000
0100
1000
0000
0000
,
0010
0000
1000
0100
0000
0000
0010
0000
0001
1000
0000
0000
,
0010
0000
0001
0100
0000
0000
0001
0000
1000
0100
0000
0000
,
0001
0000
0010
0100
0000
0000
0010
0000
0100
1000
0000
0000
,
0010
0000
0000
0100
0000
0001
0010
0000
0000
0100
0000
1000
,
0001
0000
0000
0100
0000
0010
0001
0000
0100
0010
0000
1000
,
0100
0000
0000
1000
0000
0000
0010
0000
0001
1000
0000
0000
,
0001
0000
0010
0100
0000
1000
0001
0000
0000
1000
0000
0010
,
0001
0000
0000
0010
0000
1000
0100
0000
0000
0010
0000
0001
,
0100
0000
0010
1000
0000
0100
0010
0000
0000
0100
0000
0001
,
0010
0000
0000
1000
0000
0000
0100
0000
0001
1000
0000
0000
,
0100
0000
1000
0010
0000
0000
0100
0000
0001
0010
0000
0000
,
1001
0000
0000
0000
,
0000
0110
1001
0000
;

//--------------- dance-single - ----------------
#NOTES:
     dance-single:
     :
     Hard:
     17:
     0,0,0,0,0:
0000
0000
0000
0000
,
0000
0000
0000
0000
,
0000
0000
0000
0000
,
0000
0000
0000
0000
,
0000
0000
0000
0000
,
0000
0000
0000
0000
,
1001
0000
0000
0100
0000
0000
0010
0000
0000
1000
0000
0000
0100
0000
1000
0001
0000
0010
0001
0000
0100
1000
0000
0001
,
0010
0000
0000
0101
0000
0000
0010
0000
0000
1001
0000
0000
0100
0000
0001
1000
0000
0001
0100
0000
0001
1000
0000
0100
,
0010
0000
0000
1100
0000
0000
0010
0000
0000
0101
0000
0000
0001
0000
0010
0100
0000
1000
0010
0000
0001
1000
0000
0010
,
0100
0000
0000
1010
0000
0000
0100
0000
0000
0011
0000
0000
0001
0000
0010
0100
0000
0001
0010
0000
1000
0100
0000
0001
,
0010
0000
0000
1001
0000
0000
0010
0000
0000
0110
0000
0000
0001
0000
1000
0010
0000
0100
0001
0000
0100
1000
0000
0001
,
0100
0000
0000
1010
0000
0000
0100
0000
0000
1001
0000
0000
0001
0000
0010
1000
0000
0001
0100
0000
0001
0010
1000
0000
,
0100
0000
0000
1010
0000
0000
0001
0000
0000
1100
0000
0000
0100
0000
1000
0010
0000
0001
0100
0000
0001
0010
0000
0100
,
1000
0000
0000
0000
0000
0001
1000
0000
0000
0010
0000
0000
0100
0000
0000
0010
0000
0000
1001
0000
0000
0000
0000
0000
,
1010
0000
0000
0100
0000
1000
0001
0000
0000
0010
0000
0000
0001
0000
0000
0010
0000
0001
0100
0000
0000
1000
0000
0000
,
0100
0000
0000
0010
0000
0001
0100
0000
0000
1000
0000
0000
0010
0000
0001
0100
0000
1000
0001
0000
0000
0010
0000
0000
,
0101
0000
0000
1000
0000
0000
0010
0000
0000
1000
0000
0001
0010
0000
0000
0100
0000
0000
0001
0000
0000
0100
0000
0010
,
0001
0000
0000
0010
0000
0100
0001
0000
0000
1000
0000
0100
0010
0000
0000
1000
0000
0010
0001
0000
0100
1000
0000
0001
,
0100
0000
0000
0100
0000
0000
0100
0000
0000
1000
0000
0100
0010
0000
0001
0100
0000
1000
0010
0000
0000
1000
0000
0001
,
0100
0000
0000
0010
0000
0001
0100
0000
0000
0010
0000
0001
0100
0000
0000
1000
0000
0000
0010
0000
0001
1000
0000
0100
,
0010
0000
0000
0100
0000
0000
0010
0000
0100
1000
0000
0010
0001
0000
0010
1000
0000
0001
0100
0000
0000
1000
0000
0000
,
0100
0000
1000
0010
0000
0100
0001
0000
0000
0100
0000
0001
0010
0000
0001
0100
0000
1000
0010
0000
0000
0100
0000
0010
,
0200
0001
2300
0001
3020
1000
0130
0100
,
1010
0000
0001
0100
0001
0010
0001
0100
,
0010
0100
0001
1000
0010
1000
0100
1000
,
0001
0010
0100
1000
0010
0100
0001
0100
,
0001
0100
0010
1000
0001
1000
0100
1000
,
0001
0000
0000
0000
1000
0000
0010
0000
0000
0000
0100
0000
0001
0000
0000
1000
0000
0000
0010
0000
0000
0100
0000
0000
,
0010
0000
0000
0000
0100
0000
0001
0000
0000
0000
1000
0000
0100
0000
0000
0010
0000
0000
0100
0000
0000
1000
0000
0000
,
0001
0000
0000
0000
0100
0000
0001
0000
0000
0000
1000
0000
0010
0000
0000
0000
0100
0000
0010
0000
0000
1000
0000
0000
,
0100
0000
0000
0010
0000
0000
0100
0000
0000
0000
1000
0000
0001
0000
0000
0000
1000
0000
0100
0000
0000
0000
0001
0000
,
0010
1000
0010
0100
0010
1000
0001
1000
,
0100
0000
0000
0000
0010
0000
0001
0000
0000
0000
1000
0000
0010
0000
0000
1000
0000
0000
0001
0000
0000
0000
0010
0000
,
0100
0010
0001
1000
0010
1000
0001
1000
,
0100
0010
0001
1000
0001
0100
0001
0100
,
0010
0000
0000
0000
0100
0000
0010
0000
0000
0000
1000
0000
0010
0000
0000
1000
0000
0000
0001
0000
0000
0000
0010
0000
,
0001
0000
0000
0000
0100
0000
0001
0000
0000
0100
0000
0000
0010
0000
0000
1000
0000
0000
0010
0000
0000
0000
1000
0000
,
0010
0000
0100
0001
0000
1000
0010
0000
0100
0001
0000
1000
,
0100
0010
0100
1000
0010
1000
0010
0100
,
0002
0010
1000
0010
0100
0100
0010
1000
,
0203
0010
0010
0001
0001
0010
0010
0001
,
0320
1030
0200
0301
0020
1030
0200
0301
,
0020
0000
0000
0000
0000
0000
1000
0000
0000
0000
0000
0000
1030
0100
1000
0100
1000
0100
1000
0000
0000
0001
0010
1000
,
0100
0000
0000
0010
0000
0000
0100
0001
1000
0010
0001
1000
0100
0000
0000
1000
0010
0000
0001
0000
0000
1000
0100
0001
,
0010
0000
0000
1000
0000
0001
0100
0000
0000
0010
0000
0000
0001
0000
0100
1000
0000
0000
0001
0000
1000
0010
0000
0000
,
0001
0000
1000
0010
0000
0001
0100
0000
0001
1000
0000
0010
0100
0000
0001
1000
0000
0000
0001
0010
0100
1000
0001
0010
,
0100
0000
0000
0010
0000
0000
0100
0000
0000
0010
0000
0000
0001
0000
0010
1000
0000
0000
0100
0010
0001
1000
0100
0010
,
0002
0000
0000
0023
0000
0000
2030
0000
0000
3100
0000
0001
,
0010
0000
0100
1000
0000
0001
0200
0000
0000
1300
0000
0000
,
0100
0000
0010
0001
0000
0000
0100
0000
1000
0010
0000
0000
,
0100
0000
0001
1000
0000
0000
0010
0000
1000
0100
0000
0010
,
0002
0000
0000
0203
0000
0000
2300
0000
0000
3010
0000
0001
,
0100
0000
1000
0010
0000
0100
0220
0000
0000
0330
0000
0000
,
1000
0000
0100
0010
0000
0100
1000
0000
0001
0100
0000
0000
,
0101
0000
0000
0100
0000
0000
1010
0000
0001
0100
0000
1000
,
0001
0000
0100
0001
0000
0100
1000
0000
0010
0100
0000
0001
,
0100
1000
0010
0001
0100
0001
2000
0000
0000
0000
0000
0000
,
3001
0000
1000
0010
1000
0100
1000
0010
,
0100
0010
1000
0001
0100
0001
0010
0001
,
1000
0100
0010
0001
0100
0010
1000
0010
,
1000
0010
0100
0001
1000
0001
0010
0001
,
1000
0000
0000
0000
0001
0000
0100
0000
0000
0000
0010
0000
1000
0000
0000
0001
0000
0000
0100
0000
0000
0010
0000
0000
,
0100
0000
0000
0000
0010
0000
1000
0000
0000
0000
0001
0000
0010
0000
0000
0100
0000
0000
0010
0000
0000
0001
0000
0000
,
1000
0000
0000
0000
0010
0000
1000
0000
0000
0000
0001
0000
0100
0000
0000
0000
0010
0000
0100
0000
0000
0001
0000
0000
,
0010
0000
0000
0100
0000
0000
0010
0000
0000
0000
0001
0000
1000
0000
0000
0000
0001
0000
0010
0000
0000
0000
1000
0000
,
0100
0001
0100
0010
0100
0001
1000
0001
,
0010
0000
0000
0000
0100
0000
1000
0000
0000
0000
0001
0000
0100
0000
0000
0001
0000
0000
1000
0000
0000
0000
0100
0000
,
0010
0100
1000
0001
0100
0001
1000
0001
,
0010
0100
1000
0001
1000
0010
1000
0010
,
0100
0000
0000
0000
0010
0000
0100
0000
0000
0000
0001
0000
0100
0000
0000
0001
0000
0000
1000
0000
0000
0000
0100
0000
,
1000
0000
0000
0000
0010
0000
1000
0000
0000
0010
0000
0000
0100
0000
0000
0001
0000
0000
0100
0000
0000
0000
0001
0000
,
0100
0000
0010
1000
0000
0001
0100
0000
0010
1000
0000
0001
,
0010
0100
0010
0001
0100
0001
0100
0010
,
0100
0000
0001
1000
0000
0100
0010
0000
0001
0100
0000
0000
,
0010
0001
0100
1000
0000
0010
0001
0000
1000
0010
0000
0000
,
0100
0000
0001
2000
0000
0000
3010
0000
0001
0200
0000
0000
,
0301
0000
0000
0100
0010
0100
0001
0000
1000
0010
0000
0100
,
0001
0000
0000
0010
1000
0000
0100
0000
0001
0010
0000
0100
,
0001
0000
0100
1000
0000
0000
0100
0001
1000
0010
0000
0100
,
0001
0000
0010
0100
0000
1000
0001
0000
0010
0100
0000
0010
,
0001
0000
1000
0010
0000
0010
0100
0001
0010
1000
0100
0001
,
0100
0000
1000
0010
0000
0001
0100
0000
0010
1000
0000
0100
,
0010
0000
0001
1000
0000
0001
0200
0000
0000
0320
0000
0000
,
2030
0000
0001
3010
0000
0000
0200
0000
0001
0310
0000
0001
,
1000
0000
0001
0100
0000
1000
0001
0000
0100
0001
0000
0100
,
0010
0000
1000
0001
0000
0100
0010
0000
1000
0001
0000
0100
,
0010
0000
0100
0001
0000
0010
0100
0000
0001
0100
0000
1000
,
0001
0000
0000
0000
0000
1000
0001
0000
0000
0100
0000
0000
,
0010
0110
1001
0000
;
