#TITLE:AWA AWA;
#ARTIST:Snail's House;
#GENRE:ソニックリングショップ(夏);
#MUSIC:AWA AWA.ogg;
#BANNER:AWA AWA.png;
#BACKGROUND:AWA AWA-bg.png;
#CDTITLE:./CDTitles/beatmaniaIIDX 30 RESIDENT.png;
#SAMPLESTART:91.311;
#SAMPLELENGTH:15.000;
#SELECTABLE:YES;
#OFFSET:0.000;
#BPMS:0.000=165.000
,314.000=154.000
,319.000=146.000
,320.000=119.000
,323.000=116.000
,326.000=103.000
,329.000=95.000
;
#STOPS:;
#BGCHANGES:;
#FGCHANGES:;

//--------------- dance-single - ----------------
#NOTES:
     dance-single:
     :
     Beginner:
     1:
     0,0,0,0,0:
0000
0000
0000
0000
,
0000
0000
0000
0000
,
0000
0000
0000
0000
,
0000
0000
0000
0000
,
0000
0000
0000
0000
,
0000
0000
0000
0000
,
0000
0000
0000
0000
,
0000
0000
0000
0000
,
0000
0000
0000
0000
,
1000
0000
0000
0000
,
0000
0000
0000
0000
,
0001
0000
0000
0000
,
0000
0000
0000
0000
,
0100
0000
0000
0000
,
0000
0000
0000
0000
,
0010
0000
0000
0000
,
1000
0000
0000
0000
,
0001
0000
0000
0000
,
0000
0000
0000
0000
,
0100
0000
0000
0000
,
0000
0000
0000
0000
,
1000
0000
0000
0000
,
0000
0000
0000
0000
,
0001
0000
0000
0000
,
0000
0000
0000
0000
,
0010
0000
0000
0000
,
0100
0000
0000
0000
,
1000
0000
0000
0000
,
0001
0000
0000
0000
,
0010
0000
0000
0000
,
0100
0000
0000
0000
,
0010
0000
0000
0000
,
1000
0000
0000
0000
,
0001
0000
0000
0000
,
0010
0000
0000
0000
,
1000
0000
0000
0000
,
0010
0000
0000
0000
,
0100
0000
0000
0000
,
0001
0000
0000
0000
,
1000
0000
0000
0000
,
0010
0000
0000
0000
,
0100
0000
0000
0000
,
1000
0000
0000
0000
,
0010
0000
0000
0000
,
0001
0000
0000
0000
,
0010
0000
0000
0000
,
0100
0000
0000
0000
,
1000
0000
0000
0000
,
0001
0000
0000
0000
,
0010
0000
0000
0000
,
0100
0000
0000
0000
,
1000
0000
0000
0000
,
0001
0000
0000
0000
,
0010
0000
0000
0000
,
0100
0000
0000
0000
,
0001
0000
0000
0000
,
1000
0000
0001
0000
,
1001
0000
0000
0000
,
0000
0000
0000
0000
,
0000
0000
0000
0000
,
0010
0000
1000
0000
,
0001
0000
0010
0000
,
0100
0000
1000
0000
,
1001
0000
0010
0000
,
0100
0000
1000
0000
,
0001
0000
0010
0000
,
0100
0000
1000
0000
,
0001
0000
0010
0000
,
0100
0000
1000
0000
,
0001
0000
0010
0000
,
0100
0000
1000
0000
,
0001
0000
0100
0000
,
0010
0000
0001
0000
,
1000
0000
0001
0000
,
0100
0000
1000
0000
,
0001
0000
0000
0000
,
0000
0000
0000
0000
,
0000
0000
0000
0000
,
0000
1000
0000
0000
,
0001
0000
0000
0010
,
0000
0000
0000
1000
,
0000
0000
0001
0000
,
0000
1001
0000
0000
;

//--------------- dance-single - ----------------
#NOTES:
     dance-single:
     :
     Easy:
     5:
     0,0,0,0,0:
0000
0000
0000
0000
,
0000
0000
0000
0000
,
0000
0000
0000
0000
,
0000
0000
0000
0000
,
0000
0000
0000
0000
,
0000
0000
0000
0000
,
0000
0000
0000
0000
,
0000
0000
0000
0000
,
0000
0000
0000
0000
,
1000
0000
0000
0000
0001
0000
0000
0100
,
0000
1000
0000
0000
0001
0000
0000
0000
,
0010
0000
0000
0000
1000
0000
0000
0001
,
0000
0100
0000
1000
0000
0000
0000
0000
,
0001
0000
0000
0000
0100
0000
0000
1000
,
0000
0100
0000
0001
0000
0000
0000
0000
,
0010
1000
0001
0010
,
0100
0000
1000
0000
0001
0010
0100
0000
,
2000
0000
0000
3002
,
0000
0000
0000
1000
,
0203
0000
0000
0302
,
0000
0000
1003
0100
,
0020
0000
0000
0000
,
0230
0000
0000
0000
,
2300
0000
0000
3001
,
0010
0000
0100
1000
,
0001
0000
0100
0000
,
0010
0000
0100
0000
,
1000
0000
0001
0000
,
0010
0000
0100
0010
,
0001
0000
1000
0000
,
0001
0000
0100
0000
,
0010
0001
1000
0000
,
0100
0000
0010
0000
,
1000
0000
0001
0000
,
0100
0010
0001
0000
,
1000
0000
0001
0000
,
0100
0000
1000
0001
,
0100
0000
0010
0000
,
0100
0010
0001
0000
,
1000
0000
0001
0000
,
0010
0100
1000
0000
,
1001
0000
0000
0000
,
0100
0000
0000
0000
,
0010
0000
0000
0000
,
0001
0000
1000
0000
,
0100
0000
0010
0000
,
0001
0000
0100
0000
,
0010
0000
1000
0000
,
0001
0100
1000
0000
,
0001
0000
0100
0000
,
0010
0001
0010
0000
,
0100
0000
0010
0000
,
1000
0100
1000
0000
,
0010
0001
1000
0000
,
0001
1000
0001
0000
,
1000
0100
0010
0001
,
0010
0100
1000
0001
,
0200
0000
0000
0000
,
0320
0000
0000
2030
,
0000
0000
3002
0000
,
1003
0100
0001
0010
,
0100
0000
1000
0000
0001
0000
0100
1000
,
0001
0000
0100
1000
0001
0000
0200
0000
,
0310
1000
0001
0100
,
0010
0001
0010
0100
,
1000
0001
0100
0010
,
0001
0010
0100
0001
,
1000
0001
0100
0010
,
0010
1000
0001
0100
,
0110
1000
0001
0100
,
0001
0010
0100
1000
,
0001
0100
0010
1000
,
0001
0100
0010
0001
,
1000
0001
0100
0010
,
1000
0001
0100
0010
,
2000
0000
0000
0000
,
3002
0000
0000
2003
,
0000
0000
3200
0000
,
0000
0320
0000
0000
,
2030
0000
0000
3002
,
0000
0000
0000
0200
,
0000
0003
0020
0000
,
0330
2002
0000
0000
,
0000
0000
0000
0000
,
3003
0000
0000
0000
;

//--------------- dance-single - ----------------
#NOTES:
     dance-single:
     :
     Medium:
     11:
     0,0,0,0,0:
0000
0000
0000
0000
,
0000
0000
0000
0000
,
0000
0000
0000
0000
,
0001
0000
0000
0000
,
1000
0000
0000
0000
,
0100
0000
0000
0000
,
0001
0000
0000
0000
,
1000
0000
0000
0000
,
0001
0000
0000
0000
,
1000
0000
0000
0001
1000
0000
0000
0100
,
0000
0010
0000
1000
0001
0000
0000
0000
,
0100
0000
0000
1000
0001
0000
0000
0100
,
0000
1000
0000
0001
0100
0000
0000
0000
,
0010
0000
0000
0100
1000
0000
0000
0001
,
0000
1000
0000
0001
0100
0000
0000
0000
,
0010
0100
1000
0001
,
0100
1000
0001
0010
0100
1000
0001
0000
,
0020
0000
0000
0000
0000
0000
1030
0002
,
0000
0000
0000
0000
0000
0000
0013
0200
,
0000
0000
0000
0000
0000
0000
1300
0002
,
0000
0000
1003
0100
,
0020
0000
0000
0000
0000
0000
1030
0002
,
0000
0000
0000
0000
0000
0000
1003
0002
,
0000
0000
0000
0013
,
1000
0000
0001
0000
0100
1000
0001
0100
,
0000
1000
0001
0100
,
0010
1000
0001
0200
,
0000
0000
0000
0300
0000
0001
1000
0001
,
0100
0000
0010
0000
1000
0001
0010
1000
,
0000
0000
0010
0000
1000
0000
0001
1000
,
0100
0010
0100
2000
,
0010
0000
0000
3000
0010
0000
0000
0000
,
0100
0000
1000
0000
0001
0100
1000
0010
,
0000
1000
0001
0100
,
0010
0000
0001
0000
0010
1000
0020
0000
,
0000
0000
0000
1030
0000
0001
1000
0001
,
0000
0000
0010
0000
0100
0001
1000
0001
,
0010
0100
0001
1000
,
0001
0100
1000
0002
,
0000
0000
0000
1003
0100
0000
1000
0001
,
0000
0100
1000
0000
0001
0000
0010
0000
,
0110
1000
0001
0100
,
0010
0100
1000
0001
,
0100
0010
0001
0010
,
0100
1000
0001
0100
,
0010
0000
1000
0100
0001
0000
0100
0000
,
0010
0000
0001
1000
0010
0000
0100
0000
,
1000
0000
0001
0010
0100
0000
0010
0000
,
1000
0001
0100
0010
,
1000
0100
0001
0000
0100
0000
0010
0000
,
0001
1000
0010
0000
0100
0000
1000
0000
,
0001
0010
0100
0000
0010
0000
1000
0000
,
0001
0010
0100
0000
0010
0000
1000
0000
,
0001
0000
0100
0000
0010
0100
1000
0000
,
0001
0000
0100
0000
0010
0100
0001
0000
,
1000
0001
0100
0000
1000
0001
0010
0000
,
0100
0001
1000
0000
0001
1000
0001
0000
,
0220
0000
0000
0000
,
0000
0000
0000
0000
,
0000
0000
0000
0330
,
1000
0001
0100
0010
,
0001
0010
0100
1000
,
0001
0000
0100
1000
0001
0010
0100
0000
,
1001
0100
1000
0001
,
0100
0010
0001
0010
,
0100
1000
0001
0100
,
0010
0001
0010
0100
,
0010
1000
0001
0100
,
0010
0001
0010
0110
,
1001
0100
0010
0001
,
1000
0001
0100
0010
,
1000
0001
0100
0010
,
0001
0010
0100
1000
,
0001
0100
0010
0100
,
1000
0001
0100
0010
,
2002
0000
0000
0000
,
0003
0000
0000
0000
,
0000
3002
0000
0000
,
0203
0000
0000
0000
,
0020
0300
0000
0000
,
2000
0030
0000
0002
,
0000
3000
0200
0003
,
0000
0020
0000
0000
,
0000
0000
0000
0000
,
0330
0000
0000
0000
;

//--------------- dance-single - ----------------
#NOTES:
     dance-single:
     :
     Hard:
     15:
     0,0,0,0,0:
0000
0000
0000
0000
,
0000
0000
0000
0000
,
0000
0000
0000
0000
,
1000
0000
0010
0000
0100
0001
0000
0000
,
0001
1000
0000
0001
1000
0000
0000
0000
,
0110
0000
0101
0000
1000
0001
0000
0000
,
1000
0000
0110
0000
1000
0001
0000
0000
,
0001
0000
1100
0000
0010
0100
0000
0000
,
1000
0001
0000
1000
0001
0000
0000
0000
,
1001
0000
0100
1000
0001
0100
1000
0010
,
0000
0100
0010
0001
1000
0000
0110
0000
,
0010
0000
0100
0001
1000
0100
0001
0010
,
1000
0001
0000
1000
0010
1000
0001
0000
,
0101
0000
1000
0010
0001
0100
0001
1000
,
0000
0101
0000
1000
0010
1000
0100
0001
,
0100
1000
0010
0000
0001
0100
1000
0000
,
0010
0000
0001
0000
1000
0000
0100
0000
0010
1000
0001
0000
1000
0000
0000
0000
,
0200
0000
1000
0000
0010
0000
0301
2000
,
0000
0000
0001
0000
0010
0000
3100
0020
,
0000
0000
1000
0000
0100
0000
0031
2000
,
0001
0000
0100
0000
3001
0000
0010
1000
,
0200
0000
0010
0000
0010
0000
0301
2000
,
0010
0000
0001
0000
0001
0000
3001
2000
,
0100
0000
0010
0000
0001
0000
3100
0010
,
0001
0100
1000
0000
0010
0001
1000
0010
,
1000
0100
0001
0010
1000
0001
0010
0001
,
0100
1000
0001
0100
1000
0100
0020
0000
,
1000
0000
0100
0030
0000
1000
0001
1000
,
0010
0000
0100
0010
0001
1000
0100
0001
,
1000
0001
0100
1000
0001
0100
1000
0001
,
0010
1000
0100
0001
0010
1000
0002
0000
,
0100
0000
1000
0003
0100
0001
1000
0100
,
0010
1000
0001
0100
1000
0010
0001
0100
,
1000
0000
0001
0100
1000
0001
0010
0000
,
0100
0001
1000
0001
0100
0001
0200
0000
,
0010
0000
0010
0301
0000
1000
0001
1000
,
0010
0001
0100
1000
0010
1000
0001
1000
,
0100
0000
0010
0100
1000
0010
0001
0100
,
1000
0001
0010
0100
0001
0100
2000
0000
,
0001
0000
0100
3001
0010
0000
0001
1000
,
0100
0010
0001
0010
1000
0001
0100
0000
,
0110
0000
0001
0100
1000
0000
0010
0000
,
0100
0000
0010
1000
0001
0000
1000
0000
,
0010
0001
0100
0000
1000
0000
0100
0000
,
0010
1000
0001
0000
1000
0000
0010
0000
,
0100
1000
0001
0010
1000
0000
0010
0000
,
0100
0001
1000
0001
0100
0000
0010
0000
,
0001
0100
1000
0100
0010
0000
0100
0000
,
0001
0000
0100
0000
1000
0000
0001
0000
0010
0000
1000
0001
0100
0000
1000
0000
,
0001
0000
0010
1000
0000
0100
0001
0000
0010
0000
0000
0001
0100
0000
0001
0000
,
1000
0000
0001
0100
0000
1000
0000
0100
0010
0000
1000
0000
0001
0000
0010
0000
,
1000
0000
0100
0010
0000
1000
0001
0000
0100
0000
1000
0010
0000
0001
0100
0000
,
1000
0000
0100
0010
0000
0001
0010
0000
0100
0000
1000
0001
0000
0100
0001
0000
,
1000
0000
0100
0010
0000
1000
0010
0000
0100
0000
0010
0001
0000
1000
0100
0000
,
1000
0000
0001
0010
0000
0100
1000
0000
0100
0000
0010
0100
0000
0001
0100
0000
,
0001
0000
1000
0100
0000
0010
0100
0000
0001
0000
1000
0100
0000
0001
1000
0000
,
0010
0000
0000
1000
0000
0001
0100
0000
1000
0000
0001
0000
1000
0000
0000
0000
,
0200
0010
0010
0000
,
0001
0001
0000
1000
,
1000
0000
0010
0310
,
0001
1000
0010
0100
,
1000
0000
0100
0000
0010
1000
0001
0100
,
1000
0000
0100
0000
0010
0000
0001
0000
1000
0001
0100
1000
0010
0000
0000
0000
,
1001
0010
0100
0001
0100
0010
0100
0001
,
0010
0100
0010
0100
1000
0001
1000
0010
,
0100
0010
0100
0010
1000
0100
0010
0001
,
0100
0001
0100
0001
1000
0010
0100
0010
,
1000
0010
0100
0001
0100
0010
1000
0100
,
1000
0100
0010
0100
1000
0100
0110
0000
,
1001
0100
1000
0001
1000
0100
0010
0001
,
0010
0001
0010
0100
1000
0100
1000
0010
,
1000
0100
0010
0100
0010
0001
0100
0010
,
1000
0100
0010
0001
1000
0001
0100
0001
,
0010
0100
1000
0100
1000
0001
0100
0001
,
1000
0000
0100
0000
0010
0000
0100
0000
0010
1000
0001
0010
0100
0000
0000
0000
,
2002
0000
3000
0200
,
0003
0000
0020
0300
,
0000
2030
0000
0000
,
3020
0000
0000
0200
,
0000
0030
0000
2300
,
0002
0000
3000
2000
,
0000
0003
0002
3000
,
0000
2000
0000
0000
,
0000
0000
0000
0000
,
3003
0000
0000
0000
;
