#VERSION:0.83;
#TITLE:777;
#ARTIST:NAMCO Sound Team "RoughSketch";
#GENRE:ブルーアーカイブ×NonStopDance ~船上バニーチェイサー&スピーディーなハリネズミ~;
#MUSIC:777.ogg;
#BANNER:777.png;
#BACKGROUND:777-bg.png;
#CDTITLE:./CDTitles/SDVX EXCEED GEAR.png;
#SAMPLESTART:86.481;
#SAMPLELENGTH:15.000;
#SELECTABLE:YES;
#OFFSET:0.000;
#BPMS:0.000=194.253
,142.000=388.506
,144.000=194.253
;
#STOPS:142.000=0.154
,143.000=0.154
;
#BGCHANGES:;
#FGCHANGES:;

//--------------- dance-single - ----------------
#NOTEDATA:;
#STEPSTYPE:dance-single;
#DESCRIPTION:;
#DIFFICULTY:Beginner;
#METER:7;
#RADARVALUES:0,0,0,0,0;
#NOTES:
0000
0000
0000
0000
,
0000
0000
0000
0000
,
0000
0000
0000
0000
,
0000
0000
0000
0000
,
0000
0000
0000
0000
,
0000
0000
0000
0000
,
0000
0000
0000
0000
,
0000
0000
0000
0000
,
0000
0000
0000
0000
,
0000
0000
0000
0000
,
1000
0001
0000
0010
,
0000
0100
0000
1000
,
0000
0001
0000
0100
,
0000
0010
0000
0100
,
1000
0001
0000
0100
,
0010
0100
0000
1000
,
0100
0010
0001
0010
,
0100
0000
1000
0000
,
1001
0000
0110
0000
,
0110
0000
0000
0000
,
1000
0001
0100
0010
,
0100
1000
0001
0000
,
0010
0100
0001
1000
,
0001
0000
0010
0000
,
0100
1000
0001
0100
,
0010
0100
1000
0000
,
0001
0010
0100
0001
,
1000
0010
0100
1000
,
0001
0000
0100
0000
,
0010
0000
1000
0000
,
0001
0000
0010
0000
,
0100
0000
1000
0000
,
0002
1003
0010
0100
,
0010
0000
1000
0001
,
0000
0100
0010
1000
,
0001
0010
1001
0110
,
1001
0000
0000
0000
,
0000
0000
0000
0010
,
0000
1000
0001
0000
,
0100
0010
0001
0010
,
0000
0100
1000
0000
,
0001
0100
0010
0000
,
1000
0001
0100
0000
,
0010
0100
1000
0001
,
0000
0100
0010
0000
,
2000
0000
0000
3001
,
0010
0100
0000
0000
,
1000
0001
0100
0010
,
0000
1000
0001
0000
,
0100
0000
0010
0000
,
0000
1000
0001
0000
,
0100
0010
1000
0001
,
0000
0010
0000
0000
,
0100
0000
1000
0001
,
0010
0000
0100
0000
,
1000
0000
0001
0000
,
0100
0000
0010
0000
,
0100
0000
1000
0000
,
0001
0000
0100
0000
,
0001
0000
1000
0000
,
0001
0000
0100
0000
,
0000
0000
0000
0000
,
1001
0000
0100
0000
,
0010
0000
1000
0000
,
0001
0000
0100
0000
,
0010
0000
0100
0000
,
1000
0000
0000
0000
,
0001
0000
0000
0000
,
1000
0100
0010
0000
,
0001
0001
0001
0000
,
1000
0000
0001
0000
,
0100
0000
0010
0000
,
1000
0000
0001
0000
,
0100
0000
0010
0100
,
1000
0000
0001
0000
,
0010
0000
0100
0000
,
0010
0100
1000
0000
,
0001
0000
1000
0001
,
0100
0000
0010
0000
,
0100
0000
1000
0000
,
0001
0000
0010
0000
,
0100
0000
0010
0001
,
0010
0000
0100
0000
,
1000
0000
0001
0000
,
0100
0000
0010
0000
,
0100
1000
0001
0000
,
0010
0000
0100
0000
,
1001
0000
0000
0000
,
1000
0000
0001
0000
,
0100
0000
0010
0000
,
0100
0000
1000
0000
,
0001
0000
0100
0000
,
1000
0000
0001
0000
,
0100
0000
0010
0000
,
0100
0000
1000
0000
,
0001
0000
0100
0000
,
1200
0300
1200
0300
,
1200
0300
0001
0000
,
0110
0000
0000
0000
,
1001
0000
0000
0000
;

//--------------- dance-single - ----------------
#NOTEDATA:;
#STEPSTYPE:dance-single;
#DESCRIPTION:;
#DIFFICULTY:Easy;
#METER:11;
#RADARVALUES:0,0,0,0,0;
#NOTES:
0000
0000
0000
0000
,
0000
0000
0000
0000
,
0000
0000
0000
0000
,
0000
0000
0000
0000
,
0000
0000
0000
0000
,
0000
0000
0000
0000
,
0000
0000
0000
0000
,
0000
0000
0000
0000
,
0000
0000
0000
0000
,
0000
0000
0000
0000
,
1000
0001
0100
0010
,
0100
1000
0001
0100
,
0010
0100
1000
0001
,
0100
0010
0100
1000
,
0001
0100
0010
0001
,
0010
0100
1000
0001
,
0100
1000
0001
0000
0010
0100
1000
0000
,
0002
0000
0100
0003
,
1001
0000
0110
0000
,
2002
0000
3003
0000
,
1000
0001
0010
0100
,
1000
0001
0100
0010
,
0100
1000
0001
0100
,
0010
0100
1000
0001
,
0100
0010
0100
1000
,
0001
0100
0010
0100
,
0001
0100
1000
0001
,
0100
0010
0100
1000
,
0001
0010
0100
0001
,
1000
0001
0010
0100
,
0010
1000
0001
0100
,
0010
1000
0001
0100
,
0020
0031
0010
0100
,
1000
0001
0010
0100
,
0010
1000
0001
0100
,
0010
1000
0001
0110
,
2002
0000
0000
0000
,
0000
3003
0000
0110
,
0000
0100
0010
0100
,
1000
0001
0100
0010
,
0100
1000
0001
0100
,
0010
0100
1000
0010
,
0001
0100
0010
0001
,
0100
1000
0001
0100
,
0010
0100
1000
0001
,
0200
0000
0000
0310
,
1000
0001
0100
0000
,
0010
0100
0001
1000
,
0001
0100
0010
0100
,
1000
0001
0100
0010
,
0100
1000
0001
0100
,
0010
0100
1000
0001
,
0100
0010
0100
1000
,
0001
0000
0100
1001
,
0100
0000
0010
0000
,
1000
0001
0100
0000
,
0010
0000
0100
0000
,
0001
0100
0010
0000
,
1000
0000
0001
0000
,
0100
0010
0100
0000
,
1000
0000
0001
0000
,
2000
0000
0000
0000
,
3001
0000
0100
0000
,
0010
0100
1000
0000
,
0001
0000
0100
0000
,
0010
0100
1000
0000
,
1200
0000
0300
0000
,
1200
0000
0300
0000
,
1200
0000
0300
0000
,
0100
0100
0100
0000
,
1001
0100
1000
0001
,
0100
0010
0100
0001
,
0010
0100
0001
0010
,
0100
0001
1000
0001
,
0010
0100
0001
0010
,
0100
0010
0001
0100
,
0001
0010
0100
1000
,
0001
0100
0020
0230
,
1300
0001
0010
0100
,
0001
1000
0001
0100
,
0010
0100
1000
0001
,
0100
0010
0100
1000
,
0001
0100
0010
0001
,
0010
0100
0010
1000
,
0001
0100
0010
0100
,
1000
0001
0100
0010
,
1000
0000
0001
0000
,
2002
0000
3003
0000
,
1000
0001
0100
0010
,
0100
0010
1000
0000
,
0010
0100
1000
0001
,
0100
0010
0100
1000
,
0001
0100
0010
0100
,
0010
0100
1000
0001
,
0100
1000
0001
0100
,
0010
0100
1000
0001
,
0020
0000
0230
0000
,
2300
0000
3002
0003
,
1001
0000
0000
0000
,
0220
0000
0000
0330
;

//--------------- dance-single - ----------------
#NOTEDATA:;
#STEPSTYPE:dance-single;
#DESCRIPTION:;
#DIFFICULTY:Medium;
#METER:13;
#RADARVALUES:0,0,0,0,0;
#NOTES:
0000
0000
0000
0000
,
0000
0000
0000
0000
,
0000
0000
0000
0000
,
0000
0000
0000
0000
,
0000
0000
0000
0000
,
0000
0000
0000
0000
,
0000
0000
0000
0000
,
0000
0000
0000
0000
,
0000
0000
0000
0000
,
0000
0000
0000
0000
,
1000
0010
0100
0001
,
0010
0000
0100
1000
0001
0000
0010
0000
,
0100
0000
1000
0001
0000
0010
0100
0000
,
1000
0000
0001
0010
0100
0000
0001
0000
,
0010
0100
1000
0000
0001
0010
0100
0000
,
0001
0010
0100
0000
0001
0100
1000
0000
,
0001
0010
0100
1000
0001
0010
0100
0000
,
1001
0000
0010
0000
,
0220
0330
2020
3030
,
2002
0000
3003
0000
,
0100
0000
1000
0000
0010
0001
1000
0000
,
0010
1000
0100
0000
0001
0010
1000
0000
,
0010
0000
0100
0000
0010
0001
1000
0000
,
0010
0100
1000
0000
0001
0010
1000
0000
,
0001
1000
0010
0000
0100
0001
0010
0000
,
0100
1000
0010
0000
0001
0010
0100
0000
,
0001
0100
1000
0000
0001
1000
0010
0000
,
0100
0001
1000
0000
0001
0100
0010
0000
,
0101
1010
0101
0010
,
0001
0000
1000
0001
0100
0000
1000
0000
,
1001
0110
1001
0100
,
0010
0001
0100
0000
0010
0100
1000
0000
,
0010
0000
1001
0000
0110
0000
0010
0200
,
0301
0000
0010
0000
0100
1000
0010
0001
,
0100
1000
0100
1000
,
0001
0010
1000
0100
0010
0000
0100
0000
,
2002
0000
0000
0000
,
0000
3003
0000
0010
,
1000
1001
0100
1000
,
0001
0010
0100
0000
0010
0001
1000
0000
,
0100
0000
0010
0000
0100
1000
0001
0000
,
0010
0100
0000
1000
0001
0000
0010
0000
,
0100
0000
1000
0001
0010
0000
0100
0000
,
1000
0001
0010
0000
0100
1000
0001
0000
,
0010
0000
0100
0001
0010
0000
0100
0000
,
2000
0000
0000
0000
3001
0010
0100
0000
,
0001
0000
0010
0100
1000
0001
0000
0000
,
0010
0100
0001
0010
0100
1000
0001
0100
,
0000
0000
0010
0100
1000
0001
0000
0000
,
0010
0100
0000
1000
0001
0000
0110
0000
,
0001
0000
1000
0001
0010
0100
0000
0000
,
0010
0100
1000
0001
0010
0100
1000
0000
,
0001
0000
0010
0100
1000
0001
0000
0000
,
0010
0100
0000
0010
0100
0000
1010
0000
,
0100
1000
0001
0100
,
0010
0001
0010
0100
,
0001
0100
1000
0001
,
0100
0010
0100
1000
,
0001
0010
0100
0001
,
0010
1000
0001
0100
,
0010
0000
0100
0000
1000
0001
0100
0020
,
0000
0000
0000
0000
,
0031
0010
0100
1000
,
0010
1000
0001
1000
,
0010
0100
0001
1000
,
0010
1000
0100
0010
,
0001
0100
0001
0200
,
0301
0010
0020
0000
,
0130
1000
0010
0000
0001
0010
1000
0000
,
1200
0300
1200
0300
1200
0300
0001
0010
,
0100
0000
1000
0000
0010
0001
1000
0000
,
0010
1000
0100
0000
0001
0010
1000
0000
,
0010
0000
0100
0000
0010
0001
1000
0000
,
0010
0100
1000
0000
0001
0010
1000
0000
,
0001
1000
0010
0000
0100
0001
0010
0000
,
0100
1000
0010
0000
0001
0010
0100
0000
,
0001
0100
1000
0000
0001
1000
0010
0000
,
0100
0001
1000
0000
0001
0100
0010
0000
,
0101
1010
0101
0010
,
0001
0000
1000
0001
0100
0000
1000
0000
,
1001
0110
1001
0100
,
0010
0001
0100
0000
0010
0100
1000
0000
,
0010
0000
1001
0000
0110
0000
0010
0200
,
0301
0000
0010
0000
0100
1000
0010
0001
,
0100
1000
0100
1000
,
0001
0010
1000
0100
0010
1000
0100
0001
,
2000
3000
0202
0303
,
0220
0000
0000
0000
0330
0000
1000
0001
,
0100
0000
0010
1000
0001
0000
1000
0010
,
0001
0000
0100
1000
0001
0000
0010
0001
,
0100
0000
1000
0010
0001
0000
1000
0010
,
0100
0000
1000
0001
0010
0000
0100
0000
,
0010
0001
1000
0000
0100
0001
0010
0000
,
0100
0001
1000
0000
0100
1000
0010
0000
,
0001
0100
0010
0000
0001
0010
1000
0000
,
0100
0001
0010
0000
0100
1000
0010
0000
,
0001
1000
0001
1000
,
0010
1000
0010
0100
,
2002
0000
0000
3003
,
0220
0000
0000
0000
,
0330
0000
0000
0000
;

//--------------- dance-single - ----------------
#NOTEDATA:;
#STEPSTYPE:dance-single;
#DESCRIPTION:;
#DIFFICULTY:Hard;
#METER:16;
#RADARVALUES:0,0,0,0,0;
#NOTES:
0000
0000
0000
0000
,
0000
0000
0000
0000
,
0000
0000
0000
0000
,
0000
0000
0000
0000
,
0000
0000
0000
0000
,
0000
0000
0000
0000
,
0000
0000
0000
0000
,
0000
0000
0000
0000
,
0000
0000
0000
0000
,
0000
0000
0000
0000
,
1000
0000
0110
0000
0001
1000
0100
0000
,
0110
0000
0001
1000
0100
0000
0010
0000
,
1001
0000
0100
0010
0001
0000
0010
1000
,
0101
0010
1000
1100
,
0010
0001
1000
0100
0010
0001
1000
0100
,
0010
0100
1000
0100
0010
1000
0100
0010
,
0001
1000
0100
0000
0010
0000
0100
0000
0001
1000
0000
0100
0010
0000
0100
0001
,
2000
0000
3001
0000
,
0220
0330
2002
3003
,
0220
0000
0000
0000
0000
0000
0000
0000
0330
0000
0000
0000
0001
0000
0010
0001
,
0100
0000
1000
0000
0100
0000
1000
0000
0100
0000
0010
1000
0001
0100
0010
0000
,
0100
0000
0010
0000
0001
0000
1000
0000
0100
0000
1000
0000
0010
0000
0100
0010
,
0001
1000
0100
0000
0010
0000
0100
0000
0001
0000
1000
0000
0010
0000
0100
0000
,
0001
1000
0010
0000
0001
0000
0100
0000
0001
0010
1000
0000
0200
0000
0000
0000
,
0301
0010
0001
1000
0100
0010
0001
0100
,
0010
0100
1000
0000
0100
0000
1000
0000
0010
0000
1000
0001
0100
0000
0010
0000
,
0100
0000
0010
0000
0100
0000
1000
0010
0001
0000
1000
0000
0001
0000
0100
0000
,
0010
0000
0100
0010
0001
0000
1000
0000
0001
0000
0010
0000
0001
1000
0100
0010
,
0001
0010
0001
0100
0010
0100
0010
0100
,
0001
0010
0001
1000
0100
0010
0001
0100
,
0001
0010
0001
1000
0100
0010
0100
1000
,
0010
1000
0100
1000
0001
0100
0010
0100
,
2000
0000
3001
0010
0100
0001
0100
0010
,
1000
0001
0010
0100
0010
0001
0100
0010
,
0100
0001
0100
0010
1000
0010
1000
0010
,
0100
0001
0100
0001
1000
0000
0110
0000
,
2002
0000
0000
0000
,
0000
3003
0000
0200
,
0310
0000
0001
1000
0100
0010
0001
0000
,
0100
1000
0010
0000
0001
0010
0100
0000
1000
0010
0001
0000
0100
0000
0010
0000
,
1000
0000
0010
0100
1000
0010
0001
0000
,
0020
0031
0200
1300
0002
1003
0100
0000
,
1000
0000
0100
1000
0010
0100
0001
0000
,
1000
0001
0010
0000
0100
0001
0010
0000
1000
0001
0010
0000
0100
0000
0001
0000
,
1000
0000
0010
1000
0100
0010
0001
0000
,
0200
0000
0000
0000
0010
0010
0310
0000
,
0001
0000
0010
0000
1000
0000
0001
1000
0010
0000
0100
0000
1000
0000
0000
0000
,
0010
0001
0100
0000
1000
0100
0010
0000
0001
0100
1000
0000
0010
0000
0100
0000
,
0001
0000
0000
0000
0100
0000
0010
1000
0001
0000
0100
0000
1000
0000
0000
0000
,
0200
1300
0020
0031
2000
3001
0010
0000
,
0001
0000
1000
0000
0010
0000
0001
1000
0100
0000
0010
0000
1000
0000
0000
0000
,
0001
1000
0100
0000
0010
1000
0100
0000
0001
1000
0100
0000
0010
0000
1000
0000
,
0001
0000
0100
0001
0010
0100
1000
0000
,
0020
0130
0200
0301
2000
3001
0010
0000
,
0001
0000
1000
0000
0001
0010
0000
0100
,
2000
0000
0000
3001
0000
0010
0100
1000
,
0001
0000
1000
0001
0000
1000
0001
0100
,
0000
1000
0001
0010
0100
1000
0001
0010
,
0100
0000
1000
0000
0001
0010
0000
0100
,
0001
1000
0000
0100
0000
0010
1000
0001
,
1000
0000
0100
0010
0000
1000
0001
0200
,
0000
0000
0010
0000
,
0310
0000
0001
0000
0100
0001
1000
0000
0001
0000
0010
1000
0100
0000
0010
0000
,
0001
0000
1000
0000
0100
0001
0010
0000
0100
0000
1000
0100
0010
0000
1000
0000
,
0010
0000
1000
0000
0100
0000
0010
1000
0001
0000
0100
0000
0010
0001
1000
0000
,
0001
0100
0001
0010
0001
0010
0100
1000
,
0010
0000
1000
0000
0001
0000
0100
0010
0001
0000
1000
0000
0020
0000
0000
0000
,
0031
0000
0100
1000
0010
0000
0100
0000
0002
0000
0000
0000
0000
0000
0000
0000
,
0103
0000
0010
1000
0100
0000
1000
0000
0020
0000
0000
0000
0031
0000
0000
0000
,
1200
0300
0000
0000
1200
0300
0000
0000
1200
0300
0000
0000
0010
1000
0020
0000
,
0130
0000
1000
0000
0100
0000
1000
0000
0100
0000
0010
1000
0001
0100
0010
0000
,
0100
0000
0010
0000
0001
0000
1000
0000
0100
0000
1000
0000
0010
0000
0100
0010
,
0001
1000
0100
0000
0010
0000
0100
0000
0001
0000
1000
0000
0010
0000
0100
0000
,
0001
1000
0010
0000
0001
0000
0100
0000
0001
0010
1000
0000
0100
1000
0010
0000
,
0001
0010
0001
1000
0100
0010
0001
0100
,
0010
0100
1000
0000
0100
0000
1000
0000
0010
0000
1000
0001
0100
0000
0010
0000
,
0100
0000
0010
0000
0100
0000
1000
0010
0001
0000
1000
0000
0001
0000
0100
0000
,
0010
0000
0100
0010
0001
0000
1000
0000
0020
0000
0000
0000
0230
0000
0000
0000
,
0301
0010
0001
0100
0010
0100
0010
0100
,
0001
0010
0001
1000
0100
0010
0001
0100
,
0001
0010
0001
1000
0100
0010
0100
1000
,
0010
1000
0100
1000
0001
0100
0010
0100
,
1000
0100
0001
0010
0100
0001
0100
0010
,
1000
0001
0010
0100
0010
0001
0100
0010
,
0100
0001
0100
0010
1000
0010
1000
0010
,
0100
0000
0001
0000
0100
0000
0001
0000
1000
0000
0000
0000
0010
0000
0100
1000
,
0200
0300
0020
0030
,
2002
0000
0000
0000
0000
0000
0000
0000
3003
0000
0000
0000
0001
0000
0010
0001
,
0100
0000
1000
0000
0100
0000
1000
0000
0100
0000
0010
1000
0001
0100
0010
0000
,
0100
0000
0010
0000
0001
0000
1000
0000
0100
0000
1000
0000
0010
0000
0100
0010
,
0001
1000
0100
0000
0010
0000
0100
0000
0001
0000
1000
0000
0010
0000
0100
0000
,
0001
1000
0010
0000
0001
0000
0100
0000
0001
0010
1000
0000
0200
0000
0000
0000
,
0301
0010
0001
1000
0100
0010
0001
0100
,
0010
0100
1000
0000
0100
0000
1000
0000
0010
0000
1000
0001
0100
0000
0010
0000
,
0100
0000
0010
0000
0100
0000
1000
0010
0001
0000
1000
0000
0001
0000
0100
0000
,
0010
0000
0100
0010
0001
0000
1000
0000
0001
0000
0010
0000
0001
1000
0100
0010
,
0001
0010
0001
0100
0010
0100
0010
0100
,
0001
0010
0001
1000
0100
0010
0001
0100
,
0001
0010
0001
1000
0100
0010
0100
1000
,
2002
0000
0000
0000
,
3003
0000
0000
0000
;

//--------------- dance-single - ----------------
#NOTEDATA:;
#STEPSTYPE:dance-single;
#DESCRIPTION:;
#DIFFICULTY:Challenge;
#METER:17;
#RADARVALUES:0,0,0,0,0;
#BPMS:0.000=194.253
,80.000=388.506
,204.000=777.012
,206.000=194.250
,242.000=97.125
,244.000=194.250
,276.000=97.125
,292.000=194.250
,320.000=97.125
,322.000=388.500
,450.000=194.250
,458.000=388.500
,546.000=194.250
;
#STOPS:204.000=0.232
,205.000=0.232
;
#NOTES:
0000
0000
0000
0000
,
0000
0000
0000
0000
,
0000
0000
0000
0000
,
0000
0000
0000
0000
,
0000
0000
0000
0000
,
0000
0000
0000
0000
,
0000
0000
0000
0000
,
0000
0000
0000
0000
,
0000
0000
0000
0000
,
0000
0000
0000
0000
,
0001
0000
0110
0000
1000
0001
0010
0000
,
0110
0000
1000
0001
0010
0000
0100
0000
,
1001
0000
0010
0100
1000
0000
0100
0001
,
1010
0100
0001
0011
,
0100
1000
0001
0010
0100
1000
0001
0010
,
0100
0010
0001
0010
0100
0001
0010
0100
,
1000
0001
0010
0000
0100
0000
0010
0000
1000
0001
0000
0010
0100
0000
0010
1000
,
0002
0000
1003
0000
,
0220
0330
2002
3003
,
0220
0000
0000
0000
0000
0000
0000
0000
0330
0000
0000
0000
1000
0100
0002
0000
,
1003
0000
0100
0000
0010
1000
0001
0000
,
0100
0001
1000
0000
0100
0001
0010
0000
,
0100
0000
1000
0100
0010
0001
1000
0010
,
1000
0100
0001
0000
0010
0000
0100
0001
,
1000
0000
0100
0000
1000
0001
0100
0000
,
0010
1000
0001
0000
0100
0010
0001
0000
,
0010
1000
0100
0000
0010
0100
0001
0000
,
1000
0000
0100
0001
1000
0100
0001
0010
,
1000
0100
0010
0001
,
1000
0010
0100
0000
1000
0000
0010
0001
,
1000
0000
0010
1000
0100
0000
0010
0000
,
1000
0000
0001
1000
0010
0000
0100
0000
,
0010
0000
0001
0000
0100
1000
0010
0000
,
0100
0001
0010
1000
0100
0000
0001
1000
,
0010
0000
0001
0010
0100
0000
0001
0000
,
0200
0000
0320
0000
,
0130
0001
0100
0001
,
1000
0000
0100
0000
1000
0000
0010
1000
,
0100
0010
0100
0001
,
0010
0001
0100
0000
1000
0000
0100
0000
,
0010
1000
0001
0000
0010
0000
0100
0000
,
0010
0001
1000
0100
,
1000
0100
0001
0000
0010
0000
0001
0000
,
0010
0100
1000
0010
,
0200
0000
1300
0001
,
0100
0000
0001
0000
0010
0000
0100
0001
,
1000
0100
1000
0100
,
0010
1000
0001
0000
0100
0000
0001
0000
,
0100
1000
0010
0000
1000
0000
0001
0000
,
0010
0100
0010
0001
,
1000
0100
0010
0100
,
0011
1001
2002
0000
,
0000
0000
0000
3003
,
0000
0000
0020
0000
0130
0000
0001
1000
,
0100
0000
0010
0000
0001
0000
0000
0000
0100
1000
0010
0000
0001
0010
0100
0000
,
1000
0010
0001
0000
0100
0000
0010
0000
1000
0000
0000
0000
0010
0000
0100
0000
,
1000
0010
0001
0000
0020
0031
0200
1300
,
0002
1003
0100
0000
1000
0000
0100
1000
,
0010
0000
0100
0000
0001
0000
0000
0000
1000
0001
0010
0000
0100
0001
0010
0000
,
1000
0001
0010
0000
0100
0000
0001
0000
1000
0000
0000
0000
0010
0000
1000
0000
,
0100
0000
0010
0000
0001
0000
0000
0000
0200
0000
0000
0000
0010
0010
0310
0000
,
0001
0000
0010
0000
1000
0000
0001
1000
0010
0000
0100
0000
1000
0000
0000
0000
,
0010
0001
0100
0000
1000
0100
0010
0000
0001
0100
1000
0000
0010
0000
0100
0000
,
0001
0000
0000
0000
0100
0000
0010
1000
0001
0000
0100
0000
1000
0000
0000
0000
,
0200
1300
0020
0031
2000
3001
0010
0000
,
0001
0000
1000
0000
0010
0000
0001
1000
0100
0000
0010
0000
1000
0000
0000
0000
,
0001
1000
0100
0000
0010
1000
0100
0000
0001
1000
0100
0000
0010
0000
1000
0000
,
0001
0000
0100
0001
0010
0100
1000
0000
,
0020
0130
0200
0301
2000
3001
0010
0000
,
0001
0000
1000
0000
0001
0010
0000
0100
2000
0000
0000
3001
0000
0010
0100
1000
,
0001
0000
1000
0001
0000
1000
0001
0100
0000
1000
0001
0010
0100
1000
0001
0010
,
0100
0000
1000
0000
0001
0010
0000
0100
0001
1000
0000
0100
0000
0010
1000
0001
,
1000
0000
0100
0010
0000
1000
0001
0200
0000
0000
0000
0000
0010
0000
0000
0000
,
0310
0000
0001
0000
0100
0001
1000
0000
0001
0000
0010
1000
0100
0000
0010
0000
,
0001
0000
1000
0000
0100
0001
0010
0000
0100
0000
1000
0100
0010
0000
1000
0000
,
0010
0000
1000
0000
0100
0000
0010
1000
0001
0000
0100
0000
0010
0001
1000
0000
,
0001
0100
0001
0010
0001
0010
0100
1000
,
0010
0000
1000
0000
0001
0000
0100
0010
0001
0000
1000
0000
0020
0000
0000
0000
,
0031
0000
0100
1000
0010
0000
0100
0000
0002
0000
0000
0000
0000
0000
0000
0000
,
0003
0000
0010
1000
0100
0000
1000
0000
0020
0000
0000
0000
0031
0000
0000
0000
,
1200
0000
0300
0000
1200
0000
0300
0000
1200
0000
0300
0000
0010
1000
0020
0000
1030
0000
0000
0000
0000
0000
0000
0000
0010
0000
0000
0000
0000
0000
0000
0000
,
1000
0001
0100
0000
1000
0000
0010
0000
,
0100
0000
0001
0000
0010
1000
0001
0000
,
0100
0001
0010
0100
,
0010
0001
0100
0000
1000
0000
0010
1000
,
0100
0000
0001
0000
0100
1000
0010
0000
,
0100
0000
0001
0010
1000
0100
0001
0000
,
0100
0010
0001
0000
0100
0000
0010
0000
,
1000
0000
0010
0100
1000
0100
0010
0000
,
0100
0001
0100
0010
,
0100
0000
0010
0001
1000
0100
0010
0000
,
0100
0001
0010
0001
,
0010
1000
0100
0001
0010
0000
0001
0000
,
0100
0001
1000
0100
,
0010
0001
0100
0000
0010
1000
0001
0000
,
0100
0000
0001
1000
0020
0000
0000
0000
,
0230
0000
0000
0000
0310
0000
0010
1000
,
0100
0000
0001
0000
0010
0000
0100
0001
,
1000
0000
0100
1000
0010
0000
0001
0100
,
0010
0000
0001
1000
0010
0000
0100
0000
,
1000
0010
0001
1000
0010
0000
0100
0000
,
1000
0000
0001
0000
1000
0100
0010
0000
,
1000
0010
0001
0000
0100
0000
0010
0001
,
1000
0000
0001
0000
0100
1000
0010
0000
,
0100
0001
0010
0100
1000
0000
0100
0010
,
1000
0001
0100
0000
1000
0100
0001
0010
,
0100
0000
0020
0100
1030
0000
0001
0000
,
0100
0001
1000
0001
,
1000
0000
0010
0000
0100
0000
0001
1000
,
0010
0000
0100
0000
1000
0001
0100
0000
,
0010
0000
0100
0001
1000
0000
0010
1000
,
0010
1000
0001
0010
0001
0010
0100
1000
,
0100
0010
0100
1000
0020
0000
0030
0000
,
0220
0330
2002
0000
,
3003
0000
0000
0000
1000
0001
0200
0000
1300
0000
0000
0000
0100
0000
1000
0000
,
0001
1000
0100
0010
0100
1000
0010
0100
,
0010
0100
0001
0010
0100
0010
0100
0010
,
0001
0100
0010
0100
0001
1000
0010
0000
,
1000
0000
0100
0000
0010
0000
0100
0001
,
0010
1000
0001
0100
0001
0100
0010
1000
,
0100
0010
0100
0010
0100
1000
0010
0100
,
0010
0100
0010
1000
0001
0010
0001
0010
,
0001
1000
0100
1000
0100
0000
0010
0000
,
0001
0010
0100
1000
0001
1000
0001
0010
,
0001
0010
0100
1000
0100
0010
0100
0010
,
0001
0100
0010
1000
0100
1000
0100
0010
,
0001
1000
0001
0010
0001
0100
0010
1000
,
0100
0010
0001
0100
0010
1000
0100
0010
,
0100
0010
0001
0010
0001
0100
0001
0010
,
0100
1000
0100
0010
0001
0010
0001
0000
,
1000
0100
0010
0001
0010
1000
0001
0010
,
0001
1000
0010
1000
0010
0100
0001
1000
,
0010
0100
0010
1000
0100
1000
0001
1000
,
0100
0010
0001
1000
0100
0010
0001
0100
,
0001
0010
0100
1000
0010
0000
0001
0000
,
1000
0001
0010
0100
,
0010
0100
2002
0000
,
0000
3003
0000
0000
;

//--------------- dance-single - URA-CHALLENGE ----------------
#NOTEDATA:;
#STEPSTYPE:dance-single;
#DESCRIPTION:URA-CHALLENGE;
#DIFFICULTY:Edit;
#METER:18;
#RADARVALUES:0,0,0,0,0;
#BPMS:0.000=194.253
,80.000=777.000
,330.000=194.250
,366.000=97.125
,368.000=194.250
,428.000=97.125
,430.000=194.250
,446.000=388.500
,451.000=129.200
,452.000=388.506
,456.000=194.253
,458.000=388.506
,466.000=194.253
,470.000=777.000
,590.000=194.250
,592.000=777.000
,720.000=194.250
,728.000=777.000
,904.000=194.250
;
#STOPS:328.000=0.232
,329.000=0.232
;
#NOTES:
0000
0000
0000
0000
,
0000
0000
0000
0000
,
0000
0000
0000
0000
,
0000
0000
0000
0000
,
0000
0000
0000
0000
,
0000
0000
0000
0000
,
0000
0000
0000
0000
,
0000
0000
0000
0000
,
0000
0000
0000
0000
,
0000
0000
0000
0000
,
2000
3001
0200
0310
,
0200
1300
0002
0103
,
0020
1030
0002
0103
,
0020
1030
0002
0103
,
0010
0100
1000
0010
0001
0100
1000
0001
,
0010
0100
1000
0010
0001
0100
0010
0001
,
0100
0001
1000
0100
0001
1000
0010
0001
0100
0010
1000
0100
0001
1000
0010
0001
,
0200
0000
0010
0300
,
2002
3003
0220
0330
,
2002
0000
0000
0000
0000
0000
0000
0000
0000
0000
0000
0000
0000
0000
0000
0000
0000
0000
0000
0000
0000
0000
0000
0000
0000
0000
0000
0000
0000
0000
0000
0000
3003
0000
0000
0000
0000
0000
0000
0000
0000
0000
0000
0000
0000
0000
0000
0000
0001
0000
0000
0000
0010
0001
0010
0001
0010
0001
0010
0001
0010
0001
0010
0001
,
0010
0000
0010
1000
,
0001
1000
0100
0010
,
0001
0010
0100
0010
,
0001
1000
0010
1000
,
0010
1000
0001
0100
,
0010
0100
0001
1000
,
0001
0010
0100
1000
,
0100
0010
0100
1000
,
0010
1000
0100
0010
,
0100
1000
0001
0010
,
0001
0010
0100
1000
,
0001
0100
0001
0010
,
0100
0010
0100
1000
,
0001
0010
0001
1000
,
0010
1000
0010
0100
,
0010
0001
1000
0010
0100
0001
0010
1000
,
0100
0000
0100
0000
,
0001
1000
0001
0010
,
0100
0010
0100
0010
,
0001
1000
0100
1000
,
0001
0100
1000
0000
0010
0000
0100
0000
,
0001
0100
0010
1000
,
0010
0000
0100
0000
0001
1000
0010
0001
,
0100
1000
0010
0100
,
0010
0000
0001
0000
,
0100
1000
0100
1000
,
0001
0100
0001
1000
,
0001
0010
0100
0010
,
0001
1000
0100
0000
0010
0000
0100
0000
,
0001
0000
0010
1000
0100
0000
0010
0000
,
0002
0000
0000
0000
,
1003
0100
1000
0100
1000
0100
1000
0100
,
1000
0000
0010
0000
,
0001
0000
0100
0000
,
0001
0000
1000
0000
,
0010
0000
1000
0001
,
0100
0000
0010
0000
,
0100
0000
0010
0000
,
0001
1000
0010
0000
,
0001
0000
1000
0100
,
0001
1000
0010
0000
,
0100
0000
0010
0000
,
0001
0000
0100
0000
,
0010
0000
0100
0000
,
0010
0001
1000
0100
0010
0000
0001
0000
,
0100
1000
0010
0001
,
1000
0100
0010
0000
,
0100
0000
0001
0000
,
0200
0000
0000
0000
,
0310
0100
1000
0001
,
1000
0001
0010
0100
,
1000
0010
0100
0001
,
0100
0010
0100
0010
,
1000
0001
0100
0010
,
1000
0100
1000
0010
,
1000
0010
0100
0001
,
1000
0100
1000
0010
,
0100
0010
0100
0010
,
1000
0001
0010
0001
,
0100
0001
0100
0010
,
0001
0100
0010
1000
0100
0000
1000
0000
,
0010
1000
0001
0010
,
1001
0000
0110
0000
1001
0100
0010
1000
,
0010
0001
0100
1000
0001
0010
2000
0000
,
0000
0000
3001
0000
0110
0000
0001
1000
,
0100
0000
0010
0000
0001
0000
0000
0000
0100
1000
0010
0000
0001
0010
0100
0000
,
1000
0010
0001
0000
0100
0000
0010
0000
1000
0000
0000
0000
0010
0000
0100
0000
,
1000
0010
0001
0000
0020
0031
0200
1300
,
0002
1003
0100
0000
1000
0000
0100
1000
,
0010
0000
0100
0000
0001
0000
0000
0000
1000
0001
0010
0000
0100
0001
0010
0000
,
1000
0001
0010
0000
0100
0000
0001
0000
1000
0000
0000
0000
0010
0000
1000
0000
,
0100
0000
0010
0000
0001
0000
0000
0000
0200
0000
0000
0000
0010
0010
0310
0000
,
0001
0000
0010
0000
1000
0000
0001
1000
0010
0000
0100
0000
1000
0000
0000
0000
,
0010
0001
0100
0000
1000
0100
0010
0000
0001
0100
1000
0000
0010
0000
0100
0000
,
0001
0000
0000
0000
0100
0000
0010
1000
0001
0000
0100
0000
1000
0000
0000
0000
,
0200
1300
0020
0031
2000
3001
0010
0000
,
0001
0000
1000
0000
0010
0000
0001
1000
0100
0000
0010
0000
1000
0000
0000
0000
,
0001
1000
0100
0000
0010
1000
0100
0000
0001
1000
0100
0000
0010
0000
1000
0000
,
0001
0000
0100
0001
0010
0100
1000
0000
,
0020
0130
0200
0301
2000
3001
0110
0000
,
1001
0101
1010
0110
,
1001
0101
0110
0101
,
1010
0110
0101
1010
,
0110
0101
0110
1110
,
0110
0010
0011
1100
,
0101
0110
1001
0101
,
0110
0101
1001
1010
,
0000
0200
0000
0000
0320
0000
0000
0000
1030
0000
0100
0000
0010
0001
0100
0000
,
1000
0000
0010
0100
1000
0000
0001
0000
1000
0000
0100
0001
0010
0000
0100
0000
,
0010
0001
0100
0000
1000
0000
0001
0000
0010
0000
0001
0000
1000
0001
0100
0000
,
0010
0000
0100
0001
1000
0000
0010
0000
1000
0000
0001
1000
0100
0000
0010
0000
,
1000
0001
0100
0000
0010
0000
0100
0000
0001
0000
0010
0000
0001
0000
0010
0000
,
0100
0010
0100
1000
0010
1000
0020
0000
,
0130
0100
0010
0100
0010
0001
1000
0001
,
0200
0000
0000
0000
0310
0001
0010
0100
,
0010
0001
0100
0010
0200
0000
0000
0000
,
0320
0000
1030
1000
,
0100
0000
0000
0000
0000
0000
0000
0000
0000
0000
0000
0000
0000
0000
0000
0000
0010
0000
0000
0000
0100
1000
0100
1000
0100
1000
0100
1000
0100
1000
0100
1000
0001
0000
0000
0000
0000
0000
0000
0000
0000
0000
0000
0000
0000
0000
0000
0000
1000
0000
0000
0000
0000
0000
0000
0000
0000
0000
0000
0000
0000
0000
0000
0000
,
0010
1000
0010
0100
,
0001
0010
0100
1000
,
0010
0100
0001
0010
,
0100
0010
0001
0100
,
0001
0100
0010
1000
,
0001
1000
0001
0100
,
0010
1000
0010
1000
,
0010
0100
0001
0100
,
0001
0100
0010
1000
,
0001
0010
0100
0010
,
0001
0010
0100
1000
,
0010
0000
1000
0000
0100
0001
0010
1000
,
0100
1000
0010
0100
,
0010
0100
0010
1000
,
0001
0000
0100
0000
0010
0000
0100
0001
,
0010
1000
0100
0000
0001
0000
0010
0000
,
0001
0010
0001
0100
,
0010
1000
0100
0010
,
0100
0010
0100
1000
,
0010
0100
0010
1000
,
0100
0010
0001
1000
,
0100
0010
0001
0010
,
0100
1000
0001
1000
,
0001
0100
0010
1000
,
0010
1000
0100
1000
,
0010
0100
0010
0100
,
0010
1000
0001
0100
,
0010
0000
1000
0000
0100
0001
0010
1000
,
0001
1000
0001
0010
,
0100
1000
0020
0230
,
0310
0001
0100
0010
,
1000
0100
1000
0010
,
0100
0001
0010
0100
,
0010
0100
0010
0001
,
0100
0001
0010
0001
,
0010
0100
0010
0001
,
1000
0100
0010
0100
,
0010
0100
1000
0010
,
1000
0010
1000
0100
,
0010
0001
0010
0001
,
0100
0010
1000
0001
,
0100
0010
1000
0100
,
1000
0010
0001
0100
0010
0000
0100
0000
,
1000
0010
1000
0001
,
0100
0010
0100
0010
,
0100
0000
0001
1000
0010
0000
0100
0000
,
1000
0010
0100
0010
,
1000
0001
0100
0001
,
0100
0010
1000
0001
,
0010
0000
0000
0000
0001
0000
0000
0000
1000
0100
1000
0100
1000
0100
1000
0100
,
1000
0001
1000
0001
,
0010
0001
0010
0000
,
0200
0000
0310
0000
,
0001
0000
1000
0000
,
0001
0000
0100
0000
1000
0001
0100
1000
,
0001
0000
1000
0100
0010
0000
1000
0000
,
0010
0000
0100
0000
0010
1000
0100
0000
,
0001
0000
0100
0001
0010
0000
1000
0000
,
0010
0000
0100
0000
0001
0100
1000
0000
,
0010
0000
0100
1000
0001
0000
0010
0000
,
0100
1000
0010
0100
,
0001
0000
0000
0000
0100
0000
0000
0000
0010
0100
0010
0100
0010
0100
0010
0100
,
0020
0030
0200
0300
,
2002
0000
0000
0000
0000
0000
0000
0000
0000
0000
0000
0000
0000
0000
0000
0000
0000
0000
0000
0000
0000
0000
0000
0000
0000
0000
0000
0000
0000
0000
0000
0000
3003
0000
0000
0000
0000
0000
0000
0000
0000
0000
0000
0000
0000
0000
0000
0000
0001
0000
0000
0000
0010
0000
0000
0000
1000
0100
1000
0100
1000
0100
1000
0100
,
0001
1000
0100
1000
,
0100
0010
0001
0010
,
0100
1000
0010
1000
,
0100
1000
0001
0010
,
0001
0010
0001
0100
,
0010
1000
0001
0010
,
0001
0100
0001
0001
,
0010
0000
0100
0000
1000
0100
0001
0000
,
0100
0010
0100
0010
,
0100
0001
0010
0100
,
0010
0001
1000
0100
,
0010
0100
0010
0001
,
0100
0010
0001
0000
1000
0000
0010
0000
,
1000
0001
1000
0001
,
0100
0010
0001
0000
0100
0000
0010
0000
,
1000
0001
0100
0010
1000
0100
0001
1000
,
0010
0001
0010
0100
,
0010
0001
1000
0010
,
0100
0010
0100
0001
,
1000
0100
0010
0100
,
1000
0001
0100
0000
1000
0000
0010
0000
,
1000
0100
0010
0100
,
0010
0000
0100
0000
1000
0001
0010
1000
,
0100
0000
0001
0000
0100
1000
0010
0000
,
0100
0010
1000
0001
,
1000
0001
0010
0100
,
0010
0100
0010
0001
,
1000
0001
0010
0001
,
0010
1000
0100
0000
0010
0000
0100
0000
,
1000
0001
0010
0000
0100
0000
0010
0000
,
0200
0000
0000
0300
,
0100
0010
0100
0010
0100
0010
0100
0010
,
0100
0010
0001
0100
,
0010
1000
0010
1000
,
0001
0100
0010
1000
,
0100
1000
0100
1000
,
0001
0010
0001
1000
,
0010
0100
0010
0100
,
0010
1000
0001
1000
,
0100
0010
0001
1000
,
0001
1000
0100
1000
,
0001
1000
0001
0100
,
0010
0100
0010
0100
,
0001
1000
0001
0100
,
2002
0000
0000
0000
,
3003
0000
0000
0000
;
