
//----- song ID: 2354 -----//
#TITLE:23時54分、陽の旅路へのプレリュード;
#ARTIST:かめりあ;
#TITLETRANSLIT:23 Ji 54 bu, yono tabiji e no prelude;
#ARTISTTRANSLIT:Camellia;
#GENRE:ナムコオリジナル;
#MUSIC:23 Ji 54 bu yono tabiji e no prelude.ogg;
#BANNER:23 Ji 54 bu yono tabiji e no prelude.png;
#BACKGROUND:23 Ji 54 bu yono tabiji e no prelude-bg.png;
#CDTITLE:./CDTitles/NSD A3.png;
#SAMPLESTART:100.396;
#SAMPLELENGTH:15.000;
#SELECTABLE:YES;
#OFFSET:0.000;
#BPMS:0.000=300.000
,46.000=150.000
,142.000=300.000
,190.000=150.000
,286.000=300.000
;
#STOPS:;
#BGCHANGES:;
#FGCHANGES:;

//--------------- dance-single - ----------------
#NOTES:
     dance-single:
     :
     Beginner:
     10:
     0,0,0,0,0:
0000
0000
0000
0000
,
0000
0000
0000
0000
,
0000
0000
0000
0000
,
0000
0000
0000
0000
,
0000
0000
0000
0000
,
0000
0000
0000
0000
,
0000
0000
0000
0000
,
1001
0000
0000
0000
,
0101
1010
0110
0000
,
0000
0000
1001
0110
,
0110
0000
0000
0000
,
0101
0000
0110
0000
1010
0000
0000
1000
,
0000
0000
0001
0000
0000
0100
0000
0000
,
1000
0000
0000
0001
0000
0000
0100
0000
,
0000
0010
0000
0000
1000
0000
0000
0000
,
0000
0001
0100
1000
,
0002
0000
0000
2003
,
0000
3000
0001
0100
,
1000
0100
0010
1000
,
0002
0000
0000
0000
,
0203
0000
0310
0000
,
1000
0001
0100
0010
,
1000
0000
0100
0000
,
0001
0100
1000
0100
,
0001
0010
0100
0001
,
1000
0001
0100
1000
,
0001
0100
2000
0000
,
3001
0010
0100
1000
,
0002
0000
1003
0100
,
1000
0001
0100
0000
,
0010
0000
0100
0000
,
1000
0000
0001
0000
,
0100
1000
0001
0000
,
0100
0000
1000
0001
,
0100
0000
0000
0000
0000
0000
0000
0000
0000
0100
0000
0000
0010
0000
0000
0100
,
0000
1001
0000
0000
0002
0000
0000
0000
,
0000
2003
0000
0000
,
3200
0000
0000
0320
,
0000
0000
2030
0000
,
0000
3002
0000
0000
,
0203
0000
0000
0320
,
0000
0000
2030
0000
,
0000
3002
0000
0000
,
0203
0000
0000
2300
,
0000
0000
3001
0010
,
0100
0000
1000
0001
,
0100
0000
0010
0000
,
1000
0000
0001
0000
,
0000
0000
0000
0000
,
0000
0000
0000
0000
,
0000
0000
0100
0000
,
0000
1000
0000
0000
,
0001
0000
0000
0100
,
1000
0001
2002
0000
,
0000
3003
0000
0000
,
0220
0000
0000
0330
,
0000
0000
0001
0000
,
0000
1000
0000
0000
,
0110
0000
0000
0001
,
0000
1000
0100
0001
,
0100
1001
0000
0000
0100
0000
0010
0000
,
0100
0000
0000
0000
0000
1000
0000
0000
,
0010
0000
1000
0000
0100
0000
0000
0001
,
0000
0000
0100
0000
0000
1000
0000
0000
,
0001
0000
0000
0100
0000
0000
0010
0000
,
0000
0100
0000
0000
0110
0000
0000
0000
,
1000
0001
0000
0000
0100
0000
0010
0000
,
1000
0000
0000
0001
0000
1000
0000
0000
,
0100
0000
1000
0000
0001
0100
1000
0000
,
1000
0001
0100
0000
0010
1000
0001
0000
,
0100
1000
0001
0000
0100
1000
0001
0100
,
0010
0000
0220
0000
,
0000
0000
0330
0000
,
2002
0000
0000
0000
,
3003
0000
0020
0000
,
0000
0000
0000
0000
,
0030
1000
0000
0000
0001
0000
0000
0000
,
0200
0000
0310
0000
,
0001
0000
1000
0000
,
0001
0000
0100
0000
,
0010
0000
0100
0000
,
1000
0000
0001
0000
,
0100
0000
0010
0000
,
1000
0000
0001
0000
,
0100
0000
0000
0000
,
1000
0000
0100
0000
,
0001
0000
1000
0000
,
0100
0000
0010
0000
,
1000
0000
0001
0000
,
0100
0000
1010
0000
,
0100
0000
0010
0000
,
0001
0000
2000
0000
,
3002
2003
3010
0100
,
1000
0000
0001
1000
,
0001
0000
0100
0000
,
1000
0000
0001
0000
,
0100
0000
0010
0000
,
1000
0000
0100
0000
,
0010
0000
1000
0000
,
0001
0000
0100
0000
,
0010
0000
1000
0000
,
0001
0000
0100
0000
,
1000
0000
0001
0000
,
0100
0000
0000
0010
,
0000
0000
0100
0000
,
1000
0000
0001
0000
,
0100
0000
0000
0010
,
0000
0000
0100
0000
,
0001
0000
1000
0000
,
0001
0000
0100
0000
,
0010
0000
0020
0000
,
0000
0000
0000
0000
,
1030
0000
0100
0000
,
0010
0000
1000
0000
,
0002
0000
0000
0000
,
2000
0000
0000
0000
,
0000
0000
3003
0000
,
0000
0000
0000
0000
,
0000
0000
0000
0000
,
0000
0000
0110
0000
,
0000
0000
1000
0001
,
1000
0000
0000
0000
,
1000
0001
1000
0000
,
0000
0000
0001
1000
,
0001
1000
0010
0100
,
1000
0100
0001
0000
,
1000
0000
0001
0000
,
0100
0000
0010
0000
,
1000
0000
0001
0000
,
0100
0000
0010
0000
,
1000
0000
0000
0000
,
0000
0000
0000
0000
,
0000
0000
0000
0000
,
0110
0000
0000
0000
,
0000
1001
0000
0000
0000
0000
0000
0000
;

//--------------- dance-single - ----------------
#NOTES:
     dance-single:
     :
     Easy:
     13:
     0,0,0,0,0:
0000
0000
0000
0000
,
0000
0000
0000
0000
,
0000
0000
0000
0000
,
0000
0000
0000
0000
,
0000
0000
0000
0000
,
0000
0000
0000
0000
,
0000
0000
0000
0000
,
1001
0000
0000
0000
,
1000
0001
0110
0000
,
0000
0000
0001
0010
,
1100
0000
0000
0000
,
1000
0000
0010
0000
0101
0000
0000
0001
,
0000
0000
1000
0000
0001
0010
0000
0000
,
0001
0000
0001
1000
0000
0000
0010
0000
,
1000
0100
0000
0000
0001
0000
0000
0000
,
0010
1000
0010
0001
,
2000
0000
0000
3002
,
0000
0000
0000
0000
0003
0000
0000
0000
1000
0000
0000
1000
0000
0000
0010
0000
,
0001
0000
0010
0000
0100
0000
0001
0100
,
2000
0000
0000
0000
,
3020
0000
0000
0000
0000
0000
0000
0000
0130
0000
0000
1000
0000
0000
0100
0000
,
0001
0000
1000
0000
0010
0000
0100
1000
,
0001
0000
0000
1000
0000
0000
0100
0000
0010
0000
0000
0000
0001
0000
0000
0000
,
1000
0000
0010
1000
0001
0000
0010
0000
,
1000
0100
0010
1000
,
0001
0100
1000
0000
0010
0000
0001
0100
,
1000
0010
0002
0100
,
1003
0100
0010
0001
,
2000
0000
0000
0000
3001
0100
0010
0000
,
0001
0100
1000
0100
0010
0000
0001
0000
,
0100
1000
0010
0100
,
0001
0100
1000
0100
,
0010
0001
1000
0100
,
0010
0000
1000
0000
0001
0100
1000
0100
,
0010
0000
0000
0000
0000
0000
0000
0000
0000
0010
0000
0000
0100
0000
0000
0010
,
0000
1001
0000
0000
2000
0000
0000
0000
,
0000
3002
0000
0000
,
0023
0000
0000
0230
,
0000
0000
0302
0000
,
0000
2003
0000
0000
,
3020
0000
0000
0230
,
0000
0000
0302
0000
,
0000
2003
0000
0000
,
3020
0000
0000
0032
,
0000
0000
1003
0100
,
0010
0100
0001
1000
,
0010
0001
0100
1000
,
0001
0100
0002
0000
,
0000
0000
0000
0000
,
0000
0000
0000
0000
,
0000
0000
0000
0000
0013
0000
0000
1000
,
0000
0000
0001
0000
0000
0100
0000
0000
,
1000
0100
1000
0010
,
0001
1000
2000
0100
,
0010
3001
0000
1000
,
0020
0100
1000
0230
,
0000
0320
0000
0000
1030
0000
0000
0200
,
0000
0000
0301
0000
0000
2000
0000
0000
,
3010
0000
0000
0000
0000
0000
0000
0000
0000
0000
0000
0000
1001
0000
0000
0110
,
0000
0000
1010
0000
0000
1001
0000
0000
0010
0000
0000
0000
1000
0000
0000
0000
,
0010
1001
0000
0100
0010
0000
0100
1000
,
0010
0000
1000
0000
0100
0001
1000
0000
,
0100
0000
0001
1000
0010
0000
0001
1000
,
0100
0000
0010
1000
0100
0001
0000
0000
,
1000
0100
1000
0010
0001
0000
0100
0000
,
1000
0010
0001
0000
0110
0000
0100
0000
,
0001
1000
0100
0000
0010
1000
0100
0000
,
0001
0000
0100
1000
0010
0001
1000
0000
,
0010
1000
0001
0000
1000
0010
0001
0100
,
0001
1000
0010
0000
0100
0001
1000
0000
,
0010
0001
1000
0100
0010
0001
1000
0010
,
0100
0000
0220
0000
,
0000
0000
0330
0000
,
2002
0000
0000
0000
,
3003
0000
0200
0000
,
0000
0000
0000
0000
,
0300
0001
0000
0000
1000
0000
0000
0000
,
0020
0000
0130
0001
,
1000
0000
0001
0100
,
1000
0000
0010
1000
,
0100
1000
0010
0100
,
0001
0010
1000
0000
,
0010
0000
0101
0000
,
0001
0100
1000
0000
,
0010
0000
0000
1000
0000
0000
0000
0000
2000
0000
0000
0000
,
3001
0100
0010
0100
,
0000
0000
2000
0000
0000
0000
3001
0000
0000
0100
0000
0000
,
0010
1000
0100
0010
,
0001
0100
1000
0100
,
0010
1000
0101
1000
,
0010
0001
0100
0010
,
1000
0100
0002
0000
,
2003
3002
0103
0010
,
0001
0100
1000
0001
,
1000
0100
0010
1000
,
0001
0100
1000
0100
,
0010
0000
0000
1000
0000
0000
0100
0000
2000
0000
0000
0000
,
3001
0100
0010
1000
,
0100
0000
2000
0000
0000
0000
3001
0000
0000
0100
0000
0000
,
1000
0100
0010
0001
,
0100
0000
0000
1001
0000
0000
0100
0000
,
0000
1001
0000
0000
0010
0000
0000
0000
,
0001
0100
1000
0000
,
0010
0100
1000
0100
,
0001
1000
0002
0000
,
0100
0000
1000
0000
,
0203
0000
0010
0000
,
0001
0000
0310
0001
,
1000
0000
0001
0100
,
1000
0000
0010
0001
,
0100
0000
0200
0000
,
1000
0000
0010
0000
,
0301
1000
0010
1000
,
0100
0010
0001
0000
,
2000
0000
0000
0000
,
0002
0000
0000
0000
,
0000
0000
3003
0000
,
0000
0000
0000
0000
,
0000
0000
0000
0000
,
0000
0000
0110
0000
,
0000
0100
0001
1000
,
0001
0000
0000
0100
,
0001
1000
0001
0000
,
0000
0010
1000
0001
,
1000
0001
0100
0010
,
0001
0010
1000
0100
,
0001
0100
1000
0100
,
0010
0001
0100
1000
,
0001
0100
1000
0001
,
0010
1000
0100
0010
,
0001
1000
0000
0000
,
0000
0000
0000
0000
,
0000
0000
0000
0000
,
0220
0000
0000
0330
,
0000
1001
0000
0000
0000
0000
0000
0000
;

//--------------- dance-single - ----------------
#NOTES:
     dance-single:
     :
     Medium:
     16:
     0,0,0,0,0:
0000
0000
0000
0000
,
0000
0000
0000
0000
,
0000
0000
0000
0000
,
0000
0000
0000
0000
,
0000
0000
0000
0000
,
0000
0000
0000
0000
,
0000
0000
0000
0000
,
2002
3003
0000
0000
0010
0000
0100
0000
1000
0000
0001
0000
0100
0000
0000
0000
,
1000
0000
0000
0000
0010
0000
0000
0000
0202
0303
0000
0000
1000
0000
0100
0000
,
0001
0010
0000
0000
0010
0000
0001
0000
,
0220
0330
0000
0000
0100
0000
0001
0000
0100
0000
0001
0000
1000
0000
0000
0000
,
1001
0000
1010
0000
0101
0000
1000
0001
,
0000
0100
1000
0000
0001
0010
0000
1000
,
0001
0000
0001
1000
0000
0100
0010
0000
,
1000
0000
0100
0000
0000
0000
0010
0000
0001
0000
0000
1000
0000
0001
0000
0000
,
0010
0000
1000
0100
0010
1000
0001
0000
,
2000
0000
0000
3002
,
0000
0000
0000
0000
0003
0000
0000
0000
1000
0000
0000
1000
0000
0000
0010
0000
,
0001
1000
0200
0000
0310
1000
0001
0100
,
2000
0000
0000
0000
,
3020
0000
0000
0000
1000
0000
0000
0000
0130
0000
0000
1000
0000
0000
0100
0000
,
0001
0100
1000
0000
0010
0001
0100
1000
,
0001
0000
0000
1000
0000
0000
0100
0000
0010
0000
1000
0000
0001
0000
0000
0000
,
1000
0100
0010
1000
0001
0000
0010
0100
,
1000
0000
0100
0001
0010
0000
1000
0100
,
0001
0100
1000
0100
0010
0000
0001
0100
,
1000
0100
0010
1000
0002
0000
0100
0000
,
1003
0010
0100
0000
0010
1000
0001
0100
,
2000
0000
0010
0000
3001
0100
0010
1000
,
0001
0100
1000
0100
0010
1000
0001
0000
,
0100
0001
1000
0000
0010
1000
0100
0000
,
0001
0010
0100
0000
1000
0001
0100
0000
,
0010
1000
0001
0000
1000
0001
0100
1000
,
0010
0100
1000
0010
0001
0100
1000
0100
,
0210
0000
0000
0000
0000
0000
0000
0000
0000
0000
0000
0000
0000
0000
0000
0000
0300
0000
0220
0330
0000
0000
0000
0000
0220
0330
0000
0000
0000
0000
2002
3003
,
0000
0220
0000
0330
2000
0000
0000
0000
,
0000
3002
0000
0000
,
0023
0000
0000
0230
,
0000
0000
0302
0000
,
0000
2003
0000
0000
,
3020
0000
0000
0230
,
0000
0000
0302
0000
,
0000
2003
0000
0000
,
3020
0000
0000
0032
,
0000
0000
1003
0100
,
0010
0100
0001
1000
,
0010
0100
0001
0000
0100
0010
1000
0000
,
0001
0010
0100
0000
0002
0000
0000
0000
,
0000
0000
0000
0000
,
0000
0000
0000
0000
,
0000
0000
0000
0000
0013
0000
0000
1000
,
0000
0000
0001
0000
0000
0100
0000
0000
,
1000
0000
0100
0000
1000
0000
0010
0100
,
0001
0000
1000
0001
1000
0100
1000
0001
,
0010
0100
1000
0010
0100
0001
0010
0100
,
1000
0010
1000
0010
0100
0010
0100
0001
,
1000
0100
0010
0100
2001
0000
0000
0001
,
0000
0000
3100
0000
0010
0000
1002
0000
0000
0000
0000
0000
0000
0000
0000
1003
0000
0000
0000
0000
1000
0000
0010
0000
,
2001
0000
0000
0000
0000
0000
3010
1000
,
1000
0000
0010
0000
1000
0000
0010
1000
0100
0000
0000
0000
0001
0000
1000
0000
,
0001
1001
0000
0100
0010
0000
0100
1000
,
0010
0000
1000
0000
0100
0001
1000
0000
,
0100
0000
0001
1000
0010
0000
0001
1000
,
0100
0000
0010
1000
0100
0001
0000
0000
,
1000
0100
1000
0010
0001
0000
0100
0000
,
1000
0010
0001
0000
0110
0000
0100
0000
,
0001
1000
0100
0000
0010
1000
0100
0000
,
0001
0000
0100
1000
0010
0001
1000
0000
,
0010
1000
0001
0000
1000
0010
0001
0100
,
0001
1000
0010
0000
0100
0001
1000
0000
,
0010
0001
1000
0100
0010
0001
1000
0010
,
0100
1000
0001
0000
0000
0000
0000
0000
2002
3003
0000
0000
0100
0000
0010
0000
,
0100
0000
0010
0000
0100
0000
0000
0000
2002
3003
0000
0000
0110
0000
0000
0000
,
2002
3003
0000
0000
0010
0000
0100
0000
0010
0000
0001
0000
0100
0000
0000
0000
,
1001
0110
2001
0000
,
0000
0000
0000
0000
,
3000
0001
1000
0000
0010
0100
0002
0000
,
2003
3000
1001
0010
,
0001
0100
0001
0100
,
0010
0100
0010
1000
,
0010
1000
0100
1000
,
0010
0100
0001
0010
,
0100
1000
0010
0100
,
0001
0100
0010
0100
,
0001
0000
0000
1000
0000
0000
0010
0000
1000
0000
0100
0000
,
0001
1000
0010
0100
,
0001
0000
0010
0000
1000
0000
0100
0000
0000
0010
0000
0000
,
0001
0000
1000
0100
0001
0000
1000
0000
,
0100
0001
1000
0010
0100
0000
0010
0000
,
0100
0001
1000
0100
0010
0000
0100
0000
,
0010
0000
1000
0000
0001
0100
1000
0000
,
0001
0020
0000
0000
,
0230
0000
2300
0000
3010
0001
0100
0010
,
0001
0100
1000
0010
0100
1000
0010
0100
,
0001
1000
0010
0100
0001
1000
0010
1000
,
0100
0010
1000
0001
0100
0000
0010
0000
,
0001
0000
0000
0010
0000
0000
0001
0000
1000
0000
0001
0000
,
0100
1000
0001
1000
,
0001
0000
1000
0000
0010
0000
0100
0000
0000
1000
0000
0000
,
0001
0010
0100
0010
,
0100
1000
0000
0010
0001
0000
1000
0100
,
0000
0010
0001
1000
0010
0000
0100
0000
,
0010
0100
1000
0000
0010
0000
0100
0000
,
0001
1000
0010
0001
0100
0000
1000
0000
,
0001
0100
0002
1000
,
0010
0100
0010
1000
,
0203
1000
0010
1000
,
0001
1000
0310
1000
,
0001
0010
0100
0000
0010
0000
0100
0000
,
0001
0010
0100
1000
0001
0000
1000
0000
,
0001
1000
0020
0100
,
0001
1000
0100
1000
,
0230
1000
0010
1000
,
0001
0010
2300
0000
,
3002
0000
0000
2003
,
3100
0010
0001
1000
,
0100
0010
0100
0010
2002
0000
0000
0000
,
0000
0000
0000
0000
,
3003
0000
0000
0000
,
0000
0000
0000
0000
0000
0000
0000
0000
2002
3003
0000
0000
0010
0000
0000
0000
,
0001
0010
0100
0000
0001
0000
0010
0000
,
0202
0303
0000
0000
0010
0000
0000
0000
0001
0000
0010
0000
0100
0000
0000
0000
,
1000
0000
0000
0000
0001
0000
0000
0000
0220
0330
0000
0000
0001
0000
0000
0000
,
0010
0100
1000
0000
1001
0000
1010
0000
,
2002
3003
0000
0000
0220
0330
0000
0000
2020
3030
0000
0000
2002
3003
0000
0000
,
0220
0330
0000
0000
2020
3030
0000
0000
2002
3003
0000
0000
0010
0000
1000
0000
,
0100
1000
0100
0000
1001
0000
1010
0000
,
0202
0303
0000
0000
0001
0000
1000
0000
0010
0000
1000
0000
0001
0000
0000
0000
,
1010
0000
0000
0000
1001
0000
0000
0000
0220
0330
0000
0000
0001
0000
1000
0000
,
0100
0010
0100
1000
0010
0100
0001
1010
,
0200
0000
0000
0000
,
0000
0000
0000
0000
,
0000
0000
0000
0000
,
0310
0000
0010
0100
1000
0100
0010
0000
,
0000
2002
0000
0000
0000
0000
0000
0000
,
0000
0000
0000
0000
,
0000
0000
0000
3003
;

//--------------- dance-single - ----------------
#NOTES:
     dance-single:
     :
     Hard:
     19:
     0,0,0,0,0:
0000
0000
0000
0000
,
0000
0000
0000
0000
,
0000
0000
0000
0000
,
0000
0000
0000
0000
,
0000
0000
0000
0000
,
0000
0000
0000
0000
,
0000
0000
0000
0000
,
2002
3003
0000
0000
0010
0000
0100
0000
1000
0000
0001
0000
0100
0000
0000
0000
,
1001
0000
0000
0000
1010
0000
0000
0000
0202
0303
0000
0000
1000
0000
0100
0000
,
0001
0010
0000
0000
1010
0000
1001
0000
,
0220
0330
0000
0000
0100
0000
0001
0000
0100
0000
0001
0000
1000
0000
0000
0000
,
1001
0000
1010
0000
1000
0001
1000
0001
,
0010
1000
0001
0100
1000
0100
1000
0100
,
1000
0001
1000
0001
0010
1000
0001
0100
,
1000
0100
1000
0100
0001
0000
0000
0010
,
1000
0100
0020
0000
0031
0100
1000
0100
,
2000
0000
0000
3020
,
0000
0000
0000
0030
1000
0000
0000
0100
,
0001
1000
0020
0000
0130
0001
0010
1000
,
0200
0000
0000
0000
0000
0000
0320
0030
,
1000
0010
0001
1000
2002
3003
0100
1000
,
0100
1000
1000
1000
0020
0100
2030
0100
,
3002
0100
1003
0010
0100
0100
1000
0100
,
2000
0100
3002
1000
0013
0000
1000
0010
,
0001
0000
0000
1000
0000
0000
0100
1000
0010
0001
1000
0010
0100
0001
0010
1000
0001
0100
0010
0001
0000
0010
0000
0000
,
1000
0000
0000
0000
0000
0000
0010
0000
0000
0000
0000
0000
0000
0000
0000
1000
0000
0000
0001
0000
0000
0000
1000
0000
0000
0000
0000
0000
0001
0000
0000
0000
0010
0000
0000
0000
0100
0000
0000
0000
0000
0000
1000
0000
0000
0000
0000
0000
,
0000
0001
0000
0000
1000
0100
0001
0010
2002
0000
3003
0000
0100
0000
1000
0000
,
0100
1000
0001
1000
0020
0100
2030
0100
,
3002
0100
1003
0010
0001
0100
1000
0100
,
2000
0100
3002
1000
0023
0000
0230
0000
,
2300
3002
0023
0230
,
0301
0000
0000
0100
1000
0000
0010
0000
0100
0000
0000
1000
0010
0000
0001
0000
,
0100
0000
0000
0001
1000
0000
0100
0000
0001
0010
1000
0000
0010
0001
0100
0000
,
1000
0001
0100
0000
0010
1000
0010
0001
0100
0010
1000
0100
1000
0001
0100
1000
,
0200
0000
0000
0000
0000
0000
0000
0000
0000
0000
0000
0000
0000
0000
0000
0000
0300
0000
0220
0330
0000
0000
0000
0000
0220
0330
0000
0000
0000
0000
2002
3003
,
0000
0220
0000
0330
1001
0000
1000
0100
,
0010
0100
0001
0000
1000
0001
0100
1000
,
0001
0000
1000
0001
1000
0100
0010
1000
,
0010
1000
0100
1000
0010
0000
0010
0100
,
1000
0100
1000
0000
1000
0001
1000
0010
,
0001
0000
0010
1000
0010
0001
0010
0100
,
1000
0001
0010
1000
0010
0000
0100
1000
,
0001
0100
1000
0001
0010
1000
0001
1000
,
0001
0000
1000
0100
0010
0100
1000
0001
,
0010
0001
0100
0001
1000
0100
0010
0100
,
0010
0100
0001
1000
0001
0010
0100
0010
,
2002
3003
0220
0330
2002
3003
2020
3030
,
2002
3003
0220
0330
2002
0000
0000
0000
,
0000
0000
0000
0000
,
0000
0000
0000
0000
,
0000
3000
0000
0000
0000
0000
0000
0000
2003
0000
0000
0000
0000
0000
3002
0000
,
0000
0000
0023
0000
0000
0230
0000
0000
,
0302
0000
1003
0010
0100
0001
1000
0001
,
0100
1000
0001
0000
0100
0001
0010
0000
1000
0000
0100
0000
1000
0000
0001
0000
,
0010
0100
1000
0010
0100
0001
0010
0100
,
1000
0010
1000
0010
0100
0010
0100
0001
,
1000
0100
0010
0100
2001
0000
0000
0001
,
0000
0000
3100
0000
0010
0000
1002
0000
0000
0000
0000
0000
0000
0000
0000
1003
0000
0000
0000
0000
1000
0000
0010
0000
,
2001
0000
0000
0000
0000
0000
3010
1000
,
1000
0000
0010
0000
1000
0000
0010
1000
0100
0000
0000
0000
0001
0000
1000
0000
,
0001
0000
1000
0100
0001
0000
0010
0000
0100
0000
1000
0001
0200
0000
0000
0000
,
0301
0000
0010
0100
1000
0000
0100
0010
0001
0000
0010
1000
0000
0001
0100
0000
,
0001
1000
0000
0000
0010
0000
0100
0000
0001
0000
0010
1000
0100
1000
0001
1000
,
0100
0000
0000
0001
0000
0000
0000
0000
0100
0000
0000
0000
0000
0001
0000
0000
0000
1000
0000
0000
0001
0000
1000
0000
0100
0000
0010
0000
0100
0000
1000
0000
,
0001
0000
0000
0000
0000
0000
0000
0000
0000
0000
0000
0000
0000
0000
0000
0000
0000
0000
1000
0000
0000
0000
0000
0000
0000
0000
0000
0000
0000
0000
0000
0000
0001
0000
0000
0000
0000
0000
0000
0000
0000
0000
0000
0000
0000
1000
0000
0000
0000
0000
0000
0000
0000
0000
0000
0000
0000
0000
0000
0000
0001
0000
0000
0000
0000
0000
0010
0000
0000
0000
0000
0000
0100
0000
0000
0000
0000
0000
0010
0000
0000
0000
0000
0000
0100
0000
0000
0000
0000
0000
1000
0000
0000
0000
0000
0000
,
0001
0010
0001
0010
0001
1000
0010
0100
1000
0000
0010
0100
1000
0001
0000
0010
,
0100
0000
1000
0001
0000
0010
1000
0000
0001
0100
0000
1000
0001
0000
1000
0100
,
0000
0001
0010
0000
0100
1000
0000
0001
0100
0000
0001
1000
0000
0100
0010
0000
,
0001
1000
0000
0100
0010
0000
0001
0000
0001
0010
0100
1000
0100
1000
0001
0010
,
0001
1000
0010
0100
0001
0100
0001
0010
0100
1000
0001
0010
0100
1000
0100
1000
,
0001
0100
0010
0100
0010
1000
0010
1000
0100
0010
0100
0010
0001
0010
0100
1000
,
0100
0010
0100
0000
0000
0000
0000
0000
1001
0000
0000
0000
1000
0000
0010
0000
,
0100
0010
0100
0000
1001
0000
0110
0000
,
1001
0000
1000
0100
0010
0001
1000
0010
,
1000
0110
2001
0000
,
0000
0000
0000
0000
,
3000
0001
1000
0000
0010
0100
0002
0000
,
2003
0000
3001
0000
0010
1000
0100
0010
,
0100
0010
0001
0100
0001
0010
0100
1000
,
0001
0100
0001
0010
0100
1000
0010
1000
,
0100
0010
0100
0010
0001
0100
0010
1000
,
0010
0100
0010
0100
0001
1000
0100
0010
,
0001
1000
0001
0010
0001
0010
0100
0010
,
0001
0100
0001
1000
0100
1000
0010
0100
,
0001
0000
0000
0010
0000
0000
0100
0000
0000
1000
0000
0000
0100
0000
0000
0000
1001
0000
0000
0000
1010
0000
0000
0000
,
0100
0010
0100
0010
0001
1000
0100
1000
,
0020
0000
0000
0000
0031
0000
0000
0000
0011
0000
0000
0000
0100
0000
0000
1000
0000
0000
0010
0000
0000
1000
0000
0000
,
0010
0100
0010
0100
0001
0100
0010
1000
,
0010
1000
0100
1000
0010
0100
0010
1000
,
0010
0100
0001
0010
0100
1000
0001
0010
,
0001
1000
0100
1000
0010
1000
0001
0010
,
0001
0100
0001
0010
0100
1000
0001
0010
,
0200
0000
2300
0000
3001
0100
0010
1000
,
0001
1000
0100
1000
0100
0010
0100
1000
,
0010
1000
0100
0010
0100
0010
0100
1000
,
0001
0010
0100
0010
0100
1000
0010
0100
,
0001
0000
0000
0100
0000
0000
0001
0000
0000
0100
0000
0000
0010
0000
0000
0000
1001
0000
0000
0000
1100
0000
0000
0000
,
0010
1000
0100
1000
0001
0100
0001
0010
,
0200
0000
0000
0000
0301
0000
0000
0000
0101
0000
0000
0000
0010
0000
0000
0100
0000
0000
0001
0000
0000
1000
0000
0000
,
0100
1000
0010
1000
0001
0010
0001
0100
,
0001
0100
0010
1000
0010
1000
0001
0100
,
0001
0100
0001
1000
0010
0100
0010
1000
,
0001
1000
0100
1000
0010
0100
0010
0100
,
0010
1000
0100
0010
0100
0010
0001
0100
,
0001
0100
0010
0100
0001
1000
0001
0010
,
0001
0010
0100
1000
0010
1000
0100
0010
,
0100
0010
0001
0100
0001
1000
0100
0001
,
0010
1000
0001
0100
0001
0010
1000
0100
,
1000
0010
0100
0010
0100
0001
0100
0010
,
1000
0001
1000
0010
1000
0100
0010
0001
,
1000
0001
0100
0010
0001
1000
0100
1000
,
0001
0010
0001
0010
0001
1000
0010
1000
,
0001
1000
0100
0010
0100
1000
0100
1000
,
0001
1000
0001
0100
2000
0000
0000
0000
,
3010
0100
0020
0000
0000
0000
0130
0001
,
0100
0010
1000
0100
1000
0010
1000
0010
,
0100
0010
0100
0010
2001
0000
0000
0000
,
3002
0000
0000
0000
0000
0003
0000
0000
0010
0000
0100
0000
0001
0000
2000
0000
,
0000
0000
0000
0000
,
0000
0000
0000
0000
3000
0000
0000
0000
2002
3003
0000
0000
0010
0000
0100
0000
,
0001
1010
0100
0000
1001
0000
1010
0000
,
0202
0303
0000
0000
0010
0000
0100
0000
0001
0000
0010
0000
0100
0000
0000
0000
,
1010
0000
0000
0000
1001
0000
0000
0000
0220
0330
0000
0000
0010
0000
0100
0000
,
0010
0100
1000
0000
1001
0000
1010
0000
,
2002
3003
0000
0000
0220
0330
0000
0000
2020
3030
0000
0000
2002
3003
0000
0000
,
0220
0330
0000
0000
2020
3030
0000
0000
2002
3003
0000
0000
0010
0000
1000
0000
,
0100
1000
0100
0000
1001
0000
1010
0000
,
0202
0303
0000
0000
0001
0000
1000
0000
0010
0000
1000
0000
0001
0000
0000
0000
,
1010
0000
0000
0000
1001
0000
0000
0000
0220
0330
0000
0000
0001
0000
1000
0000
,
0100
0010
0100
1000
0010
0100
0001
1010
,
0100
0200
0000
0000
,
0000
0000
0000
0000
,
0000
0000
0000
0000
,
0310
0000
0010
0100
1000
0100
0010
0000
,
0000
2002
0000
0000
0000
0000
0000
0000
,
0000
0000
0000
0000
,
0000
0000
0000
3003
;

//--------------- dance-single - ----------------
#NOTES:
     dance-single:
     :
     Challenge:
     20:
     0,0,0,0,0:
0000
0000
0000
0000
,
0000
0000
0000
0000
,
0000
0000
0000
0000
,
0000
0000
0000
0000
,
0000
0000
0000
0000
,
0000
0000
0000
0000
,
0000
0000
0000
0000
,
2002
3003
0000
0000
0100
0010
0100
1000
0001
0100
0001
1000
0010
0000
0000
0000
,
1001
0000
0000
0000
0101
0000
0000
0000
2020
3030
0000
0000
0001
1000
0010
0100
,
0010
1000
0100
0010
0000
0000
0000
0000
0101
0000
0000
0000
1001
0000
0000
0000
,
0220
0330
0000
0000
0010
0100
0010
0100
0010
1000
0001
1000
0001
0000
0000
0000
,
1001
0000
0000
0000
0101
0000
0000
0000
0001
0000
1000
0000
0001
0000
1000
0001
,
0100
0000
0000
0000
0001
0000
0000
0000
1000
0001
0100
0000
0010
0000
1000
0000
0001
0000
0100
0000
0010
0000
1000
0000
0001
0000
0100
0000
0010
0000
0000
0000
,
0001
0000
0000
0000
1000
0000
0000
0000
0001
0000
0000
0000
1000
0000
0001
0000
0100
0000
0000
0000
0001
0000
0000
0000
1000
0001
0100
0000
0010
0000
1000
0000
,
0001
0000
0100
0000
0010
0000
1000
0000
0001
0000
0100
0000
0010
0000
0000
0000
1000
0000
0000
0000
0000
0000
0001
0000
0000
0000
1000
0001
0100
0000
0000
0000
,
0001
0000
0010
0000
0200
0000
0000
0000
1300
0001
0010
1000
0001
0000
0010
1000
,
0002
0000
0000
0203
,
0000
0000
0000
0000
0000
0000
0000
0000
0000
0000
0000
0000
0300
0000
0000
0000
0001
0000
0000
0000
0000
0000
0010
0000
0000
0000
0001
1000
0010
0000
0000
0000
,
1000
0000
0001
0000
0200
0000
0000
0000
0310
0001
1000
0001
0100
0000
0001
0100
,
0020
0000
0000
0000
0000
0000
0230
0300
,
0001
1000
0010
0000
0100
0000
0001
0000
1000
0000
0010
0000
0001
0000
0000
0000
2002
0000
0000
0000
3003
0000
0000
0000
0010
0000
0000
0000
0001
0000
1000
0000
,
0010
0100
0001
0000
0001
1000
0001
0010
0200
0000
0010
0000
0302
0000
0010
0000
,
2003
0000
0010
0000
3001
0010
0100
1000
0010
1000
0010
0100
0001
1000
0010
0100
,
0002
0000
0000
0000
0010
0000
0000
0000
2003
0000
0000
0000
0001
0000
0000
0000
3100
0000
0000
0000
0000
0000
1000
0100
0000
0001
0000
0000
0100
0000
0000
0000
,
1000
0000
0000
0000
0000
0000
0000
0000
0000
0000
0000
0000
0001
0000
0000
0000
0000
0000
0000
0000
0000
0000
0000
0000
0010
0000
0000
0000
0001
0000
0000
0000
0100
0000
0000
0000
1000
0000
0000
0000
0001
0000
0000
0000
0100
0000
0000
0000
0010
0000
0000
0000
1000
0000
0000
0000
0100
0000
0000
0000
0001
0000
0000
0000
1000
0000
0000
0000
0010
0000
0000
0000
0100
0000
0000
0000
1000
0000
0000
0000
0010
0000
0000
0000
0100
0000
0000
0001
0000
0000
0000
0000
0000
0000
0000
0000
,
0020
0000
0000
0000
0000
0000
0000
0000
0000
0000
0000
0000
0000
0000
0000
1030
0000
0000
0000
0000
0000
0000
0000
0000
0000
0000
0000
0000
0000
0000
0010
0000
0000
0100
0000
0000
1000
0000
0000
0000
0000
0000
0000
0000
0001
0000
0000
0000
0000
0000
0000
0000
0000
0000
0000
0000
1000
0000
0000
0000
0000
0000
0000
0000
0100
0000
0000
0000
0000
0000
0000
0000
0010
0000
0000
0000
0000
0000
0000
0000
0000
0000
0000
0000
0001
0000
0000
0100
0000
0000
1000
0000
0000
0000
0000
0000
,
0000
0001
0000
1000
0001
0010
1000
0100
2002
0000
3003
0000
0010
0000
0001
1000
,
0010
0100
0001
0000
0001
1000
0001
0010
0200
0000
0010
0000
0302
0000
0010
0000
,
2003
0000
0010
0000
3001
0010
0100
1000
0010
1000
0010
0100
0001
1000
0010
0100
,
0002
0010
2003
0001
3200
0000
0320
0000
,
0032
2003
3200
0320
,
1030
0000
0000
1000
0001
0000
0100
0000
0010
0000
0000
0001
0100
0000
1000
0000
,
0010
0000
0000
1000
0001
0000
0010
0000
0010
0100
0001
0010
0100
1000
0010
1000
,
0010
0000
0100
0000
0010
0000
1000
0000
0100
0001
1000
0010
0100
0001
1000
0100
0010
1000
0100
0010
0001
0010
0100
1000
0001
0100
1000
0100
0010
0001
1000
0100
,
0020
0000
0000
0000
0000
0000
0000
0000
0000
0000
0000
0000
0000
0000
0000
0000
0030
0000
2002
3003
0000
0000
0000
0000
0220
0330
0000
0000
0000
0000
2002
3003
,
0000
0000
0220
0000
0000
0000
0330
0000
1001
0000
0000
0000
0001
0100
0010
1000
,
0100
1000
0010
0100
0010
0000
0000
0000
0001
1000
0001
1000
0010
0100
0001
0100
,
1000
0000
0000
0000
0001
0010
0001
0100
0001
0100
0010
1000
0100
0010
0001
1000
,
0100
0010
0001
0100
0010
1000
0001
1000
0100
0000
0000
0000
0100
1000
0010
1000
,
0001
1000
0010
0100
0001
0000
0000
0000
0001
0010
0001
1000
0001
0010
0100
0010
,
1000
0000
0000
0000
0100
0010
0001
1000
0100
1000
0100
0010
0100
1000
0001
1000
,
0001
0010
0100
1000
0100
0010
0001
1000
0100
0000
0000
0000
0001
0010
0001
0100
,
0010
0100
0010
0100
0001
0010
0100
0010
0100
0010
0001
1000
0001
0100
0001
0010
,
1000
0000
0000
0000
0001
0100
0010
1000
0100
0010
0100
0010
0001
0100
0001
0010
,
0100
0010
0001
0100
0010
0100
0001
0100
0010
0000
0010
0000
0100
0000
0010
0000
,
0100
0010
1000
0001
1000
0100
0010
0100
,
2002
3003
0220
0330
2002
3003
0202
0303
,
2002
3003
0220
0330
2002
0000
0000
0000
,
0000
0000
0000
0000
,
0000
0000
0000
0000
,
0000
0003
0000
0000
0000
0000
0000
0000
3002
0000
0000
0000
0000
0000
2003
0000
,
0000
0000
3200
0000
0000
0320
0000
0000
,
2030
0000
0000
0000
3001
0000
0100
0000
0010
0000
1000
0000
0001
0100
1000
0100
,
0010
0001
1000
0100
0010
0001
0100
1000
0001
0000
0010
0000
0001
0100
1000
0000
,
0100
0000
0010
0000
0001
0000
0100
0000
0010
0000
1000
0000
0100
1000
0010
0100
,
0001
0000
0100
0000
0001
0000
0100
0000
0010
0000
0100
0000
0010
0100
1000
0000
,
0001
1000
0010
0000
0100
0000
0010
0000
1002
0000
0000
0000
0000
0000
1000
0000
,
0000
0000
0013
0000
0100
0000
2001
0000
0000
0000
0000
0000
0000
0000
0000
3001
0000
0000
0000
0000
0001
0000
0100
0000
,
1002
0000
0000
0000
0000
0000
0000
0000
0000
0000
0000
0000
0103
0010
0001
0010
,
0001
0010
0100
1000
0001
0010
0100
1000
0100
0000
0000
0000
1000
0000
0001
0100
,
1000
0000
0010
0000
0001
0000
0000
0000
1000
0100
0001
0000
1000
0000
0100
0000
0010
0000
1000
0000
0001
0000
0100
0000
0020
0000
0000
0000
0000
0000
0000
0000
,
1030
0000
0001
0100
1000
0000
0000
0000
0001
0100
1000
0000
0001
0000
0000
0000
1000
0001
0000
0000
1000
0100
0010
0000
0000
0000
0000
0001
0010
0100
0000
0000
,
1000
0001
0100
0000
0000
0000
0001
0010
0100
0000
0000
0000
1000
0100
0010
0001
1000
0000
0100
0000
0010
0000
0100
0000
0010
0000
1000
0000
0001
0000
1000
0000
,
0100
0000
0000
0001
0000
0000
0000
0000
0100
0000
0000
0000
0000
0001
0000
0000
0000
1000
0000
0000
0001
0000
0100
0000
1000
0000
0010
0000
0001
0000
0010
0000
,
0001
0000
0100
0000
0000
0000
1001
0000
0000
0000
0100
0000
0000
0000
0010
0000
0000
0000
0000
0000
0001
1000
0010
1000
0001
0100
0010
0001
0100
1000
0010
0001
,
0100
0010
1000
0100
0010
0001
0010
1000
0001
0100
1000
0100
0010
0001
1000
0100
0010
0000
0000
1000
0100
0010
0000
0000
0001
0010
0100
0000
0000
0000
1000
0100
,
0010
0000
0000
0000
0001
1000
0010
0000
0000
0000
0001
1000
0001
0000
0000
0000
1000
0001
0100
0000
0000
0000
0010
0100
1000
0000
0000
0000
0001
1000
0001
0000
,
0000
0000
1000
0001
0100
0000
0000
0000
0010
0100
1000
0000
0000
0000
0001
0100
0010
0000
0000
0000
1000
0100
0001
0000
0000
0000
0000
0001
0100
0010
0000
0000
,
1000
0100
0010
0000
0000
0000
0001
0010
0100
0000
0000
0000
1000
0100
0010
0001
0100
0001
0010
0100
1000
0001
0100
0010
0100
1000
0001
0100
0010
0100
1000
0001
,
0100
0000
1000
0000
0000
0001
0000
0000
0010
0000
1000
0000
0001
0000
0100
0000
0010
1000
0100
0010
0001
1000
0010
0001
0100
0010
1000
0000
0010
0000
0100
0000
,
0010
0000
1000
0000
0100
0000
0010
0000
0100
0000
1000
0000
0010
0000
1000
0000
0100
0000
0010
0000
0001
0000
0010
0000
0100
1000
0001
0100
0010
1000
0001
0100
,
0010
1000
0001
0100
0010
0000
0000
0000
0000
0000
0000
0000
0000
0000
0000
0000
1001
0000
0000
0000
0000
0000
0000
0000
0001
0000
0010
0000
0100
0000
1000
0000
,
0100
0010
0100
1000
0010
0000
0000
0000
1001
0000
0000
0000
0110
0000
0000
0000
,
1001
0000
0000
0000
0001
0100
0001
0010
0100
1000
0001
0010
0001
1000
0100
1000
,
0001
0110
1002
0000
,
0000
0000
0000
0000
,
0003
1000
0001
0000
0100
0010
2000
0000
,
3002
0000
1003
0000
0010
1000
0100
1000
,
0001
0010
0001
0100
0010
1000
0010
1000
0001
0000
0100
0000
0001
0000
0010
0000
,
0001
0000
0010
0000
0100
0000
0010
0000
0010
1000
0100
1000
0010
1000
0010
0100
,
0010
0100
0001
0010
0001
0000
0010
0000
0001
0000
0100
0000
0010
0100
1000
0010
,
0001
0100
0010
1000
0100
0001
1000
0000
0100
1000
0001
1000
0001
0100
0001
0010
,
0100
1000
0010
0100
0001
0100
0001
0010
0001
1000
0010
1000
0100
1000
0100
0010
,
0100
1000
0010
1000
0100
1000
0100
0010
0001
0000
0010
0000
0001
0000
0010
0000
,
0100
0000
0000
1000
0000
0000
0100
0000
0000
1000
0000
0000
0000
0000
0000
0000
1001
0000
0000
0000
0101
0000
0000
0000
,
0010
0000
0100
0000
0001
0010
0100
0000
0100
0010
0001
1000
0001
0000
0001
0010
,
0200
0000
0000
0000
0000
0000
0000
0000
1300
0000
0000
0000
0000
0000
0000
0000
1100
0000
0000
0000
0000
0000
0000
0000
0001
0000
0000
1000
0000
0000
0010
0000
0000
1000
0000
0000
0001
0000
0000
0100
0000
0000
0001
0000
0000
1000
0000
0000
,
0010
0100
0001
0100
0001
1000
0100
0010
0001
0100
0001
1000
0100
0010
0001
0100
,
0010
0100
0001
0010
0100
0010
0100
0010
0001
1000
0100
0010
0001
0100
0010
0100
,
0010
1000
0001
1000
0010
1000
0100
0010
0100
0000
1000
0000
0010
0000
1000
0000
,
0001
0100
0001
0010
0100
1000
0100
1000
0001
0000
0010
0000
0001
0000
0100
0000
,
0001
0000
0100
0000
0010
0000
0100
0000
0100
1000
0010
1000
0100
1000
0100
0010
,
0100
0010
0001
0100
0001
0000
0100
0000
0001
0000
0010
0000
0100
0010
1000
0100
,
0001
0010
0100
1000
0010
0001
1000
0000
0010
1000
0001
1000
0001
0010
0001
0100
,
0010
1000
0100
0010
0001
0010
0001
0100
0001
1000
0100
1000
0010
1000
0010
0100
,
0010
1000
0100
1000
0010
1000
0010
0100
0001
0000
0100
0000
0001
0000
0100
0000
,
0010
0000
0000
1000
0000
0000
0010
0000
0000
1000
0000
0000
0000
0000
0000
0000
1001
0000
0000
0000
0011
0000
0000
0000
,
0100
0000
0010
0000
0001
0100
0010
0000
0010
0100
0001
1000
0001
0000
0001
0100
,
0020
0000
0000
0000
0000
0000
0000
0000
1030
0000
0000
0000
0000
0000
0000
0000
1010
0000
0000
0000
0000
0000
0000
0000
0001
0000
0000
1000
0000
0000
0100
0000
0000
1000
0000
0000
0001
0000
0000
0010
0000
0000
0001
0000
0000
1000
0000
0000
,
0100
0010
0001
0010
0001
1000
0010
0100
0001
0010
0001
1000
0010
0100
0001
0010
,
1000
0000
0000
0110
0000
0000
1001
0000
0000
0110
0000
0000
0101
0000
0000
1001
,
0000
0000
1000
0001
0100
1000
0010
0100
1000
0000
0000
0000
0000
0000
0001
0000
,
0000
0000
1000
0001
0100
0000
0000
0000
0001
0000
0000
0000
0010
0000
0000
0000
,
0100
0001
0100
0010
1000
0001
0010
1000
,
0001
0000
0000
0000
0010
0000
1000
0000
0001
0100
0001
0100
0001
0100
0001
0100
,
0001
0100
0001
0100
0001
0100
0001
0100
0001
0100
0001
0100
0001
0100
0001
0010
,
1000
0010
1000
0010
1000
0010
1000
0010
1000
0010
1000
0010
1000
0010
1000
0010
,
0100
0001
1000
0010
1000
0100
0001
0010
,
0001
0000
0100
1000
0010
0000
0100
0000
0010
0000
1000
0000
0010
0000
0100
0000
,
0001
1000
0001
0100
0001
0010
0100
1000
,
0001
0000
1000
0000
0001
0000
0100
0000
0100
1000
0100
1000
0001
1000
0100
0010
,
0001
1000
0010
0100
0001
0010
0100
1000
0100
1000
0100
0010
0001
1000
0100
1000
,
0100
1000
0001
0010
0001
0010
0100
1000
0010
0100
0010
1000
0001
0010
0001
0100
,
0001
0100
0010
0100
0010
1000
0100
0010
0002
0000
0000
0000
0000
0000
0000
0000
,
0103
0010
0200
0000
0000
0000
0310
1000
,
0010
0100
0001
0010
0001
0100
0001
0100
,
0010
0100
0010
0100
1002
0000
0000
0000
,
2003
0000
0000
0000
0000
3001
0000
0000
0100
0000
0010
0000
1000
0000
0002
0000
,
0000
0000
0000
0000
,
0000
0000
0000
0000
0003
0000
0000
0000
2002
3003
0000
0000
0100
0010
0100
1000
,
0001
0100
0001
1000
0010
0000
0000
0000
1001
0000
0000
0000
0101
0000
0000
0000
,
2020
3030
0000
0000
0001
1000
0010
0100
0010
1000
0100
0010
0000
0000
0000
0000
,
0101
0000
0000
0000
1001
0000
0000
0000
0220
0330
0000
0000
0010
0100
0010
0100
,
0010
1000
0001
1000
0001
0000
0000
0000
1001
0000
0000
0000
0101
0000
0000
0000
,
2002
3003
0000
0000
0220
0330
0000
0000
0202
0303
0000
0000
2002
3003
0000
0000
,
0220
0330
0000
0000
0202
0303
0000
0000
2002
3003
0000
0000
0100
0010
0100
1000
,
0001
0100
0001
1000
0010
0000
0000
0000
1001
0000
0000
0000
0101
0000
0000
0000
,
2020
3030
0000
0000
0001
1000
0010
0100
0010
1000
0100
0010
0000
0000
0000
0000
,
0101
0000
0000
0000
1001
0000
0000
0000
0220
0330
0000
0000
0010
0100
0010
0100
,
0010
1000
0001
1000
0001
0000
0010
0000
0100
0010
0001
0100
0010
0100
0001
0010
,
0100
0000
0001
0010
0001
1000
0001
0010
,
0100
0000
1000
0000
0100
0000
0001
0000
0010
0100
0001
0010
0001
1000
0100
0010
,
0001
0010
0001
1000
0100
0010
0001
0100
0001
0100
0001
1000
0100
0010
0001
1000
,
0110
0000
0000
0000
0100
0010
0100
0010
0001
1000
0001
0010
0100
0000
0000
0000
,
0000
2002
0000
0000
0000
0000
0000
0000
,
0000
0000
0000
0000
,
0000
0000
0000
3003
;
