#TITLE:DDRだよ;
#ARTIST:Sampling Masters MEGA;
#TITLETRANSLIT:DDR da Yo;
#GENRE:ナムコオリジナル;
#MUSIC:DDR da Yo.mp3;
#BANNER:DDR da Yo.png;
#BACKGROUND:DDR da Yo-bg.png;
#CDTITLE:./CDTitles/NSD 2011.png;
#SAMPLESTART:19.395;
#SAMPLELENGTH:15.000;
#SELECTABLE:YES;
#OFFSET:2.205;
#BPMS:0.000=100.000
,20.000=200.000
,266.000=400.000
,268.000=200.000
;
#STOPS:267.000=0.302;
#BGCHANGES:;
#FGCHANGES:;

//--------------- dance-single - ----------------
#NOTES:
     dance-single:
     :
     Beginner:
     3:
     0,0,0,0,0:
0000
0000
0000
0000
,
0000
0000
0000
0000
,
0000
0000
0000
0000
,
0001
0000
1000
0000
,
0010
0000
0100
0000
0010
0100
0010
0100
,
0010
0000
0001
0000
,
1000
0100
1000
0000
,
0010
0010
0010
0000
,
0100
0000
0100
0000
,
0010
1000
0001
0000
,
0010
0100
1000
0000
,
0010
0010
0010
0000
,
0100
0000
0010
0100
,
1000
0000
0001
0000
,
0100
0000
1000
0001
,
0100
0000
1000
0000
,
0001
0000
0010
1000
,
0001
0000
0010
0000
,
0100
0000
1000
0001
,
0100
0000
0010
0000
,
2000
0000
3001
0000
,
0010
0100
1000
0000
,
0001
0010
1000
0000
,
0001
0010
1000
0000
,
0001
0010
0100
0000
,
1000
0001
0100
0000
,
1000
0001
0100
0000
,
1000
0001
0100
0000
,
2000
0000
3001
0000
,
0010
0000
0100
0000
,
1000
0001
0100
0000
,
1000
0000
0001
0000
,
0010
0100
1000
0000
,
0001
0010
0100
0000
,
1000
0001
0100
0000
,
1000
0001
0100
0000
,
1000
0000
0001
0000
,
0100
0000
0010
0000
,
0100
0000
0010
0000
,
1000
0001
1000
0001
,
1000
0001
1000
0000
,
0010
0000
0100
0000
,
0010
0000
0100
0000
,
1000
0001
1000
0001
,
2000
0000
0000
0000
,
3001
0000
0010
0000
,
0100
0000
1000
0000
,
0001
0000
0100
0000
,
1000
0000
0001
0000
,
0010
0000
1000
0000
,
0001
0000
0010
0000
,
0100
0000
1000
0000
,
0002
0000
0000
0000
,
1003
0000
0010
0000
,
1000
0000
0001
0000
,
0010
0000
1000
0000
,
0002
0000
0000
0000
,
1003
0000
0010
0000
,
1000
0000
0001
0000
,
0100
0000
1000
0000
,
0002
0000
1003
0000
,
0010
0100
0000
1000
,
0000
0000
0001
1000
,
0000
0010
0000
0000
,
1000
0001
0000
0100
,
0000
0000
1000
0001
,
0000
0010
1000
0001
,
1000
0010
0000
1000
,
0000
0000
0001
0010
,
0000
1000
0000
0001
,
1001
0000
0000
0000
,
0010
0000
0100
0000
,
0001
1000
0001
1000
,
0001
0100
1000
0000
,
0001
0010
0100
0000
,
1000
0001
0100
0000
,
0010
0100
1000
0001
,
0010
0100
1000
0000
,
0001
0010
0100
0000
,
1000
0001
1000
0000
,
0010
1000
0010
0001
,
1000
0001
0010
0000
,
0100
0010
1000
0000
,
0001
0010
0100
0000
,
0001
1000
0001
0100
,
1000
0001
0100
0000
,
1000
0001
0010
0000
,
1000
0001
0010
0000
,
0100
1000
0001
0010
,
1000
0000
0001
0000
,
0010
0000
1000
0000
,
0001
0000
0100
0000
,
0010
0000
1000
0001
,
0100
1000
0001
0100
,
0010
1000
0001
0100
,
2000
0000
0000
0000
,
3001
0001
0001
0001
,
2002
0000
0000
0000
,
0000
0000
0000
0000
,
3003
0000
0000
0000
;

//--------------- dance-single - ----------------
#NOTES:
     dance-single:
     :
     Easy:
     5:
     0,0,0,0,0:
0000
0000
0000
0000
,
0000
0000
0000
0000
,
0000
0000
0000
0000
,
0010
1000
0010
1000
,
0001
1000
0001
0010
,
0001
0100
0010
0100
,
0010
0100
0001
0010
,
0001
0010
0001
0100
,
0010
0100
0010
0100
,
0001
0010
0001
0010
,
0001
1000
0100
1000
,
0001
0010
0001
0010
,
0001
0100
0010
0100
,
0010
0100
0001
1000
,
0010
1000
0010
1000
,
0001
0100
0001
0100
,
0001
1000
0010
1000
,
0010
1000
0001
0010
,
0100
0010
0100
0010
,
0001
1000
0001
0100
,
0001
0100
0010
0100
,
0010
1000
0001
1000
,
0001
0100
0001
0010
,
0100
0010
0100
1000
,
0001
0010
0001
0100
,
0001
0010
0100
0010
,
0100
1000
0001
0100
,
0010
1000
0010
0100
,
0010
1000
0100
1000
,
0100
1000
0010
0100
,
0010
0100
0010
1000
,
0100
1000
0100
1000
,
0001
0100
0001
0100
,
0001
0010
0100
0010
,
0100
0010
0001
0100
,
0010
0100
0010
0100
,
0001
0010
0001
1000
,
0100
0010
0100
0010
,
0100
1000
0001
1000
,
0001
0100
1000
0000
0010
0001
0100
0000
,
0010
1000
0100
0000
0010
0000
1000
0000
,
0001
0100
0001
0100
,
0001
1000
0100
1000
,
0100
0010
1000
0000
0001
1000
0010
0000
,
0001
1000
0010
0000
0001
0000
1000
0000
,
0010
1000
0010
2000
,
3001
0010
0100
0010
,
0100
0010
0002
1003
,
2001
0000
3001
0100
,
0010
0100
0010
0200
,
0301
1000
0010
1000
,
0010
1000
0001
0200
,
0301
0010
0001
0010
,
0100
0010
0001
2000
,
3100
1000
0010
1000
,
0010
0100
0010
0200
,
0301
1000
0001
1000
,
0001
0100
0010
0200
,
0310
0100
0001
1000
,
0010
1000
0001
0020
,
0130
0010
0100
1000
,
0100
1000
0001
1000
,
0100
0010
0100
1000
,
0100
0010
0001
0010
,
0001
0010
0100
1000
,
0010
1000
0010
1000
,
0001
0100
0010
0100
,
0001
1000
0001
1000
,
0001
0010
0100
0010
,
0100
0010
0001
0100
,
0001
0100
0001
1000
,
0010
1000
0010
1000
,
0100
2000
0000
0010
,
3001
1000
0001
1000
,
0001
0010
0001
0010
,
0100
0010
0100
1000
,
0100
1000
0001
1000
,
0001
0010
0001
0100
,
0010
0100
0001
1000
,
0010
0100
0010
0100
,
0001
1000
0001
0100
,
0010
0100
0010
0100
,
0001
0010
0100
0010
,
0100
0010
0001
1000
,
0001
0010
0001
0100
,
0010
0100
0001
1000
,
0001
1000
0001
0010
,
0100
0010
0100
0010
,
0001
0100
0001
0100
,
0010
0100
0010
1000
,
0001
0010
0100
0010
,
0100
0010
0001
1000
,
0100
1000
0100
1000
,
0010
0100
0010
1000
,
0010
1000
0100
1000
,
0100
0010
0100
0010
,
0001
0010
0001
1000
,
2002
0000
0000
0000
,
0000
0000
0000
0000
,
3003
0000
0000
0000
;

//--------------- dance-single - ----------------
#NOTES:
     dance-single:
     :
     Medium:
     9:
     0,0,0,0,0:
0000
0000
0000
0000
,
0000
0000
0000
0000
,
0000
0000
0000
0000
,
0010
1000
0100
0000
0001
0010
0100
1000
,
0010
0001
1000
0000
0010
0100
1000
0100
,
0001
1000
0010
0100
,
0010
1000
0001
0010
,
0001
1000
0010
1000
,
0010
0100
1000
0001
0010
0000
0100
0000
,
0001
0100
0010
1000
,
0001
0100
0001
1000
,
0100
1000
0001
1000
,
0010
1000
0100
0001
0010
0000
0100
0000
,
0010
1000
0001
0010
,
0100
0000
1000
0000
0001
0000
0010
1000
,
0100
0010
0001
1000
,
0100
0000
1000
0000
0100
0000
1000
0010
,
0001
0010
0001
0010
,
0100
1000
0100
1000
,
0100
1000
0010
0000
0001
0000
0100
0000
,
0010
0001
0100
0000
0010
1000
0100
0010
,
0001
1000
0010
0100
,
0010
0000
1000
0000
0010
0000
0100
0010
,
0001
0100
0010
0100
,
0001
0000
0010
0000
0001
0000
0010
0001
,
0100
1000
0100
1000
,
0001
0000
0100
0000
0010
0000
1000
0100
,
0010
0100
0010
0100
,
0001
0010
1000
0001
0100
1000
0010
0001
,
0100
1000
0100
1000
,
0001
0010
1000
0000
0100
0000
0010
0000
,
0100
0000
1000
0000
0010
0001
1000
0000
,
0010
1000
0001
0100
,
0010
1000
0100
0000
0010
0000
1000
0000
,
0010
0000
1000
0000
0001
0000
0010
0001
,
0100
0001
1000
0000
0001
0000
0010
0000
,
0001
0000
1000
0010
0100
0000
0010
0000
,
0100
0000
1000
0100
0001
0000
0010
1000
,
0100
0000
0010
1000
0001
0000
1000
0001
,
0100
0001
1000
0001
0100
0010
1000
0100
,
0001
0010
0100
0001
0010
0100
1000
0100
,
0010
0000
1000
0001
0010
0000
0100
1000
,
0001
0000
1000
0100
0010
0000
1000
0100
,
0001
1000
0100
0001
0010
0100
1000
0010
,
0001
1000
0001
0100
,
0001
0010
0002
0010
,
0103
1000
0001
0010
,
0001
1000
0002
1000
,
0103
0000
0010
1000
0001
1000
0010
0000
,
0100
0010
0002
0100
,
0013
1000
0010
0100
,
0010
1000
0002
1000
,
0103
0000
0010
0000
0000
1000
0000
0001
0000
0010
0000
0000
,
0001
0010
0002
1000
,
0103
1000
0001
1000
,
0010
0100
0002
1000
,
1003
0100
0010
0100
,
0010
0100
2001
0010
,
3001
0100
0001
0100
,
0010
1000
0002
0100
,
0013
0000
0100
0000
1000
0000
0200
0000
0000
0000
0000
0000
,
0310
0000
0010
0000
0000
0001
0100
0000
,
0001
0100
0001
1000
,
0000
0010
0100
0000
0000
1000
0000
0000
,
0001
0000
1000
0000
0000
0010
1000
0000
,
0010
0100
1000
0100
0001
0000
0100
0000
,
0000
1000
0001
0000
0100
0000
0010
0000
,
0001
0000
0100
0000
0000
0001
1000
0000
,
0010
0100
0010
0100
,
0000
0001
1000
0000
0000
1000
0000
0000
,
0010
0000
0100
0000
0001
1000
0000
0000
,
0001
0100
0010
0100
,
0010
0000
1000
0000
0010
0001
0100
1000
,
0001
0100
0001
1000
,
0010
0000
0100
0000
0001
0000
0100
1000
,
0010
0100
0001
1000
,
0001
1000
0010
0000
0001
0000
1000
0001
,
0100
1000
0100
1000
,
0010
0000
0100
0000
0010
0000
1000
0100
,
0010
0100
0001
1000
,
0100
1000
0010
0100
0002
0000
0000
0000
,
1003
0100
0001
0100
,
0010
0000
0100
0000
0010
0000
1000
0001
,
0100
0000
1000
0000
0001
0000
1000
0001
,
0100
1000
0010
0001
0100
0001
0010
0001
,
0100
1000
0010
1000
,
0010
0100
0010
0100
,
0001
0100
1000
0100
0010
0001
1000
0100
,
0010
0001
1000
0100
0001
0010
0100
1000
,
0001
0100
1001
0100
,
0110
1100
0011
1100
,
0110
1000
1001
1000
,
0101
0100
0011
1100
,
0101
1100
1001
0011
,
1001
1100
0110
1100
,
0001
0010
0100
1000
0001
0100
1000
0001
,
0100
1000
0001
1000
,
2002
0000
0000
0000
,
0000
0000
0000
0000
,
3003
0000
0000
0000
;

//--------------- dance-single - ----------------
#NOTES:
     dance-single:
     :
     Hard:
     15:
     0,0,0,0,0:
0000
0000
0000
0000
,
0000
0000
0000
0000
,
0000
0000
0000
0000
,
1000
0001
0100
1000
0001
0100
0010
0100
,
1000
0001
0100
1000
0001
0100
1000
0001
,
0010
0100
0010
1000
0010
1000
0100
0010
,
0100
0010
0001
1000
0010
0100
0010
1000
,
0110
0110
0110
0001
,
0110
1100
0000
0011
0011
0000
0001
0100
,
0001
1000
0100
1000
0010
0100
0001
1000
,
0010
1000
0100
1000
0001
0100
0010
0000
,
0110
1001
0110
0010
,
0011
0000
0110
1100
0000
0110
0110
0000
,
0100
0010
0001
1000
0001
1000
0100
1000
,
0010
0100
0001
0100
0010
1000
0001
0010
,
0100
0010
0001
0100
0010
1000
0010
0100
,
0001
0100
0010
0100
0010
1000
0001
0010
,
0100
1000
0100
1000
0010
1000
0010
0100
,
0010
1000
0001
1000
0010
0100
0010
1000
,
0001
0100
0001
0100
0010
1000
0001
0000
,
0011
0110
0000
1001
0220
0000
0330
0000
,
0001
1000
0010
1000
0100
0010
0001
0010
,
0100
0010
0100
1000
0010
1000
0010
0100
,
0001
1000
0001
1000
0001
0100
0010
0100
,
0010
1000
0001
0010
0100
1000
0010
1000
,
0001
1000
0100
0010
0001
0100
0010
0100
,
0010
1000
0001
1000
0001
0010
0100
0010
,
0001
0100
0010
0100
0001
0100
0001
0000
,
0011
1100
0000
1001
0110
1000
0010
0100
,
0010
0010
0001
0010
,
0001
0000
0100
0000
0001
1000
0010
0000
,
0100
1000
0010
0001
0100
0000
0010
0000
,
0001
0010
0100
0000
0010
0000
1000
0000
,
0001
0010
0100
0000
0001
0010
0100
0000
,
0001
1000
0010
0000
0100
0001
1000
0000
,
0001
1000
0010
0100
0001
1000
0010
0100
,
0002
0000
1003
0100
,
0100
0000
1000
0100
0001
0000
0010
1000
,
0100
0000
0010
1000
0001
0000
1000
0001
,
0100
0001
1000
0001
0100
0010
1000
0100
,
0001
0010
0100
0001
0010
0100
1000
0100
,
0010
0000
1000
0001
0010
0000
0100
1000
,
0001
0000
1000
0100
0010
0000
1000
0100
,
0001
1000
0100
0001
0010
0100
1000
0010
,
0001
0010
1000
0001
0010
0100
1000
0001
,
0010
0100
0020
0030
,
1001
0000
0000
0110
0000
0000
1001
0000
,
0100
0010
2000
3000
,
1020
0000
0000
0100
0000
0000
0100
0000
,
1030
0001
0200
0300
,
1001
0000
0000
0110
0000
0000
1001
0000
,
0100
1000
0002
0003
,
1002
0000
0000
0100
0000
0000
0100
0000
,
1003
0010
0120
0030
,
1001
0000
0000
0110
0000
0000
1001
0000
,
0100
1000
0002
0003
,
2001
0000
0000
0001
0000
0000
0010
0000
,
3100
0010
2000
3000
,
1001
0000
0000
0110
0000
0000
1001
0000
,
0100
1000
0002
0000
,
0203
0000
0310
0000
,
1000
0000
0100
0000
0000
1000
0001
0000
,
0010
0100
1000
0001
,
0000
0100
1000
0000
0000
0001
0000
0000
,
0100
0000
0010
0000
0000
1000
0010
0000
,
1000
0001
0010
0100
,
0000
1000
0001
0000
0010
0000
1000
0000
,
0001
0000
1000
0000
0000
0100
1000
0000
,
0010
0100
0001
1000
,
0000
0010
0100
0000
0000
1000
0000
0000
,
0001
0000
0000
0000
0000
0001
0000
0000
,
1000
0000
0001
0000
,
1000
0001
1000
0001
,
0001
0010
0100
0010
0100
1000
0001
0010
,
0100
1000
0010
0100
0001
1000
0010
1000
,
0100
0010
0100
1000
0010
1000
0001
0010
,
0100
0010
0001
1000
0100
1000
0010
0100
,
0010
0100
0001
0100
0010
1000
0010
0100
,
0001
0100
0010
1000
0010
1000
0001
1000
,
0010
0100
0001
0010
0100
1000
0100
0010
,
0001
0100
0010
1000
0001
0100
0001
1000
,
0001
1000
0100
1000
0010
0100
0001
0010
,
0001
0010
0100
1000
0010
0100
0010
1000
,
0001
1000
0001
0100
0010
0100
0001
0100
,
0010
1000
0100
1000
0001
0100
0010
0100
,
0001
1000
0001
0010
0100
1000
0001
0100
,
0001
0010
0100
0010
0100
1000
0001
0100
,
0010
0100
0010
0100
0001
1000
0010
0100
,
0001
1000
0100
0010
0100
0010
0001
0010
,
0001
0000
0001
0100
0010
0000
0001
0100
,
0010
1000
0100
0010
0100
0010
0100
1000
,
0001
0000
0100
1000
0010
0000
0010
0100
,
0001
0100
0010
1000
0001
1000
0010
0100
,
0001
0100
0010
1000
0100
0010
0001
1000
,
0001
0100
0010
0100
0010
0100
0001
0010
,
0100
0010
0100
1000
0100
0010
0001
0100
,
0010
0100
0001
1000
0010
0100
0001
1000
,
2002
0000
0000
0000
,
0000
0000
0000
0000
,
3003
0000
0000
0000
;

//--------------- dance-single - ----------------
#NOTES:
     dance-single:
     :
     Challenge:
     16:
     0,0,0,0,0:
0000
0000
0000
0000
,
0000
0000
0000
0000
,
0000
0000
0000
0000
,
1000
0001
0100
1000
0001
0100
0010
0100
,
1000
0001
0100
1000
0001
0100
1000
MMMM
,
0010
0100
0010
1000
0010
1000
0100
0010
,
0100
0010
0001
1000
0010
0100
0010
1000
,
0110
0110
0110
0001
,
0110
1100
0000
0011
0011
MMMM
0001
0100
,
0001
1000
0100
1000
0010
0100
0001
1000
,
0010
1000
0100
1000
0001
0100
0010
0000
,
0110
1001
0110
0010
,
0011
0000
0110
1100
MMMM
0110
0110
0000
,
0100
0010
0001
1000
0001
1000
0100
1000
,
0010
0100
0001
0100
0010
1000
0001
0010
,
0100
0010
0001
0100
0010
1000
0010
0100
,
0001
0100
0010
0100
0010
1000
0001
0010
,
0100
1000
0100
1000
0010
1000
0010
0100
,
0010
1000
0001
1000
0010
0100
0010
1000
,
0001
0100
0001
0100
0010
1000
0001
0000
,
0011
0110
0000
1001
0220
0330
MMMM
0000
,
0001
1000
0010
1000
0100
0010
0001
0010
,
0100
0010
0100
1000
0010
1000
0010
0100
,
0001
1000
0001
1000
0001
0100
0010
0100
,
0010
1000
0001
0010
0100
1000
0010
1000
,
0001
1000
0100
0010
0001
0100
0010
0100
,
0010
1000
0001
1000
0001
0010
0100
0010
,
0001
0100
0010
0100
0001
0100
0001
0000
,
0011
1100
0000
1001
0110
1000
0010
0100
,
0010
0010
0001
0010
,
0001
0000
0100
0000
0001
1000
0010
0000
,
0100
1000
0010
0001
0100
0000
0010
0000
,
0001
0010
0100
0000
0010
0000
1000
0000
,
0001
0010
0100
0000
0001
0010
0100
0000
,
0001
1000
0010
0000
0100
0001
1000
0000
,
0001
1000
0010
0100
0001
1000
0010
0100
,
0002
0000
0003
MMMM
1000
0000
0100
0000
,
0100
0000
1000
0100
0001
0000
0010
1000
,
0100
0000
0010
1000
0001
0000
1000
0001
,
0100
0001
1000
0001
0100
0010
1000
0100
,
0001
0010
0100
0001
0010
0100
1000
0100
,
0010
0000
1000
0001
0010
0000
0100
1000
,
0001
0000
1000
0100
0010
0000
1000
0100
,
0001
1000
0100
0001
0010
0100
1000
0010
,
0001
0010
1000
0001
0010
0100
1000
0001
,
0010
0000
0100
0000
0020
0030
MMMM
0000
,
1001
0000
0000
0110
0000
0000
1001
0000
,
0100
0000
0010
0000
2000
3000
MMMM
0000
,
1020
0000
0000
0100
0000
0000
0100
0000
,
1030
0000
0001
0000
0200
0300
MMMM
0000
,
1001
0000
0000
0110
0000
0000
1001
0000
,
0100
0000
1000
0000
0002
0003
MMMM
0000
,
1002
0000
0000
0100
0000
0000
0100
0000
,
1003
0000
0010
0000
0120
0030
MMMM
0000
,
1001
0000
0000
0110
0000
0000
1001
0000
,
0100
0000
1000
0000
0002
0003
MMMM
0000
,
2001
0000
0000
0001
0000
0000
0010
0000
,
3100
0000
0010
0000
2000
3000
MMMM
0000
,
1001
0000
0000
0110
0000
0000
1001
0000
,
0100
0000
1000
0000
0002
0003
MMMM
0000
,
0200
0000
0310
MMMM
,
1000
0000
0100
0000
MMMM
1000
0001
0000
,
0010
0000
0100
0000
1000
0000
0001
MMMM
,
0000
0100
1000
0000
MMMM
0001
0000
0000
,
0100
0000
0010
0000
MMMM
1000
0010
0000
,
1000
0001
0010
0100
,
MMMM
1000
0001
0000
0010
0000
1000
0000
,
0001
0000
1000
0000
MMMM
0100
1000
0000
,
0010
0000
0100
MMMM
0001
0000
1000
0000
,
MMMM
0010
0100
0000
MMMM
1000
0000
0000
,
0001
0000
MMMM
0000
MMMM
0001
MMMM
0000
,
1000
MMMM
0001
MMMM
,
1000
0001
1000
0001
,
0001
0010
0100
0010
0100
1000
0001
0010
,
0100
1000
0010
0100
0001
1000
0010
1000
,
0100
0010
0100
1000
0010
1000
0001
0010
,
0100
0010
0001
1000
0100
1000
0010
0100
,
0010
0100
0001
0100
0010
1000
0010
0100
,
0001
0100
0010
1000
0010
1000
0001
1000
,
0010
0100
0001
0010
0100
1000
0100
0010
,
0001
0100
0010
1000
0001
0100
0001
1000
,
0001
1000
0100
1000
0010
0100
0001
0010
,
0001
0010
0100
1000
0010
0100
0010
1000
,
0001
1000
0001
0100
0010
0100
0001
0100
,
0010
1000
0100
1000
0001
0100
0010
0100
,
0001
1000
0001
0010
0100
1000
0001
0100
,
0001
0010
0100
0010
0100
1000
0001
0100
,
0010
0100
0010
0100
0001
1000
0010
0100
,
0001
1000
0100
0010
0100
0010
0001
0010
,
0001
0000
0001
0100
0010
0000
0001
0100
,
0010
1000
0100
0010
0100
0010
0100
1000
,
0001
0000
0100
1000
0010
0000
0010
0100
,
0001
0100
0010
1000
0001
1000
0010
0100
,
0001
0100
0010
1000
0100
0010
0001
1000
,
0001
0100
0010
0100
0010
0100
0001
0010
,
0100
0010
0100
1000
0100
0010
0001
0100
,
0100
0010
0100
0010
0001
0100
0001
0010
0100
0010
0001
1000
0010
0100
1000
0100
,
0002
0000
0000
0000
,
0000
0000
0000
0000
,
0003
0000
0000
0000
;
