#TITLE:flourish.mid;
#SUBTITLE:;
#ARTIST:Unknown artist (honest!);
#TITLETRANSLIT:;
#SUBTITLETRANSLIT:;
#ARTISTTRANSLIT:;
#GENRE:;
#CREDIT:;
#BANNER:../banner.png;
#BACKGROUND:../bg.png;
#LYRICSPATH:;
#CDTITLE:;
#MUSIC:flourish.ogg;
#OFFSET:0.009;
#SAMPLESTART:0.036;
#SAMPLELENGTH:12.000;
#SELECTABLE:YES;
#BPMS:0.000=240.000;
#STOPS:;
#BGCHANGES:;
#KEYSOUNDS:;

//---------------dance-single - Nix----------------
#NOTES:
     dance-single:
     Nix:
     Challenge:
     12:
     1.000,1.000,0.201,0.379,0.674:
0000
0000
0000
0000
,
0000
0000
0000
2001
,
3100
1000
0001
0100
0001
2000
3000
1000
,
0002
0000
0000
0013
0000
0000
0100
0000
0000
1000
0000
0000
0001
0000
0100
0000
0001
0000
0100
0000
0000
0010
0000
0000
,
1000
0001
0010
0200
0300
0100
0020
0031
,
0100
0000
0000
0001
0000
0000
1000
0000
0100
0000
1000
0000
0100
0000
0000
0010
0000
0000
0100
0000
0000
1000
0000
0000
,
0001
0020
0030
0010
0200
1300
0001
0100
,
0010
0000
1000
0000
0010
0000
0100
0000
0000
0001
0000
0000
0010
0000
0000
0100
0000
0000
1000
0000
0000
0001
0000
0000
,
0000
0000
0000
0000
0000
0000
0100
0000
0000
0001
0000
0000
0100
0000
0000
0000
0000
0000
0010
0000
0000
0000
0000
0000
1000
0000
0000
0000
0000
0000
0100
0000
0000
0000
0000
0000
0010
0000
0000
0000
0001
0000
0000
0000
0010
0000
0000
0000
,
0100
1000
0001
0100
0010
2000
3000
1000
,
0010
0100
0001
1000
0001
1000
0001
1000
0001
1000
0001
1000
,
0001
1000
0001
1000
0001
1000
0002
0000
0000
0000
0000
0000
,
0103
0010
2000
0000
0010
0000
0001
0000
,
3100
0010
0100
0000
0000
1000
0000
0000
,
0001
0000
0100
0000
0010
0000
1000
0000
0000
0010
0000
0000
0200
0000
0000
0000
0000
0000
0300
0000
0000
0001
0000
0000
,
0000
0000
1000
0100
1000
0000
0001
0000
0010
0000
0100
0000
1000
0000
0000
0000
,
0000
1010
0000
0000
0101
0000
0000
0000
,
0000
0000
0000
0000
0000
0000
0000
0000
0000
0000
0000
0000
0000
0000
0000
0000
0000
0000
0000
0000
0000
0000
0000
0000
0000
0000
0000
1000
0000
0000
0010
0000
0000
0100
0000
0000
0001
0000
0000
0000
1000
0000
0000
0000
0001
0000
0000
0000
,
1000
0001
1000
0001
1000
0001
1000
0001
1000
0001
1000
0001
,
1000
0000
0001
0000
1000
0000
0001
0000
0000
1000
0000
0000
0000
0000
0000
0100
0000
0000
M00M
0000
0000
0100
0000
0000
,
0010
1000
0010
0000
0100
0000
0000
0000
0001
0000
0010
0000
0100
0000
1000
0000
,
0100
0010
0001
1000
0000
1010
0000
0010
,
0000
0000
0000
0000
0000
0000
0100
0000
0000
0001
0000
0000
0100
0000
0000
0000
0000
0000
0000
0000
0000
0000
0000
0000
0010
0000
0000
0000
1000
0000
0000
0000
0001
0000
0000
0000
0010
0000
0000
0000
0000
0000
0000
0000
0000
0000
0000
0000
,
0000
0000
0000
0000
0100
1000
0001
0000
0100
0000
0010
0000
M00M
0000
0010
0000
,
0001
1000
0010
0100
0001
0010
0100
1000
,
0100
0000
0000
0000
0000
0000
0010
0000
0000
0000
0000
0000
0001
0000
0000
0000
0000
0000
1000
0000
0000
0000
0000
0000
0000
0000
0000
0000
0000
0000
0010
0000
0000
1000
0000
0000
0010
0000
0000
0000
0100
0000
0000
0000
0001
0000
0000
0000
,
0100
0010
1000
0010
0000
0000
1000
0000
0000
1001
0000
0000
,
0001
0010
0000
0010
0100
1000
0000
1000
,
0001
0000
0000
0101
0000
0000
1001
0000
,
0000
0000
0000
0000
0000
0000
0000
0000
0000
1000
0100
0010
,
0001
0000
1000
0100
1000
0001
0100
0000
,
0010
1000
0010
0100
0001
0000
0000
0000
,
0010
0100
2000
0002
0000
0000
0000
0010
,
3000
0000
1003
0000
0100
1000
0001
0100
,
0001
1000
0000
0010
1000
0100
1000
0001
,
0100
0010
0000
0010
1000
0000
1000
0100
,
0010
0001
1000
0001
0100
0010
2000
0000
,
3001
1000
0100
0000
0010
0001
1000
0010
,
1000
0001
0000
0001
0100
0001
1000
0010
,
0100
0001
0010
0100
1000
0010
0100
0001
,
0010
0100
1000
0000
1000
0010
0100
0001
,
0010
0100
0010
0001
1000
0010
0100
0010
,
1010
0100
0010
0000
,
0011
0000
0000
0000
0000
0000
0101
0000
0000
0001
0100
0010
,
0100
0000
0001
0000
0011
0000
0000
1001
,
0000
0000
1010
0000
1000
0001
0100
0010
,
0100
0001
0010
0100
1000
0001
0100
0010
,
1000
0000
0200
0000
0010
0000
0000
0300
0010
0000
0100
0000
00M1
0000
0100
0000
,
0010
0M01
0100
0010
0100
1000
0100
0010
,
1M00
0001
0010
0100
00M1
0100
0010
0M01
,
0010
0100
0010
1M00
0010
0100
1000
0010
,
0100
0010
0M01
0010
0100
0001
0010
0001
,
0100
0000
0000
0000
0000
0000
0000
000M
100M
000M
0000
0000
0000
0000
0000
0000
0100
0000
0000
0000
0000
0000
0000
0000
0001
0000
0000
0000
0000
0000
0000
0000
1000
0000
0000
0000
0000
0000
0000
0000
0010
0000
0000
0000
0000
0000
0000
0000
1000
0000
0000
0000
0000
0000
0000
0000
0100
0000
0000
0000
0000
0000
0000
0000
,
0020
0000
0000
0130
2000
0000
0000
3001
,
0100
0001
0020
0000
0000
0130
1000
0001
,
0100
0010
1000
0001
0100
0001
0020
0000
,
0001
0000
0000
0000
,
0030
0000
0000
0000
0000
0000
0000
0000
0000
0000
0000
0000
0010
0001
0000
0000
,
0000
0000
0000
0000
0000
0000
0000
0000
0000
0000
0000
0000
0010
0000
0000
0100
0000
0000
1000
0000
0000
0000
0000
0000
0000
0000
0000
0000
0000
0000
0000
0000
,
0000
0000
0000
0000
0000
0000
0001
1000
0001
1000
0001
1000
,
0001
1000
0001
1000
0001
1000
0001
1000
0001
1000
0001
1000
,
0001
0000
1000
0000
0001
0000
0010
0000
0000
0000
0000
0000
0000
0000
0000
0000
0000
0000
0000
0000
0000
0000
0000
0100
,
0000
0010
0000
0001
0000
0000
0000
0000
0000
0000
0000
0000
0000
0000
0000
0000
0000
0000
0000
0000
0000
0000
0000
0000
,
1000
0010
0100
0001
0010
0100
1000
0001
,
0000
0000
0000
0000
0000
0000
1000
0000
0000
0100
0000
0000
1000
0000
0000
0000
0000
0000
0001
0000
0000
0000
0000
0000
0100
0000
0000
0000
0000
0000
0010
0000
0000
0000
0000
0000
1000
0000
0000
0000
0001
0000
0000
0000
1000
0000
0000
0000
,
0100
0000
1000
0010
1000
0002
0003
0001
,
2000
0000
0000
3100
0000
0000
0010
0000
0000
0001
0000
0000
1000
0000
0010
0000
1000
0000
0010
0000
0000
0100
0000
0000
,
0001
1000
0100
0020
0030
0010
0200
1300
,
0010
0000
0000
1000
0000
0000
0001
0000
0010
0000
0001
0000
0010
0000
0000
0100
0000
0000
0010
0000
0000
0001
0000
0000
,
1000
0200
0300
0100
0020
0031
1000
0010
,
0100
0000
0001
0000
0100
0000
0010
0000
0000
1000
0000
0000
0100
0000
0000
0010
0000
0000
0001
0000
0000
1000
0000
0000
,
0000
0000
0000
0000
0000
0000
0010
0000
0000
1000
0000
0000
0010
0000
0000
0000
0000
0000
0100
0000
0000
0000
0000
0000
0001
0000
0000
0000
0000
0000
0010
0000
0000
0000
0000
0000
0100
0000
0000
0000
1000
0000
0000
0000
0100
0000
0000
0000
,
0010
0001
1000
0010
0100
0002
0003
0001
,
0100
0010
1000
0001
1000
0001
1000
0001
1000
0001
1000
0001
,
1000
0001
1000
0001
1000
0001
2000
0000
0000
0000
0000
0000
,
3010
0100
0002
0000
0100
0000
1000
0000
,
0013
0100
0010
0000
0000
0001
0000
0000
,
1000
0000
0010
0000
0100
0000
0001
0000
0000
0100
0000
0000
0020
0000
0000
0000
0000
0000
0030
0000
0000
1000
0000
0000
,
0000
0000
0001
0010
0001
0000
1000
0000
0100
0000
0010
0000
0001
0000
0000
0000
,
0000
0101
0000
0000
1010
0000
0000
0000
,
0000
0000
0000
0000
0000
0000
0000
0000
0000
0000
0000
0000
0000
0000
0000
0000
0000
0000
0000
0000
0000
0000
0000
0000
0000
0000
0000
0001
0000
0000
0100
0000
0000
0010
0000
0000
1000
0000
0000
0000
0001
0000
0000
0000
1000
0000
0000
0000
,
0001
1000
0001
1000
0001
1000
0001
1000
0001
1000
0001
1000
,
0001
0000
1000
0000
0001
0000
1000
0000
0000
0000
0000
0000
0000
0000
0000
0110
0000
0000
0000
0000
0000
0000
0000
0000
,
2002
0000
0000
0000
0000
0000
3000
0003
,
1000
0001
0200
0000
0300
0000
0000
0000
;
