#TITLE:every fucking song in DDR2013 ever;
#SUBTITLE:;
#ARTIST:tag or some shit idk;
#TITLETRANSLIT:;
#SUBTITLETRANSLIT:;
#ARTISTTRANSLIT:;
#GENRE:;
#CREDIT:;
#BANNER:../banner.png;
#BACKGROUND:../bg.png;
#LYRICSPATH:;
#CDTITLE:;
#MUSIC:every fucking song in DDR2013 ever.ogg;
#OFFSET:0.002;
#SAMPLESTART:65.346;
#SAMPLELENGTH:12.000;
#SELECTABLE:YES;
#BPMS:0.000=360.000,136.000=180.000,264.000=360.000;
#STOPS:;
#BGCHANGES:;
#KEYSOUNDS:;

//---------------dance-single - Nix----------------
#NOTES:
     dance-single:
     Nix:
     Challenge:
     18:
     1.000,1.000,0.224,0.337,0.209:
0000
0000
0000
0000
,
0000
0000
0000
0000
,
1000
0000
1000
0001
0000
0100
0000
0010
,
0000
0010
0000
1000
0001
0100
0001
0010
,
0100
1000
0100
0000
0010
0000
0001
0100
,
0000
0010
0000
1000
0100
0000
0010
0000
,
0001
0000
0001
0010
0000
0001
0000
0100
,
0000
0100
0000
0010
1000
0100
1000
0001
,
0100
0010
1000
0100
0010
0000
0001
0100
,
0000
0001
0000
0010
0000
0100
1000
0000
,
0010
0000
0010
0100
0000
0001
0000
0010
,
0000
0010
0000
0100
1000
0010
1000
0100
,
0020
0000
1000
0000
0001
0000
0230
0001
,
0000
1000
0000
0310
0100
0000
1000
0000
,
0010
0000
0010
0100
0000
0001
0000
1000
,
0000
1000
0000
0100
0010
0100
0010
0001
,
0100
0010
1000
0001
0010
0100
1000
0001
,
0100
0010
1000
0100
1000
0100
0010
0001
,
1000
0000
1000
0010
0000
0100
0000
0001
,
0000
0001
0000
0010
0100
1000
0010
1000
,
0100
0000
0100
0010
0000
0001
0000
0100
,
1000
0100
0010
0000
1000
0000
0100
0000
,
0010
0000
0010
0001
0000
1000
0000
0010
,
0000
0010
0000
0100
0001
0010
0001
0100
,
0010
0000
0010
1000
0000
0001
0000
0010
,
0100
0001
0100
1000
0001
0010
0100
1000
,
0001
0000
0001
0100
0000
0010
0000
0001
,
0000
0001
0000
0010
0100
0001
1000
0100
,
0010
0001
0100
0020
0000
0230
0000
0302
,
0000
0013
0100
1000
0010
1000
0100
0010
,
0001
0100
0001
0100
0010
1000
0010
1000
,
0100
0001
1000
0010
0001
0010
0100
1000
,
0001
0100
0000
0100
0010
0000
0110
0000
,
1001
0000
0000
0000
0100
0001
0010
0001
,
2000
0000
3002
0000
,
0203
0000
0320
0000
,
2030
0000
3002
0000
,
0023
0000
0230
0000
,
0320
0000
0032
0000
,
0203
0000
0320
0000
,
2030
0000
3200
0000
,
0320
0000
0002
0030
,
1003
0000
1000
0010
0100
0010
1000
0000
,
0001
0000
0001
0010
0100
0010
0001
0100
,
0010
0000
0010
1000
0100
1000
0010
0000
,
0100
0000
0001
0000
0010
0000
0100
0000
1000
0001
0100
0000
0010
0000
1000
0000
,
0001
0000
0001
0100
1000
0100
0010
0000
,
1000
0000
1000
0100
0001
0100
0010
0001
,
1000
0000
1000
0010
0001
1000
0100
0000
,
0001
0000
0010
0000
0100
0000
1000
0000
0100
0010
0001
0000
1000
0010
0100
0001
,
0010
0000
0100
0000
0010
0100
0000
1000
0001
0000
1000
0001
0000
1000
0001
0000
,
0100
0000
0010
0000
0100
0010
0000
1000
0001
0000
1000
0001
0000
1000
0001
0000
,
0010
0000
0100
0000
0010
0100
0000
1000
0001
0000
1000
0001
0000
1000
0001
0000
,
0100
0000
0010
0000
0100
0010
0000
1000
0001
0000
1000
0001
0000
1000
0001
0000
,
0010
0000
0100
0000
0010
0100
0000
1000
0010
0000
1000
0010
0000
1000
0010
0000
,
0100
0000
0001
0000
0100
0001
0000
0010
0100
0000
0010
0100
0000
0010
0100
0000
,
1000
0000
0010
0000
1000
0010
0000
0100
0001
0000
0100
0001
0000
0100
0001
0000
,
1000
0000
0100
0000
1000
0100
0000
0010
0001
0000
0010
0001
0000
0010
0001
0000
,
1001
1000
1000
1000
,
1000
0000
1000
0000
1000
0000
1000
0010
,
0110
0100
0100
0100
,
0100
0000
0100
0000
0100
0000
0100
0001
,
1001
0000
0001
0000
0001
0000
0001
0010
,
0110
0000
0100
0000
0100
0000
0100
1000
,
1001
0000
0001
0000
0100
0000
0010
0000
1000
0100
0010
0001
0100
1000
0100
0010
,
1000
0000
0000
1100
0000
0000
0110
0000
0000
0000
0011
0000
0001
0000
0000
0000
,
1000
0000
0010
0100
0000
0010
0000
0100
,
0010
0100
0001
0000
1000
0000
0100
0010
,
0001
0000
0100
0001
0000
0010
0000
0100
,
1000
0010
0100
0001
0010
0100
0010
0001
,
1000
0000
0010
0100
0000
0001
0000
0100
,
1000
0100
0010
0000
1000
0000
0100
0010
,
0001
0010
0001
0010
0100
1000
0001
0100
,
0010
1000
0100
0010
0001
0000
0010
0000
,
0100
0000
1000
0100
0000
0010
0000
0100
,
1000
0010
0100
0000
0001
0000
0100
0010
,
1000
0000
0100
1000
0000
0010
0000
0100
,
0001
0010
0001
0010
1000
0010
0001
0100
,
0010
0000
1000
0010
0000
0100
0000
0001
,
0100
0010
1000
0000
0100
0000
0010
0001
,
1000
0100
0001
0100
1000
0001
0010
0100
,
1000
0010
0001
0010
0100
0000
0001
0000
,
1002
0000
0013
0100
0000
0001
0000
0100
,
1000
0001
0010
0000
1000
0000
0010
0001
,
1000
0000
0010
0100
0000
0001
0000
0100
,
0010
1000
0001
0100
1000
0100
0001
0100
,
0010
0000
1000
0100
0000
0010
0000
0001
,
0100
1000
0100
0000
0010
0000
1000
0100
,
0010
0001
0100
0010
0100
1000
0001
0010
,
1000
0001
0100
0001
0010
0000
0100
0000
,
1001
0000
1000
0100
0000
0010
0000
0100
,
1000
0010
0001
0000
0010
0000
0100
0001
,
0102
0000
0013
0100
0000
1000
0000
0001
,
0010
1000
0010
0100
1000
0010
0100
0001
,
1000
0100
1000
0100
0010
0001
1000
0010
,
0100
0001
0100
1000
0001
0010
1000
0001
,
0010
0100
0000
1100
0000
1001
0000
0101
,
0000
0110
0000
0010
2000
0000
3002
0000
,
0013
0000
0200
1000
0000
0310
0000
0001
,
0000
0100
0000
0010
1000
0100
0010
0001
,
0100
1000
0100
0001
0010
0100
1000
0010
,
0000
0010
0000
0200
0010
0000
0301
0000
,
1000
0000
1000
0020
0000
0100
0000
0001
,
0000
1030
0000
0100
0010
0100
0010
0001
,
0000
0200
0000
0010
0000
1000
0000
0001
,
0000
0310
0000
1000
0100
0000
0110
0000
,
0001
0000
0001
0200
0000
0010
0000
1000
,
0000
0010
0000
0301
0010
0001
0100
0010
,
1000
0100
0020
0001
0000
0100
0000
1000
,
0000
0130
1000
0100
0001
0100
0010
0001
,
1000
0000
1000
0010
0000
0100
0000
0001
,
0000
0001
0000
0010
0100
1000
0100
1000
,
0000
0101
0000
0011
0000
1010
0000
0120
,
0000
0030
0000
1000
0010
0001
1000
0200
,
0000
0000
0000
0000
,
0300
0000
0000
0000
;
