#TITLE:Witch Doctor;
#SUBTITLE:;
#ARTIST:BanYa;
#TITLETRANSLIT:;
#SUBTITLETRANSLIT:;
#ARTISTTRANSLIT:;
#GENRE:Banya;
#CREDIT:;
#BANNER:../banner.png;
#BACKGROUND:../bg.png;
#LYRICSPATH:;
#CDTITLE:;
#MUSIC:Witch Doctor.ogg;
#OFFSET:-0.044;
#SAMPLESTART:9.901;
#SAMPLELENGTH:18.000;
#SELECTABLE:YES;
#BPMS:0.000=195.000,145.500=73.125,151.500=171.200,155.000=195.000;
#STOPS:83.000=0.154
,86.500=0.154
,130.000=0.154
,133.500=0.154
,137.000=0.154
;
#BGCHANGES:;
#KEYSOUNDS:;

//---------------dance-single - Nix----------------
#NOTES:
     dance-single:
     Nix:
     Challenge:
     11:
     0.995,1.000,0.118,0.435,0.665:
0000
0000
0000
0000
,
0000
0000
0000
0000
,
0000
0000
0000
0000
,
0000
0000
0000
0000
,
2000
3002
0203
0302
2003
3200
2300
3002
,
0023
0032
2003
3200
0000
0000
0000
0000
,
2300
3002
0023
0032
2003
3020
0230
0302
,
0023
0230
2300
3020
0000
0000
0000
0000
,
1030
0000
0010
0000
0100
0000
0001
0000
0010
0000
0100
0000
1000
0000
0001
0100
,
0001
0000
0010
0000
0100
0000
1000
0000
0001
0010
0001
0000
1000
0100
1000
0000
,
0001
0000
0100
0000
0010
0000
1000
0000
0100
0000
0010
0000
0001
0000
1000
0100
,
1000
0000
0010
0000
0100
0000
0001
0000
1000
0100
1000
0100
1000
0000
0010
0000
,
0001
0000
1000
0000
0100
0000
0001
0000
0010
0000
0001
0000
1000
0000
0100
1000
,
0001
0000
0100
0000
1000
0000
0100
0000
0010
1000
0010
0000
0100
0001
0100
0000
,
0010
0000
0001
0000
1000
0000
0100
0000
0010
0000
1000
0000
0001
0000
0100
0001
,
1000
0000
0100
0000
0010
0000
0001
0000
1000
0100
1000
0100
1000
0000
0001
0000
,
1000
0000
0100
0000
0001
0000
1000
0000
0010
0000
0100
0000
1000
0000
0010
1000
,
0001
0000
0010
0000
1000
0000
0001
0000
0100
0010
0100
0000
1000
0001
1000
0000
,
0100
0000
0001
0000
1000
0000
0010
0000
0001
0000
0100
0000
0010
0000
1000
0010
,
0100
0000
0001
0000
1000
0000
0100
0000
0010
0001
1000
0001
0010
0000
0100
0000
,
1000
0000
0010
0000
0100
0000
0001
0000
1000
0100
1000
0000
0000
0000
0001
0000
,
0010
0000
0100
0000
1000
0000
0001
0100
0001
0000
0000
0000
1000
0000
0010
0000
,
0100
0000
0001
0010
0100
0000
2002
0000
,
0000
0000
3003
1000
,
0110
0000
0000
0000
1000
0000
0001
0000
1000
0001
1000
0000
0001
0000
0000
0000
,
0110
0000
0000
0000
0001
0000
1000
0000
0001
1000
0001
0000
0010
0000
0000
0000
,
1002
0000
0000
0000
0103
0000
0010
0000
0100
0010
0100
0000
0001
0100
0001
0000
,
1000
0010
1000
0000
0001
1000
0001
1000
0001
1000
0001
0000
1000
0000
0010
0000
,
1000
0000
0010
0000
1000
0000
0010
0000
1000
0000
0100
0010
0001
0000
0010
0000
,
0001
0000
0010
0000
0001
0000
0010
0000
0001
0000
0100
0010
1000
0000
0010
0000
,
0100
0000
0001
0000
0100
0000
0010
0000
1000
0000
0100
0010
0001
0000
0010
0000
,
0100
0000
1000
0000
0010
0000
0100
0000
0001
0000
0100
0010
1000
0000
0100
0000
,
0001
0100
2000
0010
3000
0001
0100
1000
,
0100
0002
0010
0003
1000
0100
0001
1000
,
0010
0000
0001
0000
0000
0000
1000
0010
1000
0000
0001
0010
0001
0000
1000
0100
,
1000
0000
0001
0100
0001
0000
0010
0000
0001
0000
0100
0000
0010
0000
1000
0000
,
0100
0010
0001
0020
0000
0000
0000
0000
,
0000
0000
0000
0000
0030
0000
0000
0000
0000
2002
0000
0000
0000
0000
0000
0000
0000
0000
0000
0000
0000
0000
0000
0000
3003
0000
0000
0000
0200
0000
0000
0000
,
0000
0000
0000
0000
0000
0000
0000
0000
0000
0000
0300
0000
0001
0100
0001
0000
,
1000
0100
1000
0000
0001
0010
0001
0010
0001
0010
0001
0000
1000
0010
1000
0000
,
0001
0010
0001
0000
1000
0100
1000
0100
1000
0100
1000
0000
0101
0000
1000
0000
,
0001
0010
0001
0000
1000
0010
1000
0010
1000
0010
1000
0000
0001
0100
0001
0000
,
1000
0010
1000
0000
0001
0010
0001
0010
0001
0010
0001
0000
1100
0000
0001
0000
,
1000
0100
1000
0000
0001
0100
0001
0100
0001
0100
0001
0000
1010
0000
0001
0000
,
0100
0001
0100
0000
0010
1000
0010
1000
0010
1000
0010
0000
1100
0000
0001
0000
,
0010
0001
0010
0000
0101
0000
1000
0000
0100
1000
0100
0000
2000
0000
3001
0000
,
0000
0000
0000
0000
0000
0000
0002
1003
,
0000
0000
0000
0000
0000
0000
2000
3001
,
0000
0000
0000
0000
0000
0000
0002
1003
,
0010
0100
0010
0000
0100
0001
0100
0001
0010
0100
1000
0010
1000
0000
0100
0000
,
0001
0000
1000
0000
0010
0001
0010
0000
0100
0000
0001
0000
1000
0000
0010
0000
,
0100
0000
1000
0000
0010
0000
0100
0000
0001
0010
0100
0000
1000
0010
0100
0000
,
0010
0000
0001
0000
1000
0000
0001
0000
0010
0000
0100
0000
0001
0010
0001
0000
,
1000
0000
0010
0000
0100
0001
0100
0001
0100
0001
1000
0000
0001
0100
0010
0000
,
1000
0000
0001
0000
0010
0100
1000
0000
0010
0100
0001
0000
0010
0000
1000
0000
,
0001
0000
0100
0000
1000
0000
0010
0000
0100
0001
0100
0000
0001
0010
0001
0000
,
1000
0010
1000
0000
0001
0100
0001
0000
1000
0100
1000
0000
0001
0010
0001
0000
,
1000
0010
1000
0000
0100
1000
0100
1000
0100
1000
0100
1000
0010
0000
0001
0000
,
1000
0000
0100
0000
0010
1000
0010
0000
0100
0000
0001
0000
0010
0000
1000
0000
,
0001
0000
0100
0000
1000
0000
0010
0000
0100
0001
0010
0000
0100
1000
0001
0000
,
0010
0000
1000
0000
0010
0000
0100
0000
0001
0000
1000
0000
0010
0100
0010
0000
,
0001
0000
1000
0000
0010
1000
0010
1000
0010
1000
0001
0000
0100
0010
1000
0000
,
0001
0000
0100
0000
1000
0100
0010
0000
1000
0100
0010
0000
1000
0000
0001
0000
,
0100
0000
0010
0000
0001
0000
0100
0000
0010
1000
0010
0000
1000
0100
1000
0000
,
0001
0100
0001
0000
1000
0100
1000
0000
0001
0100
0001
0000
1000
0010
1000
0000
,
0001
0010
0001
0000
0100
0001
0100
0001
0100
0001
0100
0001
0010
0000
0000
0000
;
