#TITLE:These Red Eyes See All;
#SUBTITLE:[ANOTHER];
#ARTIST:AnonyWolf;
#TITLETRANSLIT:;
#SUBTITLETRANSLIT:;
#ARTISTTRANSLIT:;
#GENRE:;
#CREDIT:;
#BANNER:../banner.png;
#BACKGROUND:../bg.png;
#LYRICSPATH:;
#CDTITLE:;
#MUSIC:These Red Eyes See All.ogg;
#OFFSET:-0.027;
#SAMPLESTART:32.030;
#SAMPLELENGTH:12.000;
#SELECTABLE:YES;
#BPMS:0.000=120.000;
#STOPS:;
#BGCHANGES:;
#KEYSOUNDS:;

//---------------dance-single - Nix----------------
#NOTES:
     dance-single:
     Nix:
     Edit:
     12:
     -1.000,-1.000,-1.000,-1.000,-1.000:
0000
0000
0000
0000
,
0000
0000
0000
0000
,
0000
0000
0000
0000
,
0000
0000
0000
0000
,
1000
0000
1000
0000
0001
0000
0000
0000
1000
0000
1000
0000
0001
0000
0010
0100
,
1000
0000
1000
0000
0001
0000
0000
0000
0100
0000
0100
0000
0010
1000
0010
1000
,
0001
0000
0001
0000
1000
0000
0000
0000
0001
0000
0001
0000
1000
0000
0010
0100
,
0001
0000
0001
0000
1000
0000
0000
0000
0100
0000
0100
0000
0010
0001
0010
0001
,
1000
0000
0001
0000
0101
0000
1000
0000
1100
0000
0001
0000
0011
0000
1000
0010
,
1000
0000
0001
0000
0101
0000
1000
0000
1100
0000
0001
0000
0010
0001
0010
0001
,
1000
0000
0001
0000
0011
0000
1000
0000
1010
0000
0001
0000
0101
0000
1000
0100
,
1000
0000
0001
0000
0011
0000
1000
0000
1010
0000
0001
0000
0100
0001
0100
0001
,
1000
0100
1000
0000
1010
0000
0010
1000
0001
0100
0001
0000
0011
0000
0010
0001
,
1000
0010
1000
0000
1100
0000
0100
1000
0001
0000
0001
0000
0100
0010
0100
0010
,
1000
0010
1000
0000
1100
0000
0100
1000
0001
0010
0001
0000
0101
0000
0100
0001
,
1000
0100
1000
0000
1010
0000
0010
1000
0001
0000
0001
0000
0010
0100
0010
0100
,
1000
0000
1100
0000
0101
0000
0001
0100
0010
1000
0100
0010
0110
0000
0100
1000
,
0001
0000
1000
0000
1100
0000
0001
0000
0011
0000
1000
0000
1010
0000
0001
0100
,
0001
0000
0101
0000
1100
0000
1000
0100
0010
0001
0100
0010
0110
0000
0100
0001
,
1000
0000
0001
0000
0101
0000
1000
0000
1010
0000
0001
0000
0011
0000
1000
0100
,
1000
0000
0110
0000
1001
0000
1000
0100
0010
0001
0100
0001
0011
0000
0010
0100
,
1000
0000
1100
0000
0101
0000
0001
0100
0010
0001
0010
1000
1010
0000
0010
0100
,
0001
0000
0011
0000
1100
0000
1000
0001
0100
1000
0100
0010
1010
0000
1000
0100
,
0010
0000
0011
0000
1010
0000
0010
0100
0001
0010
1000
0010
0110
0000
0100
1000
,
0001
0100
1000
0MM0
1000
0010
0001
0MM0
0001
0100
1000
0MM0
1000
0010
0100
0000
,
0101
0000
0011
0000
0110
0000
0100
1000
0010
0001
1000
0100
0110
0000
0010
1000
,
0001
0000
0011
0000
1100
0000
1000
0100
0001
0100
0010
0001
1001
0000
1000
0010
,
0100
0000
0101
0000
1100
0000
1000
0010
0100
1000
0001
0010
0110
0000
0100
0001
,
0200
0000
0000
0000
0001
0000
1000
0001
1000
0001
1000
1000
0001
0000
0001
0001
,
0000
0000
0000
0000
1000
0000
0001
1000
0001
1000
0001
0001
1000
0000
1000
1000
,
0300
0000
0000
0000
0101
0000
1100
0101
1100
0101
1000
0100
0110
0000
0010
0001
,
1000
0000
1000
0000
0011
0000
1010
0011
1010
0011
1000
0010
0110
0000
0001
0000
,
1000
0100
0001
0MM0
0001
0MM0
0001
0010
1000
0100
0001
0MM0
0001
0MM0
0001
0010
,
1000
0010
0001
0MM0
0001
0MM0
0001
0100
1000
0010
0001
0010
1000
0000
0001
1000
,
0001
0100
1000
0MM0
1000
0MM0
1000
0010
0001
0100
1000
0MM0
1000
0MM0
1000
0010
,
0001
0000
1001
0000
,
1100
0000
0000
0000
0101
0000
0000
0000
1001
0000
0000
0000
0001
0000
0100
M00M
0100
0000
1000
0000
0010
M00M
0010
0000
0011
0000
0000
0000
0100
0000
1000
0000
,
0010
0000
0000
0000
0110
0000
0000
0000
1001
0000
0000
0000
0001
0000
0010
0000
1000
0000
0010
M00M
0010
0000
1000
0000
1001
0000
0000
0000
0001
0000
0100
0000
,
0010
0000
0000
0000
1010
0000
0000
0000
0102
0000
0000
0000
0103
0000
1000
0000
0100
M00M
0100
0000
0010
0000
0100
0000
1100
0000
0000
0000
1000
0000
0010
0000
,
0100
0000
0101
0000
0011
0000
0001
0010
1000
0001
1000
0010
0110
0000
0100
1000
,
0010
0000
0110
0000
0101
0000
0100
1000
0001
0010
1000
0001
0011
0000
0010
0100
,
1000
0000
0000
0000
1100
0000
0000
0000
0101
0000
0000
0000
0001
0000
0010
M00M
0010
0000
1000
0000
0100
0000
0010
0000
0110
0000
0000
0000
0100
0000
1000
0000
,
0010
0000
0000
0000
0110
0000
0000
0000
1001
0000
0000
0000
1000
0000
0100
M00M
0100
0000
0001
0000
0010
0000
0100
0000
1100
0000
0000
0000
1000
0000
0010
0000
,
0001
0000
0110
0000
1010
0000
0010
1000
0010
0001
1000
0100
0101
0000
0001
1000
,
0100
0000
0000
0000
0101
0000
0000
0000
0011
0000
0000
0000
0001
0000
0100
0000
0010
0000
0001
0MM0
0001
0000
0100
0000
0110
0000
0000
0000
0010
0000
1000
0000
,
0100
0000
0000
0000
0110
0000
0000
0000
0011
0000
0000
0000
0010
0000
0100
0000
0001
0MM0
0001
0000
0100
0000
0010
0000
1010
0000
0000
0000
1000
0000
0001
0000
,
0100
0000
0000
0000
0110
0000
0000
0000
1010
0000
0000
0000
0010
0000
0001
0MM0
0001
0000
0100
0000
1000
0000
0100
0000
0110
0000
0000
0000
0010
0000
1000
0000
,
0100
0000
0000
0000
0110
0000
0000
0000
0011
0000
0000
0000
0001
0000
0100
0000
1000
0MM0
1000
0000
0100
0000
1000
0000
1010
0000
0M00
0000
0010
0000
0001
0000
,
0100
0000
00M0
0000
1100
0000
0000
0000
0101
0000
0000
0000
0100
M00M
0100
0000
1000
0000
0010
0000
0001
0000
0010
0000
1010
0000
0000
0000
1000
0000
0100
0000
,
0001
0000
0000
0000
0110
0000
0000
0000
1100
0000
0000
0000
0100
0000
1000
0000
0001
0MM0
0001
0000
0010
0000
1000
0000
1001
0000
0000
0000
0001
0000
0100
0000
,
0001
0000
0000
0000
1010
0000
0000
0000
1100
0000
0000
0000
1000
0000
0001
0MM0
0001
0000
0100
0000
1000
0000
0010
0000
0011
0000
0000
0000
0001
0000
0010
0000
,
1000
0000
0000
0000
1100
0000
0000
0000
0101
0000
0000
0000
0001
0000
1000
0MM0
1000
0000
0001
0000
0010
0000
1000
0000
1100
0000
0000
0000
1000
0000
0001
0000
,
0100
0000
1001
0000
,
0110
0000
1001
0000
;
