#TITLE:The Other Side;
#SUBTITLE:;
#ARTIST:Danielmaku;
#TITLETRANSLIT:;
#SUBTITLETRANSLIT:;
#ARTISTTRANSLIT:;
#GENRE:;
#CREDIT:;
#BANNER:../banner.png;
#BACKGROUND:../bg.png;
#LYRICSPATH:;
#CDTITLE:;
#MUSIC:The Other Side.ogg;
#OFFSET:0.008;
#SAMPLESTART:43.122;
#SAMPLELENGTH:12.000;
#SELECTABLE:YES;
#BPMS:0.000=128.000;
#STOPS:;
#BGCHANGES:;
#KEYSOUNDS:;

//---------------dance-single - Nix----------------
#NOTES:
     dance-single:
     Nix:
     Challenge:
     9:
     0.588,0.640,0.371,0.276,0.486:
0000
0000
0000
0000
,
0000
0000
0000
0000
,
0000
0000
0000
0000
,
0000
0000
0000
0000
,
0000
0000
0000
0000
,
0000
0000
0000
0000
,
0000
0000
0000
0000
,
0000
0000
0000
0000
,
1100
0000
0000
0001
0100
0000
0001
0000
1001
0000
0000
1000
0000
0000
0100
0000
,
0110
0000
0000
0000
0000
0000
0000
0000
0000
0000
0000
0000
0011
0000
0000
0000
0000
0000
0000
0000
0000
0000
0000
0000
1001
0000
0000
0000
0000
0000
0000
0000
0000
0010
0000
0000
1000
0000
0010
0000
0000
0000
0000
0000
0000
0000
0000
0000
,
0101
0000
0000
0000
0110
0000
0000
0000
1010
0000
0000
1000
0000
0000
0100
0000
,
0110
0000
0000
0010
0000
0000
0001
0000
0011
0000
0000
1000
0010
0000
1000
0000
,
1001
0000
0000
0001
0000
0000
0010
0000
0110
0000
0000
0000
1100
0000
0000
0000
,
1001
0000
0000
0000
0000
0000
0000
0000
0000
0100
0000
0000
0001
0000
0100
0000
0000
0000
0000
0000
0000
0000
0000
0000
1010
0000
0000
0000
0000
0000
0000
0000
0000
0000
0000
0000
0110
0000
0000
0000
0000
0000
0000
0000
0000
0000
0000
0000
,
0101
0000
0000
0001
0000
0000
0010
0000
0110
0000
0000
0200
2000
0000
3300
0000
,
0002
0000
0000
0100
0000
0000
2000
0003
0000
0100
0000
0000
3001
0000
0010
0000
,
0110
0000
0100
0000
1000
0001
0000
0000
0101
0000
0100
0000
0010
1000
0000
0000
,
1010
0000
0000
0010
0100
0000
0001
0000
0000
1000
0000
0000
0200
0000
0010
0000
,
0000
1000
0300
0000
0001
0000
0000
0000
1000
0000
0000
0000
0100
0000
0000
0000
,
0110
0000
0000
0010
0000
0000
0011
0000
0000
0001
0000
0000
2000
0000
0010
0000
,
3001
0000
0100
0000
0010
0000
1000
0000
0001
0000
0000
0010
0000
0000
1000
0000
,
0000
0010
0000
0010
0100
0000
0000
0001
0000
0000
0100
0000
1000
0000
0010
0000
,
0000
0010
0000
0000
1000
0000
0010
0000
0001
0000
0010
0000
1000
0000
0100
0000
,
1000
0000
0001
0100
0001
0000
1000
0100
2000
0000
0000
3001
0010
0000
0100
0000
,
1000
0000
0000
0000
0000
0000
0010
0000
0000
0000
0000
0000
0100
0000
0000
0001
0000
0000
0100
0000
0000
0000
0000
0000
0010
0000
0000
1000
0000
0000
0000
0000
0000
1000
0000
0000
0000
0000
0001
0000
0000
0000
0100
0000
0001
0000
0000
0000
,
0010
0000
0100
0000
1000
0000
0010
0100
0010
0000
0100
0001
1000
0000
0100
0000
,
0010
0000
0000
0001
1000
0100
0010
0000
0001
0000
0000
0001
0010
0000
0000
0000
,
0110
0000
0000
0100
1000
0000
0010
0000
0100
0000
0001
0000
1000
0010
1000
0000
,
0001
0000
0000
0100
0000
0000
0010
0000
0000
0000
0000
0000
1000
0000
0001
0000
0000
0000
0010
0000
0001
0000
0000
0000
0100
0000
0000
0000
0000
0000
0010
0000
0000
0000
0000
0000
1000
0000
0000
0000
0000
0000
0100
0000
0000
0010
0000
0000
,
0001
0000
0000
0010
1000
0000
0010
0000
0100
0000
0000
0010
1000
0010
0001
0000
,
0010
0000
0000
0000
0012
0000
0000
0000
0103
0000
0000
0001
0100
0000
0000
0000
,
0010
0000
1000
0000
0100
0000
0000
0000
1000
0001
0000
0100
0010
0000
0000
0000
,
2010
0000
0000
0000
3100
0000
0000
0010
0001
0000
0000
0000
0100
0000
0010
0000
,
1000
0000
0000
0000
0100
0010
0100
0000
1000
0000
0000
0000
1010
0000
0000
0000
,
0010
0000
0000
0100
0001
0000
0000
0000
0010
0000
1000
0000
0010
0000
0000
0000
,
0100
1000
0000
0001
0100
0000
0000
0000
1020
0000
0000
0000
0130
0000
0000
0001
,
0010
0000
0000
0000
0100
0000
1000
0000
0010
0000
0000
0000
0100
0001
1000
0000
,
2100
0000
0000
3001
0000
0000
0012
0000
0000
1003
0000
0000
2010
0000
3001
0000
,
0100
0000
0010
0000
1000
0001
0010
0000
0100
1000
0100
0001
0100
0000
0000
0000
,
0010
0000
0001
0000
1000
0000
0010
0000
0100
0001
0000
1000
0100
0000
0010
0000
,
0001
1000
0010
0000
0110
0000
0000
0001
1000
0000
0000
0000
0100
0000
0010
0000
,
0011
0000
0000
0001
1000
0010
0001
0000
0010
1000
0000
0000
1001
0000
0001
0000
,
0010
0000
0100
0001
0100
0000
1000
0000
1001
0000
0010
0000
0100
0001
0000
0000
,
1000
0100
M00M
0100
0001
0000
0010
0000
0110
0000
0000
0000
0100
0000
1000
0001
,
0100
0010
0000
0000
0110
0000
0001
0000
1002
0000
0000
0000
0013
0100
0010
0000
,
1001
0000
1000
0010
1000
0000
0001
0010
0001
0000
1000
0100
1000
0000
0001
0100
,
0002
0000
0000
0000
0000
0000
0100
0000
0000
0000
0000
0000
2003
0000
0000
0000
0000
0000
0010
0000
0000
0000
0000
0000
3001
0000
0000
0010
0000
0000
M00M
0000
0000
0010
0000
0000
1000
0000
0001
0000
0000
0000
0010
0000
0001
0000
0000
0000
,
1000
0000
0001
0000
0100
0000
0010
1000
0001
0000
0000
0010
0100
0000
0010
0000
,
0001
0000
0100
1000
0100
0010
1000
0000
0001
0000
0100
0010
1000
0000
0010
0100
,
0001
0000
0000
0010
0100
0000
1000
0000
0001
0000
0100
0000
0010
1000
0010
0000
,
1000
0000
0000
0001
0000
0000
0010
0000
0000
0100
0000
0000
0010
0000
0001
0000
0000
0000
1000
0000
0001
0000
0000
0000
0100
0000
0000
0000
0000
0000
0010
0000
0000
0000
0000
0000
1000
0000
0000
0000
0000
0000
0001
0000
0000
0010
0000
0000
,
1000
0000
0000
0010
0100
0000
1000
0000
0010
0000
0100
0001
0100
0010
1000
0000
,
0020
0000
0230
0302
,
0023
0000
0000
0000
0000
0000
0230
0000
0000
0000
0000
0000
2300
0000
0000
0000
0000
0000
0000
3002
0000
0000
0000
0000
,
0203
0320
2030
3200
,
0320
0032
0000
0000
,
0003
0000
0000
0000
;
