#TITLE:The Least 100sec;
#SUBTITLE:;
#ARTIST:Hirofumi Sasaki;
#TITLETRANSLIT:;
#SUBTITLETRANSLIT:;
#ARTISTTRANSLIT:;
#GENRE:;
#CREDIT:;
#BANNER:../banner.png;
#BACKGROUND:../bg.png;
#LYRICSPATH:;
#CDTITLE:;
#MUSIC:The Least 100sec.ogg;
#OFFSET:-0.045;
#SAMPLESTART:0.020;
#SAMPLELENGTH:15.000;
#SELECTABLE:YES;
#DISPLAYBPM:200.000:263.000;
#BPMS:0.000=263.590,79.000=257.140,80.000=264.710,81.000=257.140,82.000=250.000,83.000=257.140,84.000=250.000,86.000=248.850,92.000=250.000,93.000=257.140,95.000=263.590,401.000=200.000;
#STOPS:;
#BGCHANGES:;
#KEYSOUNDS:;

//---------------dance-single - Nix----------------
#NOTES:
     dance-single:
     Nix:
     Challenge:
     10:
     0.917,0.917,0.931,0.061,0.077:
0000
0000
0000
0000
,
0000
0000
0000
0000
,
0000
0000
0000
0000
,
0000
0000
0000
0000
,
0000
0000
0000
0000
,
0000
0000
0000
0000
,
0000
0000
0000
0000
,
0000
0000
0000
0000
,
1000
0000
1000
0001
0000
0001
0100
0000
,
0000
0110
1001
0110
,
0010
1000
0001
0100
0001
1000
0010
1000
,
0100
0010
0001
0010
0100
1000
0001
0100
,
0001
1000
0100
0010
0000
0011
0000
1001
,
0000
1100
0000
0110
0000
0001
0010
0100
,
1000
0001
0100
0001
1000
0100
0010
0100
,
1000
0000
0001
0000
1000
0000
0100
0000
0000
0000
0000
0000
0000
0000
0000
0010
0000
0000
0000
0000
0000
0010
0000
0000
,
0001
1000
0001
0010
0000
0010
0100
0000
,
0000
0100
1000
0100
0010
0001
0100
0010
,
1000
0010
0100
0001
0000
0001
0010
0000
,
0000
0010
0001
0100
0010
0100
0001
1000
,
0001
0100
0001
1000
0010
1000
0001
0100
,
0010
1000
0100
0010
0001
0000
0000
0110
,
0000
0000
1000
0000
0000
0110
0000
0000
,
0001
0000
1000
0100
1000
0100
0010
0001
,
1000
1100
0110
0011
,
1001
0000
0000
0110
0000
0000
1002
0000
,
0000
0103
0010
1000
0100
0010
0100
1000
,
0001
0100
0010
1000
0001
0100
0001
1000
,
0010
0100
0001
0010
0100
1000
0100
0010
,
0001
0100
0010
0100
0010
1000
0001
0000
,
0000
0000
0000
0101
,
1010
0110
0101
1001
,
0001
0010
0100
1000
0010
0100
0010
1000
,
0100
1000
0001
0010
0100
0010
0001
1000
,
0010
0100
0001
0010
0100
1000
0101
0000
,
0000
0000
1000
0010
1000
0010
1100
0000
,
0001
0011
1000
1100
,
0001
0011
1000
1010
,
0001
0101
1000
1010
,
0001
0101
1000
1010
,
0000
0101
0000
0001
0100
0010
1000
0001
,
1000
0100
0010
0001
1000
0001
1100
0000
,
0000
0000
0000
0011
0000
0000
0000
0000
0000
0001
0000
0000
0100
0000
0000
0001
0000
0000
0010
0000
0000
0000
0100
0000
,
0000
1000
0000
0010
0000
0100
0000
0001
0000
1000
0000
0000
,
0001
1100
0010
0011
,
1000
0000
1020
0000
0130
0000
0010
0100
,
0010
0100
0001
1000
0001
1000
0100
0010
,
0100
0010
0001
1000
0001
1000
0100
0000
,
0000
0101
0000
0000
0011
0000
0000
1010
,
0000
0000
1000
0100
0010
0001
1000
0000
,
0000
0101
0000
0000
0110
0000
1010
0000
,
0000
1001
0000
0000
0011
0000
0110
0000
,
0000
1100
0000
0000
1001
0000
0101
0000
,
0000
1001
0000
0000
1010
0000
0110
0000
,
0000
1001
0000
0000
1100
0000
1010
0000
,
0000
1001
0000
0000
0011
0000
0101
0000
,
0000
0110
0000
0000
1001
0000
0110
0000
,
0000
1100
0000
0000
0101
0000
0110
0000
,
0000
1001
0000
0000
0110
0000
0000
1001
,
0000
0000
1010
0000
0000
0101
0000
0000
,
1100
0000
0100
1000
0001
0100
0010
1000
,
0010
0100
0001
0010
0100
1000
0001
0000
,
0001
1000
0000
1000
0010
0000
0110
0000
,
0100
0001
0000
0001
0010
0000
0110
0000
,
0100
1000
0000
1000
0001
0000
0101
0000
,
0100
0010
0000
0010
1000
0000
1100
0000
,
0100
0001
0000
0001
0100
0000
1100
0000
,
1000
0010
0000
0010
0001
0000
0011
0000
,
0010
0100
0000
0100
0001
0000
1001
0000
,
1000
0010
0000
0010
0100
0000
0001
0000
,
0001
1000
1000
0010
,
0010
0100
0100
0001
,
0010
0100
1000
0010
,
0001
0000
0010
0000
0100
0000
0001
1000
,
0001
1000
0010
0100
0010
0100
0001
1000
,
0001
1000
0100
0010
0100
0010
0001
1000
,
0010
0100
0001
1000
0100
0010
0001
0010
,
0100
1000
0010
0100
0010
1000
0001
0000
,
0001
1000
0000
1000
0100
0000
0000
0000
,
0110
0000
1001
0000
0101
0000
0010
1000
,
0001
1000
0100
0010
0001
1000
0001
0100
,
0010
1000
0001
1000
0100
0010
0001
0100
,
0001
0010
0000
0110
0000
1100
0000
1001
,
0000
1010
0000
0010
1000
0100
0010
0100
,
1000
0000
0000
0001
0000
0000
0100
0000
0000
0010
0000
0000
1000
0000
0000
0100
0000
0000
0010
0000
0001
0000
0010
0000
,
0100
0000
0000
1000
0000
1000
0010
0100
,
0001
0010
0000
0010
0001
0000
0000
1000
,
0010
0100
0010
0100
0001
0010
0100
1000
,
0100
0010
0000
0010
0001
0000
0000
0100
,
0001
0010
0001
1000
0010
0100
0001
0010
,
0001
1000
0000
1000
0001
0010
0001
0100
,
0000
0100
0010
0000
0000
1001
0000
0000
,
0100
0000
0000
1001
0000
0000
0010
1000
,
0001
1000
0100
0010
0001
1000
0001
0100
,
0010
1000
0100
0010
0001
0100
0001
0000
,
0000
1100
0000
0000
0001
0010
0100
1000
,
0001
0010
0100
1000
0001
0100
0010
1000
,
0001
0100
0010
1000
0100
0010
0100
1000
,
0001
0100
0010
0100
0001
1000
0100
1000
,
0010
0100
0001
0010
0001
0000
2002
0000
,
0000
0000
0000
0000
,
3003
0000
0000
0000
1000
0100
1000
0100
1000
0000
0000
0000
0001
0010
0001
0010
,
0001
0000
0000
0000
1000
0001
1000
0001
1000
0000
0000
0000
0110
0000
0000
1001
,
0000
0110
0000
2002
0000
0000
0000
0000
,
0000
0000
0000
0000
,
0000
0000
0000
3003
0000
0000
0000
0000
;
