#TITLE:TRIP MACHINE CLIMAX;
#SUBTITLE:;
#ARTIST:DE-SIRE;
#TITLETRANSLIT:;
#SUBTITLETRANSLIT:;
#ARTISTTRANSLIT:;
#GENRE:;
#CREDIT:;
#BANNER:../banner.png;
#BACKGROUND:../bg.png;
#LYRICSPATH:;
#CDTITLE:;
#MUSIC:TRIP MACHINE CLIMAX.ogg;
#OFFSET:-0.044;
#SAMPLESTART:55.350;
#SAMPLELENGTH:15.000;
#SELECTABLE:YES;
#DISPLAYBPM:180.000;
#BPMS:0.000=180.000;
#STOPS:;
#BGCHANGES:;
#KEYSOUNDS:;

//---------------dance-single - Nix----------------
#NOTES:
     dance-single:
     Nix:
     Challenge:
     10:
     0.781,0.749,0.343,0.034,0.274:
0000
0000
0000
0000
,
0000
0000
0000
0000
,
0000
0000
0000
0000
,
0000
0000
0000
0000
,
0000
0000
0000
0000
,
0000
0000
0100
0000
,
0100
0000
0100
0000
,
0100
0000
0100
0000
,
0000
0010
1001
0000
,
0001
0100
0010
1000
0001
0100
0010
1000
,
0100
1000
0010
0100
0001
0010
0001
0000
,
1000
0010
1000
0100
0010
0001
0100
0001
,
0010
0100
1000
0010
0100
0001
0010
0000
,
0001
1000
0010
0100
0001
1000
0001
0010
,
0100
1000
0010
0100
0001
1000
0001
0000
,
1000
0010
1000
0100
0010
0001
0100
0001
,
0010
0100
1000
0001
0100
0001
0010
0000
,
0001
0100
0010
0100
1000
0100
0010
1000
,
0100
0010
0100
0001
0100
0010
0001
0000
,
1000
0010
0100
0001
0100
1000
0100
0010
,
1000
0100
0010
0100
0001
0100
1000
0000
,
0010
0100
0001
0010
0100
0010
0001
0100
,
1000
0100
0010
1000
0010
0100
0001
0000
,
0100
0010
0100
1000
0100
0010
1000
0010
,
0100
0001
0010
1000
0010
0100
1000
0010
,
0000
0000
0200
0000
0000
0000
0300
0000
1001
0000
0100
0000
0001
0000
0010
0001
,
0010
0001
0010
0000
0100
0000
1000
0000
0010
0000
0100
0000
0001
0000
1000
0010
,
1000
0010
1000
0000
0100
0000
1000
0000
0010
0000
0100
0000
0010
0000
0100
0001
,
0100
0001
0100
0000
0010
0000
1000
0000
0100
0000
0010
0000
0001
0000
1000
0100
,
1000
0100
1000
0000
0000
0000
0000
0000
0001
0000
0100
0000
0010
0000
1000
0001
,
0100
0001
1000
0000
0010
0000
1000
0000
0100
0000
0010
0000
0001
0000
0100
0010
,
1000
0010
0100
0000
0001
0000
0010
0000
0100
0000
1000
0000
0010
0000
0100
0001
,
1000
0001
0100
0000
0010
0000
0100
0000
0001
0000
0010
0000
0100
0000
1000
0010
,
0100
0010
1000
0000
0001
0000
0000
0000
1000
0010
1000
0000
0000
0000
0110
0000
,
0000
0000
0001
0100
0001
0000
0000
0000
0010
0000
0100
0000
1000
0000
0000
0000
,
0010
0100
0010
0000
1000
0010
1000
0000
0100
0000
0010
0000
0001
0000
0001
0000
,
0000
0100
0000
0000
0010
1000
0010
0000
0100
0000
0001
0000
0101
0000
0000
0000
,
2001
0000
0000
0000
0000
0000
0000
3000
0100
1000
0100
0000
0010
0000
0000
0100
,
0000
0100
0000
0000
0010
0001
1000
0000
0010
0000
0100
0000
0001
0000
0010
0000
,
0100
1000
0100
0000
0000
0000
0110
0000
0010
0000
0100
0000
0000
0010
0001
0010
,
0000
0000
0000
0011
0000
0000
1001
0000
0000
0000
0000
0000
1100
0000
0000
0000
1001
0000
0000
0000
0101
0000
0000
0000
,
1001
0000
0000
0000
1010
0000
0000
0000
1001
0000
0000
0000
1000
0000
0000
0010
0000
0000
0100
0000
0000
0010
0000
0000
,
1000
0000
0100
0010
0100
0000
0010
0000
0001
0000
0100
0000
0001
0000
0010
0000
,
0100
0000
1000
0010
1000
0000
0001
0000
0100
0000
0001
0000
0010
0000
0100
0000
,
0010
0000
0001
0100
0001
0000
1000
0000
0010
0000
1000
0000
0001
0000
0000
0000
,
1001
0000
0100
0000
1000
0010
0001
0010
,
1000
0000
0100
0010
0100
0000
0010
0000
0001
0000
0100
0001
0100
0000
0010
0000
,
0001
0000
0010
0100
0010
0000
0100
0000
0001
0000
0100
0000
1000
0000
0100
0000
,
0001
0000
0010
0001
0010
0000
1000
0000
0010
0000
0001
0000
0100
0000
1000
0000
,
0100
0000
1001
0000
0001
0100
1000
0100
,
0001
0100
1000
0100
0001
0010
1000
0010
,
0001
0010
1000
0010
0001
0100
1000
0001
,
0010
1000
0001
0010
1000
0001
0100
1000
,
0010
0000
1001
0000
1000
0100
0001
0100
,
1000
0100
0001
0100
1000
0010
0001
0010
,
1000
0010
0001
0010
1000
0100
0001
1000
,
0010
0001
1000
0010
0001
1000
0100
0001
,
0010
0000
1001
0000
1000
0100
0000
0001
,
0100
0000
0010
0000
1000
0001
0100
0000
,
0001
0000
1000
0000
0100
0000
0000
0000
0010
0000
0001
0000
1001
0000
0000
1000
,
0010
0000
1000
0000
1001
0000
0000
0001
0100
0000
0001
0000
1001
0000
0000
1000
,
0100
1000
1001
0000
0001
1100
0010
0000
,
2000
0000
0000
0000
3010
0000
0000
0000
0100
0000
0001
0000
0101
0000
0000
0100
,
0010
0000
1000
0000
1010
0000
0000
0010
0100
0000
0010
0000
0110
0000
0000
0100
,
0001
0000
0010
0000
0011
0000
0000
0001
0100
0000
0001
0000
1001
0000
0000
1000
,
0100
0010
0011
0001
0000
1001
0000
0000
;
