#TITLE:Surph;
#SUBTITLE:(Streams of Pleasure special);
#ARTIST:Rustie;
#TITLETRANSLIT:;
#SUBTITLETRANSLIT:;
#ARTISTTRANSLIT:;
#GENRE:;
#CREDIT:;
#BANNER:../banner.png;
#BACKGROUND:../bg.png;
#LYRICSPATH:;
#CDTITLE:;
#MUSIC:Surph.ogg;
#OFFSET:0.006;
#SAMPLESTART:79.996;
#SAMPLELENGTH:12.000;
#SELECTABLE:YES;
#BPMS:0.000=143.980;
#STOPS:;
#BGCHANGES:;
#KEYSOUNDS:;

//---------------dance-single - Nix----------------
#NOTES:
     dance-single:
     Nix:
     Challenge:
     11:
     0.922,0.960,0.391,0.056,1.000:
0000
0000
0000
0000
,
0000
0000
0000
0000
,
0000
0000
0000
0000
,
0000
0000
0000
0000
,
0000
0000
0000
0000
,
0000
0000
0000
0000
,
0000
0000
0000
0000
,
0000
0000
0000
0000
,
2001
0000
0000
3001
0100
0000
0010
0000
1000
0001
0000
0000
0011
0000
0010
0000
,
0210
0000
0000
1300
0010
0000
0100
0000
0001
0010
0000
0000
0110
0000
0100
0000
,
2100
0000
0000
3010
0100
0000
0001
0000
1000
0100
0000
0000
1100
0000
1000
0000
,
1020
0000
0000
0130
0001
0000
0010
0000
0100
1000
0000
0000
1001
0000
0001
0000
,
0100
0010
1000
0001
0010
0100
1000
0001
,
0100
0010
1000
0100
0010
0001
0100
0010
,
1000
0100
1000
0000
0001
0010
0001
0000
1000
0010
1000
0000
0001
0100
0001
0000
,
1000
0001
1000
0000
0001
0000
1000
0000
0001
0000
0000
0000
0000
0000
0000
0000
,
1000
0100
1000
0100
0010
0001
0010
0100
1000
0001
0010
0100
1000
0100
0010
0001
,
1000
0010
0100
0001
0100
0010
1000
0001
0100
0001
1000
0100
1000
0001
0010
0100
,
0010
0001
1000
0010
0100
0001
0100
0010
1000
0001
0010
0100
1000
0001
0100
0010
,
0100
0001
1000
0100
0010
0001
1000
0010
1000
0001
0100
0010
1000
0001
0010
0100
,
1000
0100
0010
0001
1000
0010
0100
0010
1000
0001
0010
0100
1000
0001
0100
0010
,
1000
0001
0010
0100
1000
0100
1000
0001
0100
0001
0100
0010
1000
0001
0100
0010
,
1000
0001
0010
0100
1000
0100
0010
0001
0100
0010
1000
0010
0100
0001
1000
0100
,
1000
0000
0000
0000
,
0001
0100
0010
0100
0010
1000
0001
0010
0100
1000
0001
1000
0010
0100
0001
0010
,
0100
1000
0001
0100
0010
1000
0001
1000
0010
0100
0001
1000
0100
0010
0001
1000
,
0001
0010
0100
1000
0010
0100
0001
0100
0010
1000
0100
0010
0001
1000
0100
1000
,
0001
0100
0001
1000
0010
0100
0001
0010
0100
1000
0100
1000
0010
0100
0001
0100
,
0010
1000
0001
0010
0100
1000
0001
0100
0001
0010
0100
1000
0001
0100
0010
1000
,
0001
1000
0100
0010
0001
1000
0001
0100
0010
1000
0001
0010
0100
1000
0001
1000
,
0100
0010
0001
0100
0001
0010
0100
1000
0010
1000
0100
0010
0001
0100
0010
1000
,
0001
0000
0000
0000
0000
0000
0000
0000
1000
0001
0100
0000
0000
0001
0000
0000
,
1001
0000
0001
0000
0100
0000
0110
0000
0100
0010
1000
0000
0010
0000
0000
0000
,
1010
0000
1000
0000
0001
0000
0011
0000
0001
0100
0001
0000
1000
0000
0000
0000
,
1100
0000
0100
0000
0010
0000
0011
0000
0010
0100
1000
0000
0001
0000
0000
0000
,
1001
0000
1000
0000
0001
0000
0101
0000
0001
0100
0010
0000
0100
0000
0000
0000
,
0101
0000
0001
0011
0010
0100
1000
0010
,
0110
0100
0001
0011
0010
1000
0010
0001
,
0101
0000
0100
0110
0010
1000
0100
0010
,
0011
0000
0001
0000
0100
0000
0001
0000
0011
0000
0000
1100
0000
0000
0011
0000
,
0110
0000
0010
0000
0100
0000
1100
0000
0100
0010
0001
0000
1000
0000
0000
0000
,
1001
0000
0001
0000
0010
0000
0110
0000
0010
0001
0100
0000
0010
0000
0000
0000
,
0110
0000
0100
0000
0001
0000
0101
0000
0001
0010
0100
0000
1000
0000
0000
0000
,
1100
0000
0100
0000
0010
0000
0011
0000
0010
0100
1000
0000
0010
0000
0000
0000
,
0110
0000
0100
0101
0001
0010
1000
0010
,
0011
0001
0100
0110
0010
0001
0010
1000
,
1100
0101
0011
1010
,
1000
0000
0100
0000
0010
0000
0001
0000
1000
0001
1000
0000
0000
0001
0000
0000
,
1000
0010
0100
0001
0100
0010
1000
0001
0010
0100
1000
0001
1000
0100
0010
0001
,
0100
0010
1000
0001
0010
0100
0010
0001
0100
0001
0010
0100
1000
0010
1000
0100
,
0010
0001
0010
0001
1000
0010
0100
0001
1000
0100
1000
0001
0100
0001
0010
0100
,
1000
0100
0010
0001
1000
0010
0100
0001
0010
0001
0100
0010
1000
0100
1000
0010
,
0100
0001
1000
0001
0010
0100
1000
0001
1000
0010
0100
0001
1000
0100
0010
0001
,
1000
0001
0010
0100
1000
0001
0010
0001
0100
0001
0010
0100
1000
0010
1000
0100
,
0010
0001
1000
0010
1000
0001
0100
0001
1000
0100
1000
0001
0100
0010
1000
0100
,
0010
0000
0000
0000
0000
0000
0000
0000
1000
0000
0000
0001
0000
0000
1000
0000
,
0001
0100
0001
1000
0001
0010
0100
1000
0001
1000
0010
0100
0001
1000
0001
0010
,
0100
1000
0001
0010
0001
1000
0100
1000
0010
1000
0100
0010
0001
0100
0001
0010
,
0100
1000
0001
0100
0001
1000
0100
0010
0001
0100
0010
1000
0001
0010
0100
1000
,
0010
0100
0001
0010
0001
1000
0010
1000
0100
1000
0010
0100
0001
0010
0001
0100
,
0010
1000
0010
1000
0001
0010
0100
1000
0001
0100
0010
1000
0001
0010
0100
1000
,
0010
1000
0010
0100
0001
0010
0100
1000
0010
1000
0100
0010
0001
0100
0001
0010
,
0100
1000
0100
1000
0001
0100
0010
1000
0100
0010
0001
1000
0010
1000
0001
0010
,
0002
0000
2000
0000
,
0000
0000
3003
0000
;
