#TITLE:Shelter;
#SUBTITLE:(Clark Kent Remix);
#ARTIST:Birdy;
#TITLETRANSLIT:;
#SUBTITLETRANSLIT:;
#ARTISTTRANSLIT:;
#GENRE:;
#CREDIT:;
#BANNER:../banner.png;
#BACKGROUND:../bg.png;
#LYRICSPATH:;
#CDTITLE:;
#MUSIC:shelter.ogg;
#OFFSET:0.012;
#SAMPLESTART:157.710;
#SAMPLELENGTH:12.000;
#SELECTABLE:YES;
#BPMS:0.000=140.000;
#STOPS:;
#BGCHANGES:;
#KEYSOUNDS:;

//---------------dance-single - Nix----------------
#NOTES:
     dance-single:
     Nix:
     Challenge:
     13:
     0.891,0.933,0.156,0.349,1.000:
0000
0000
0000
0000
,
0000
0000
0000
0000
,
0000
0000
0000
0000
,
0000
0000
0000
0000
,
2100
3001
0012
0100
,
1000
0000
0103
0000
0120
0000
2000
0030
,
0200
3000
0310
0000
2100
0000
0010
0000
,
0100
3001
0102
0010
,
0203
0310
1020
0100
,
0001
0130
0102
0023
,
0130
1000
2001
0010
,
3002
0103
2001
3200
,
0320
0031
0201
0010
,
0302
0013
0210
1000
,
0001
1300
1020
0001
,
0230
0301
1002
0010
,
0200
0003
1300
0000
0120
0000
1000
0000
,
0100
1030
1200
0010
,
1000
0310
0012
0100
,
1000
0013
0210
2300
,
3002
0000
0000
0000
,
0000
0000
0000
0000
,
2003
0000
0000
0000
,
0000
0000
0000
0000
,
3002
0000
0000
0000
,
0000
0000
0000
0000
,
2000
0000
0000
0000
,
3003
0000
0000
0000
,
2010
0000
0001
3000
0102
0000
0013
0000
,
0210
0000
2300
3010
0102
0000
0013
0000
,
2100
0000
3010
0000
0012
0000
0200
0003
,
200M
0000
0300
0000
0100
3000
0001
0000
M021
0000
0000
0000
0130
0000
0000
0000
,
1001
0010
0110
0100
,
1000
0000
0010
0100
0101
0000
0000
0000
,
1000
0000
0021
0000
,
1000
0000
0000
0130
2100
0000
3010
0000
,
0110
0000
0001
0100
0101
0000
0010
0000
,
0100
0000
0001
1000
0110
0000
0001
0000
,
1000
0000
0201
0010
,
1000
0000
0301
1000
1100
0000
0010
0000
,
0100
0100
1001
0010
,
1000
0100
M001
0100
1200
0000
0310
0000
,
0001
1000
0210
0301
,
1000
0010
M001
0010
1000
1000
0001
0000
,
1000
0010
0100
0010
1000
0010
0100
0001
1000
0100
1000
0100
1000
0010
0100
0010
,
1000
0001
1000
0100
0010
0001
1000
0001
1000
0100
1000
0100
0010
0001
1000
0100
,
1000
0001
0010
0001
0010
0100
1000
0001
1000
0100
0010
0001
0100
0001
0010
0001
,
0100
0010
1000
0010
0100
0001
1000
0100
0010
0001
0010
0100
1000
0010
0100
0010
,
1000
0100
1000
0001
0010
0001
1000
0100
0010
0001
0100
0010
0100
0001
1000
0100
,
0010
0100
0010
0001
0010
0001
1000
0100
1000
0001
0010
0001
0100
0010
0100
0001
,
1000
0010
1000
0010
0100
0001
0100
0010
0100
0001
0100
0001
0100
0010
0100
0001
,
1000
0010
0100
0001
0010
0100
0010
0100
1000
0001
1000
0010
0100
0001
1000
0100
,
1000
0100
1000
0001
0010
0100
1000
0100
1000
0001
0100
0010
1000
0001
0100
0010
,
0100
0001
1000
0010
1000
0001
1000
0001
1000
0010
1000
0001
0100
0001
1000
0100
,
0010
0100
1000
0100
1000
0010
0100
0010
0100
0001
1000
0001
0010
0100
1000
0010
,
1000
0100
1000
0100
0010
0100
1000
0001
0100
0010
1000
0100
0010
0001
0100
0001
,
0010
0100
1000
0100
1000
0001
0100
0001
1000
0001
0100
0001
0100
0010
1000
0100
,
0010
0001
0100
0001
0010
0100
1000
0100
0010
0001
0100
0010
1000
0100
0010
0001
,
1000
0010
1000
0001
0010
0001
0100
0010
1000
0001
0100
0010
1000
0001
0100
0001
,
0010
0100
1000
0010
0100
0001
0100
0001
0100
0001
0100
0001
0100
0010
1000
0100
,
0020
0000
0000
0000
,
0002
0000
0030
0000
,
2000
0000
0003
0000
,
0020
0000
3000
0000
,
0200
0000
0030
0000
,
00M0
0000
0000
0000
,
0002
0000
0300
0000
,
2000
0003
0010
0000
,
0020
3000
0200
0030
0020
0300
0200
0030
,
0002
0300
0200
0003
0002
0300
0200
0003
,
0020
0300
2000
0030
0020
3000
2000
0030
,
0002
3000
0020
0003
0002
0030
0020
0003
,
0200
0030
2000
0300
0200
3000
2000
0300
,
0020
3000
0200
0030
0002
0300
0200
0003
,
0020
0300
0200
0030
0002
0300
0020
0003
,
0200
0030
2000
0300
0020
3000
0130
0000
,
2001
0001
0001
3002
,
0100
0100
0100
0203
,
0010
0010
0010
0320
,
1000
1000
1000
2030
,
0100
0001
0010
3200
,
0010
0001
1000
0320
,
0001
0100
1000
0032
,
0100
1000
0010
0103
,
1010
0100
0010
0001
,
0101
0010
1000
0100
,
0110
0001
0100
0001
,
0110
1000
0100
1000
,
0001
0100
0010
0100
10M0
0100
0010
1000
,
0100
0010
0100
00M1
0100
0010
0100
10M0
,
0001
1000
0001
1000
0001
1000
0001
1000
0001
1000
0001
1000
0001
1000
0001
1000
,
0004
4000
0000
0000
0000
0000
0000
0000
0000
0000
0000
0000
0000
0000
0000
0000
3003
0000
0000
0000
0000
0000
0000
0000
0000
0000
0000
0000
0000
0000
0000
0000
,
1000
0010
0100
0001
1000
0010
1000
0001
1000
0010
0100
0010
0100
0010
1000
0001
,
1000
0001
0100
0010
0100
0010
1000
0001
1000
0010
0100
0001
0010
0001
1000
0100
,
1000
0100
0010
0100
1000
0100
0010
0001
1000
0010
0100
0001
0010
0001
0100
0010
,
0100
0001
1000
0010
0100
0001
1000
0100
0010
0001
0100
0010
1000
0100
0010
0001
,
0010
0100
1000
0100
1000
0001
0100
0001
1000
0001
0010
0100
0010
0100
0010
0001
,
0100
0010
1000
0001
0010
0100
1000
0001
1000
0001
0010
0100
0010
0001
1000
0001
,
0010
0100
1000
0010
0100
0010
1000
0001
0100
0001
0010
0001
0010
0001
0100
0010
,
0100
0001
1000
0010
1000
0001
0100
0001
0010
0001
0010
0100
0010
0100
1000
0010
,
0100
0010
1000
0001
1000
0100
0010
0100
0010
0001
1000
0001
0010
0100
1000
0100
,
0010
0100
0010
0001
1000
0001
0010
0100
1000
0010
1000
0001
1000
0100
0010
0100
,
1000
0010
0100
0010
1000
0010
0100
0001
1000
0010
0100
0001
0010
0001
0100
0001
,
1000
0001
0010
0100
0010
0100
1000
0010
0100
0001
0010
0001
1000
0010
1000
0010
,
0100
0001
0010
0100
1000
0100
1000
0010
0100
0010
1000
0001
0100
0001
1000
0010
,
0100
0001
0010
0100
0010
0001
0010
0100
1000
0010
1000
0010
0100
0001
1000
0100
,
0010
0001
1000
0010
0100
0001
1000
0001
0100
0010
1000
0001
0100
0010
1000
0001
,
1000
0010
1000
0001
0010
0001
1000
0100
1000
0001
0100
0010
0100
0001
0010
0100
,
0010
0100
1000
0001
0100
0001
0010
0100
0010
0001
0100
0001
1000
0001
1000
0100
,
0010
0100
1000
0010
0100
0010
0100
0001
0010
0001
1000
0001
0100
0001
1000
0010
,
1000
0001
1000
0100
0010
0100
1000
0100
0010
0001
0100
0010
0100
0001
0100
0010
,
1000
0010
0100
0001
1000
0010
1000
0100
0010
0100
1000
0100
0010
0001
0010
0100
,
0010
0001
0100
0001
1000
0010
1000
0001
0100
0010
0100
0001
1000
0100
1000
0010
,
0100
0001
0100
0010
1000
0010
0100
0010
0100
0001
0100
0010
1000
0001
0100
0001
,
1000
0100
1000
0010
0100
0001
0100
0010
1000
0010
0100
0001
0100
0010
1000
0100
,
0010
0100
1000
0010
1000
0100
0010
0001
0100
0001
0010
0100
0010
0001
0100
0001
,
0100
0010
0100
0001
1000
0001
0010
0100
0010
0001
0010
0001
0100
0001
0010
0100
,
1000
0010
0100
0001
0010
0001
1000
0010
0100
0001
1000
0010
1000
0001
1000
0100
,
0010
0001
0010
0100
0010
0001
0100
0001
0100
0010
1000
0001
1000
0100
0010
0001
,
1000
0001
0100
0001
0010
0001
0010
0001
1000
0100
0010
0001
1000
0010
0100
0010
,
1000
0010
0100
0001
1000
0010
0100
0001
0100
0001
1000
0001
0100
0010
1000
0001
,
0010
0001
1000
0001
0010
0100
1000
0100
0010
0100
0010
0001
1000
0001
0100
0001
,
0010
0100
0010
0001
1000
0100
1000
0100
1000
0001
0100
0010
0100
0001
0010
0001
,
1000
0001
1000
0010
1000
0001
0010
0001
0010
0100
1000
0010
0100
0001
0100
0001
,
1000
0100
0010
0001
1000
0100
1000
0001
0010
0001
0010
0100
0010
0001
1000
0010
,
0100
0001
0100
0001
1000
0001
1000
0010
0100
0001
1000
0010
1000
0100
1000
0010
,
1000
0010
1000
0100
0010
0100
0010
0001
1000
0010
0100
0010
1000
0001
1000
0001
,
0100
0010
1000
0100
1000
0010
1000
0100
0010
0100
0010
0100
1000
0001
0100
0001
,
1000
0100
0010
0100
1000
0010
0100
0001
0100
0001
1000
0010
0100
0001
0100
0001
,
0010
0001
1000
0001
0100
0001
1000
0100
0010
0100
0010
0001
1000
0001
0010
0100
,
1000
0001
0100
0001
0010
0001
1000
0001
0010
0001
1000
0010
0100
0001
1000
0001
,
0100
0010
0100
0010
0100
0001
1000
0100
0010
0001
1000
0100
1000
0010
0100
0010
,
1000
0001
0010
0001
0010
0100
0010
0100
0010
0001
0100
0010
0100
0001
0100
0001
,
0100
0010
0100
0001
0010
0001
1000
0001
0100
0010
1000
0010
1000
0010
0100
0001
,
1000
0010
1000
0001
0100
0001
1000
0001
0100
0010
0100
0010
1000
0100
0010
0100
,
0010
0001
0100
0010
0100
0001
1000
0100
1000
0001
0100
0001
1000
0010
1000
0100
,
1000
0001
0100
0010
1000
0100
1000
0010
0100
0010
1000
0100
1000
0100
1000
0010
,
0100
0010
0100
0010
1000
0100
0010
0001
0010
0100
1000
0001
1000
0100
1000
0010
,
0100
0001
0010
0001
0100
0001
0010
0100
1000
0010
1000
0100
0010
0100
1000
0100
,
0010
0001
1000
0100
0010
0001
1000
0001
0010
0100
0010
0001
0100
0010
0100
0010
,
1000
0001
0100
0001
1000
0001
0010
0100
0010
0001
1000
0001
0010
0100
0010
0100
,
1000
0001
0010
0001
0010
0001
1000
0100
1000
0001
0100
0010
1000
0001
1000
0001
,
0010
0100
0010
0001
0010
0100
0010
0001
1000
0001
0100
0001
0010
0001
0010
0100
,
0010
0001
1000
0100
1000
0100
0010
0100
1000
0010
1000
0010
1000
0100
1000
0001
,
1000
0100
0010
0001
0100
0001
0100
0010
0100
0010
1000
0001
1000
0100
0010
0001
,
0100
0010
1000
0010
0100
0001
0100
0010
1000
0100
0010
0001
1000
0010
1000
0100
,
0010
0100
1000
0001
1000
0100
1000
0010
0100
0001
0010
0100
1000
0010
1000
0100
,
1000
0010
1000
0001
1000
0100
0010
0100
1000
0100
1000
0010
1000
0001
0100
0001
,
1000
0001
0010
0001
1000
0001
0010
0100
0010
0001
0010
0001
1000
0010
0100
0001
,
0010
0100
0010
0001
1000
0100
1000
0100
1000
0010
0100
0001
0100
0001
1000
0100
,
0010
0001
1000
0010
1000
0001
0010
0100
1000
0001
1000
0010
0100
0001
0010
0100
,
1000
0001
1000
0100
0010
0001
1000
0100
1000
0100
0010
0001
0100
0001
1000
0001
,
0100
0001
0100
0001
1000
0010
0100
0001
0100
0001
0010
0001
1000
0100
0010
0100
,
1000
0001
0010
0001
1000
0001
0010
0100
0010
0001
0100
0010
0100
0010
1000
0100
,
1000
0010
0100
0001
1000
0100
1000
0010
0100
0001
0010
0001
0010
0001
0100
0010
,
0100
0010
0100
0001
0010
0100
1000
0100
1000
0001
1000
0010
1000
0010
1000
0001
,
0020
0000
0000
0000
,
0030
0000
0000
0000
;
