#TITLE:SRS BUSINESS;
#SUBTITLE:(SRS REMIX);
#ARTIST:imSUCHApr0;
#TITLETRANSLIT:;
#SUBTITLETRANSLIT:;
#ARTISTTRANSLIT:;
#GENRE:;
#CREDIT:;
#BANNER:../banner.png;
#BACKGROUND:../bg.png;
#LYRICSPATH:;
#CDTITLE:;
#MUSIC:silly3.ogg;
#OFFSET:0.002;
#SAMPLESTART:4.672;
#SAMPLELENGTH:10.000;
#SELECTABLE:YES;
#DISPLAYBPM:205.000;
#BPMS:0.000=205.000;
#STOPS:;
#BGCHANGES:;
#KEYSOUNDS:;

//---------------dance-single - Nix----------------
#NOTES:
     dance-single:
     Nix:
     Challenge:
     11:
     1.000,0.939,0.781,0.130,1.000:
0000
0000
0000
0000
,
0000
0000
0000
0000
,
0000
0000
0000
0000
,
0000
0000
0000
0000
0000
0000
0000
0000
0000
0000
0000
1001
0000
0000
0000
0000
,
1000
0100
0010
0100
1000
0010
0001
0010
,
1000
0010
0100
0001
1000
0100
0001
0100
,
1000
0010
0100
0001
0010
1000
0010
0001
,
0100
0010
1000
0100
0010
0100
1000
0001
,
0100
1000
0100
0010
0100
0001
0100
1000
,
0100
0010
1000
0100
0001
0100
1000
0010
,
0001
0010
1000
0100
0010
0100
1000
0010
,
0000
0000
0000
0110
0000
0000
0000
0000
0000
0000
0000
1001
0000
0000
0000
0000
,
1000
0000
0000
0000
0000
0000
0100
0000
0000
0000
0000
0000
0010
0000
0000
0000
0000
0000
0001
0000
0000
0000
0000
0000
0010
0000
0000
0100
0000
0000
1000
0000
,
0000
0001
0000
0000
0010
0000
0100
0000
1000
0000
0000
0001
0000
0000
0000
0100
0000
0010
0000
0000
1000
0000
0010
0000
0100
0000
0000
0000
0000
0000
0000
0000
,
0001
0010
0100
1000
0001
0100
0010
1000
,
0100
0000
0010
0000
0001
0000
0010
0000
0100
1000
0100
1000
0200
0000
0000
0000
,
1300
0100
0010
0100
1000
0010
0100
0001
,
0010
0000
0100
0000
0010
0000
0001
0000
0100
0001
0100
0001
0200
0000
0000
0000
,
0310
1000
0100
1000
0010
0100
0001
0010
,
1000
0000
0010
0000
0001
0000
0100
0000
0010
1000
0010
1000
0020
0000
0000
0000
,
1030
0010
0100
0001
0010
0100
1000
0010
,
0000
0000
0000
1100
0000
0000
0000
0010
0000
0001
0000
1001
0000
0000
0000
0000
,
0101
0000
0000
1010
,
0101
0000
0000
1010
,
0101
0000
0000
0000
0000
0000
1001
0000
0000
0000
0000
0000
1100
0000
0000
0000
0000
0000
0110
0000
0000
0000
0000
0000
0100
0000
0000
0010
0000
0000
0001
0000
,
0000
1000
0000
0000
0010
0000
0100
0000
0001
0000
0000
0100
0000
0000
0000
0010
0000
1000
0000
0000
0001
0000
0100
0000
0010
0000
0000
0000
0000
0000
0000
0000
,
1000
0000
0001
0000
0010
0000
0100
0000
1000
0100
1000
0100
1000
0000
0001
0000
,
0100
0000
0010
0000
1000
0000
0010
0000
0100
0001
0100
0001
0200
0000
0000
0000
,
0301
0000
0100
0000
0001
0000
0010
0000
0001
0100
0001
0100
0001
0000
0100
0000
,
0001
0000
0010
0000
0100
0000
1000
0000
0001
0010
0001
0010
0002
0000
0000
0000
,
1003
0000
0010
0000
0100
0000
0001
0000
0010
0100
1000
0100
0010
0000
0001
0000
,
0100
0000
1000
0000
0100
0000
0010
0000
1000
0100
0010
0001
0020
0000
0000
0000
,
0130
0000
1000
0000
0001
0000
0100
0000
0010
1000
0001
0100
0010
0000
1000
0000
,
0000
0000
0000
0101
0000
0000
0000
1000
0000
0010
0000
0110
0000
0000
0000
0000
,
1000
0000
0001
0010
0001
0000
1000
0000
0001
0100
0001
0000
1000
0000
0100
0010
,
0000
0001
0000
0000
0010
0000
0000
0100
0000
0000
0010
0000
0000
0001
0000
0000
1000
0000
0000
0100
0000
0000
0010
0000
0000
0001
0000
0000
1000
0000
0100
0000
,
1000
0000
0001
0100
0001
0000
0010
0000
0100
1000
0100
0000
0010
0000
0001
0010
,
0000
0001
0000
0000
0100
0000
0000
0010
0000
0000
1000
0000
0000
0001
0000
0000
0010
0000
0000
0001
0000
0000
1000
0000
0000
0010
0000
0000
1000
0000
0001
0000
,
1000
0000
0001
0100
0001
0000
1000
0000
0010
1000
0010
0000
0100
0000
0001
1000
,
0000
0010
0000
0000
1000
0000
0000
0100
0000
0000
0010
0000
0000
0001
0000
0000
0010
0000
0000
0100
0000
0000
1000
0000
0000
0001
0000
0000
0010
0000
0001
0000
,
1000
0000
0010
0100
0010
0000
1000
0000
0001
0010
0001
0000
0100
0000
0010
1000
,
0000
0001
0000
0000
1000
0000
0000
0100
0000
0000
0010
0000
0000
0001
0000
0000
1000
0000
0000
0001
0000
0000
0100
0000
0000
0010
0000
0000
1000
0000
0001
0000
,
0010
0000
0000
0000
0000
0000
1010
0000
0000
0000
0000
0000
0110
0000
0000
0000
0000
0000
0101
0000
0000
0000
0000
0000
0001
0000
0000
0010
0000
0000
0100
0000
,
0000
1000
0000
0000
0100
0000
0010
0000
0001
0000
0000
0010
0000
0000
0000
0100
0000
1000
0000
0000
0001
0000
0100
0000
0001
0000
0000
0000
0000
0000
0000
0000
,
0101
0000
0000
0000
0000
0000
1001
0000
0000
0000
0000
0000
0011
0000
0000
0000
0000
0000
1001
0000
0000
0000
0000
0000
0001
0000
0000
1000
0000
0000
0100
0000
,
0000
0010
0000
0000
0001
0000
1000
0000
0100
0000
0000
1000
0000
0000
0000
0001
0000
0100
0000
0000
0001
0000
1000
0000
0010
0000
0000
0000
0000
0000
0000
0000
,
0110
0000
0000
0000
0000
0000
0101
0000
0000
0000
0000
0000
0110
0000
0000
0000
0000
0000
1010
0000
0000
0000
0000
0000
0010
0000
0000
1000
0000
0000
0001
0000
,
0000
1000
0000
0000
0100
0000
0010
0000
0001
0000
0000
0100
0000
0000
0000
0010
0000
1000
0000
0000
0010
0000
0100
0000
0001
0000
0000
0000
0000
0000
0000
0000
,
0101
0000
0000
0000
0000
0000
1001
0000
0000
0000
0000
0000
1100
0000
0000
0000
0000
0000
0110
0000
0000
0000
0000
0000
0010
0000
0000
0001
0000
0000
0010
0000
,
0000
0100
0000
0000
1000
0000
0010
0000
1000
0000
0000
0001
0000
0000
0000
0100
0000
0001
0000
0000
1000
0000
0100
0000
0010
0000
0000
0000
0000
0000
0000
0000
,
0010
0000
0000
0000
0000
0000
0010
0000
0000
0000
0000
0000
0010
0000
0000
0000
0000
0000
0010
0000
0000
0000
0000
0000
0001
0000
0000
1000
0000
0000
0001
0000
,
0000
1000
0000
0000
0001
0000
1000
0000
0001
0000
0000
1000
0000
0000
0000
0001
0000
1000
0000
0000
0001
0000
1000
0000
0100
0000
0000
0000
0000
0000
0000
0000
,
1000
0010
0100
0002
0000
1010
0000
0103
,
0001
0000
0010
0000
0100
0000
1000
0000
0001
0100
0001
0100
0001
0000
1000
0000
,
0100
0010
0100
2000
0000
0011
0000
3100
,
1000
0000
0010
0000
0100
0000
0001
0000
1000
0100
1000
0100
1000
0000
0001
0000
,
0010
0100
1000
0002
0000
1100
0000
0013
,
0001
0000
0100
0000
0010
0000
1000
0000
0001
0010
0001
0010
0001
0000
0100
0000
,
0010
1000
0100
2000
0000
0101
0000
3010
,
0000
0000
0000
0110
0000
0000
0000
0000
0000
0000
0000
1001
0000
0000
0000
0000
,
1100
0000
0000
0011
,
0101
0000
0000
1010
,
1100
0000
0000
0000
0000
0000
1001
0000
0000
0000
0000
0000
0101
0000
0000
0000
0000
0000
1001
0000
0000
0000
0000
0000
0100
0000
0000
1000
0000
0000
0001
0000
,
0000
0010
0000
0000
0100
0000
1000
0000
0100
0000
0000
0010
0000
0000
0000
0001
0000
1000
0000
0000
0010
0000
0100
0000
0001
0000
0000
0000
0000
0000
0000
0000
,
0100
0000
0001
0000
0010
0000
0001
0000
2000
0000
0000
0101
0000
0000
0000
0000
,
3010
0000
0100
0000
0001
0000
0100
0000
0010
1000
0010
1000
0010
0000
0100
0000
,
0001
0000
1000
0000
0100
0000
0020
0000
0000
0101
0000
0000
0000
0130
0000
0000
,
1000
0000
0010
0000
0100
0000
0001
0000
0010
0001
0010
0001
0010
0000
0100
0000
,
1000
0000
0001
0000
0100
0000
1000
0000
0100
0000
0002
0000
0000
1100
0000
0000
,
0000
0103
0000
0000
0010
0000
1000
0000
0001
0010
0001
0010
0001
0000
0100
0000
,
0010
0000
0000
0000
0001
0000
0000
0000
0010
0000
0000
0000
1000
0000
0000
0000
0002
0000
0000
0000
0000
1100
0000
0000
0000
0000
0000
0000
0000
1003
0000
0000
,
0000
0000
0000
0011
0000
0000
0000
0001
0000
0100
0000
0110
0000
0000
0000
0000
,
0001
0000
1000
0010
0100
0000
0001
0000
1000
0010
0100
0000
0001
0000
1000
0010
,
0000
0100
0000
0000
0001
0000
0000
0010
0000
0000
0100
0000
0000
1000
0000
0000
0100
0000
0000
0010
0000
0000
0001
0000
0000
0100
0000
0000
0010
0000
1000
0000
,
0001
0000
0010
0100
1000
0000
0001
0000
0010
0100
1000
0000
0001
0000
0010
0100
,
0000
1000
0000
0000
0100
0000
0000
0010
0000
0000
0100
0000
0000
0001
0000
0000
0100
0000
0000
0010
0000
0000
0001
0000
0000
0100
0000
0000
0010
0000
0100
0000
,
0001
0000
0010
0100
1000
0000
0001
0000
0100
0010
1000
0000
0001
0000
0010
0100
,
0000
0010
0000
0000
0001
0000
0000
0100
0000
0000
1000
0000
0000
0100
0000
0000
0001
0000
0000
0010
0000
0000
0100
0000
0000
1000
0000
0000
0010
0000
0100
0000
,
0001
0000
0100
0010
1000
0000
0001
0000
0010
0100
1000
0000
0001
0000
0100
0010
,
0000
1000
0000
0000
0010
0000
0000
0001
0000
0000
0010
0000
0000
1000
0000
0000
0100
0000
0000
0010
0000
0000
0001
0000
0000
1000
0000
0000
0010
0000
0100
0000
,
0001
0000
0000
0101
0000
0000
1001
0000
0000
1100
0000
0000
0110
0000
0000
0011
,
0000
0000
1001
0000
0000
1010
0000
0000
1001
0000
0000
0000
0110
0000
0000
0000
,
1001
0000
1100
0000
1001
0000
0101
0000
1001
0000
1010
0000
,
0110
0000
0101
0000
1010
0000
1001
0000
0000
0110
0000
0000
,
1001
0000
0000
0000
0000
0000
0000
0000
0001
1000
0000
0000
0000
0000
0000
0000
0001
0000
1000
0000
0000
0000
0000
0000
0001
0000
0000
1000
0000
0000
0000
0000
0001
0000
0000
0000
1000
0000
0000
0000
0001
0000
0000
0000
0000
1000
0000
0000
,
0001
0000
0000
0000
0000
0000
1000
0000
0001
0000
0000
0000
0000
0000
0000
1000
0001
0000
0000
0000
0000
0000
0000
0000
1001
0000
0000
0000
0000
0000
0000
0000
0000
0000
0000
0000
0110
0000
0000
0000
0000
0000
0000
0000
0000
0000
0000
0000
,
1001
0000
0000
0000
0000
0000
0000
0000
1000
0001
0000
0000
0000
0000
0000
0000
1000
0000
0001
0000
0000
0000
0000
0000
1000
0000
0000
0001
0000
0000
0000
0000
1000
0000
0000
0000
0001
0000
0000
0000
1000
0000
0000
0000
0000
0001
0000
0000
,
1000
0000
0000
0000
0000
0000
0001
0000
1000
0000
0000
0000
0000
0000
0000
0001
1000
0000
0000
0000
0000
0000
0000
0000
1001
0000
0000
0000
0000
0000
0000
0000
0000
0000
0000
0000
0110
0000
0000
0000
0000
0000
0000
0000
0000
0000
0000
0000
,
0110
0000
0000
1001
,
0110
0000
0000
1001
,
0110
0000
0000
1001
,
0110
0000
0000
0000
0000
0000
0000
0000
0000
0000
0000
0000
0000
0000
0000
0000
0000
0000
0000
0000
0000
0000
0000
0000
0000
0000
0000
0000
0000
1001
0000
0000
;
