#TITLE:PUSSY PUMP;
#SUBTITLE:;
#ARTIST:Otto Von Schirach;
#TITLETRANSLIT:;
#SUBTITLETRANSLIT:;
#ARTISTTRANSLIT:;
#GENRE:;
#CREDIT:;
#BANNER:../banner.png;
#BACKGROUND:../bg.png;
#LYRICSPATH:;
#CDTITLE:;
#MUSIC:PUSSY PUMP.ogg;
#OFFSET:-0.530;
#SAMPLESTART:54.162;
#SAMPLELENGTH:12.000;
#SELECTABLE:YES;
#BPMS:0.000=113.000,40.000=226.000,48.000=113.000,52.000=226.000,60.000=113.000,64.000=226.000,72.000=113.000,78.500=226.000,79.000=226.000;
#STOPS:78.500=0.664
,111.500=0.265
;
#BGCHANGES:;
#KEYSOUNDS:;

//---------------dance-single - Nix----------------
#NOTES:
     dance-single:
     Nix:
     Challenge:
     11:
     0.845,0.850,0.642,0.079,0.431:
0000
0000
0000
0000
,
1000
0101
1000
0110
,
1000
0011
1000
0110
,
1000
0100
0010
0001
0100
0010
1000
0001
,
0010
0000
0000
0000
0000
0000
0000
0000
0000
0000
0000
0000
0000
0000
0000
0000
0000
0000
0000
0000
0000
0000
0000
0000
0100
0000
0000
0000
0000
0000
0000
0000
0000
0000
0000
0000
0000
0000
0000
0000
0000
0000
0000
0000
0000
0000
0000
0000
1000
0000
0000
0000
0000
0000
0000
0000
0000
0000
0000
0000
0000
0000
0000
0000
0010
0000
0000
0000
0000
0000
0000
0000
0000
0000
0000
0000
0000
0000
0000
0000
0000
0000
0000
0000
0000
0000
0000
0000
0000
0000
0100
0000
0000
0000
0000
0000
0000
0000
0000
0000
0000
0000
0000
0000
0000
0000
0000
0000
0000
0000
0000
0000
0000
0000
0001
0000
0000
0000
0000
0000
0000
0000
0000
0000
0000
0000
0000
0000
0000
0000
0000
0000
0000
0000
0000
0000
0000
0000
0000
0000
0000
1000
0000
0000
0000
0000
0000
0000
0000
0000
0000
0000
0000
0000
0000
0000
0000
0000
0000
0000
0000
0000
0000
0000
0000
0000
0000
0000
0000
0000
0000
0000
0000
0000
0000
0000
0000
0000
0000
0000
0000
0000
0000
0000
0000
0000
0000
0000
0000
0000
0000
0000
,
0001
1100
0001
0110
,
0001
1010
0001
0110
,
0001
0100
0010
1000
0100
0001
0100
1000
,
0001
0100
1000
0100
0010
1000
0100
0000
,
0010
0001
0010
0000
0110
0000
0100
0000
1000
0000
0010
0000
0110
0000
0000
0000
,
10M0
0000
0001
0000
0100
0000
0001
0000
0010
0000
0000
0100
1000
0000
0000
0001
,
0010
0000
0100
0000
1000
0000
0001
0000
0100
0000
0010
0000
1000
0001
1000
0000
,
00M1
0100
0001
0000
0011
0000
0010
0000
0100
0000
1000
0000
1010
0000
0000
0000
,
01M0
0000
0001
0000
0010
0000
0010
0000
0010
0000
0100
1000
0100
0000
0010
0000
,
0001
0010
0100
1000
0010
0100
0001
0100
,
001M
1000
0010
0000
0110
0000
0100
0000
0001
0000
1000
0000
1100
0000
0000
0000
,
00M1
0000
0000
0000
0000
1000
0000
0000
0000
0100
0000
0000
0000
1000
0000
0000
0000
0100
0000
0000
0000
0000
0100
0000
0010
0000
0000
0000
0001
0000
0000
0000
,
0100
0000
0010
0000
0100
0000
0010
0000
0000
1000
0000
1000
0001
0000
0100
0000
,
M002
0010
0013
0000
2000
0010
3010
0000
,
2200
3300
0000
0100
0020
M030
0001
0100
,
0010
1000
0010
1000
0001
0000
1100
0000
,
0100
0010
0001
0010
0100
1000
0001
0100
,
0010
0100
0001
0000
1000
0100
0010
0001
,
0100
0000
0010
0000
1000
0000
0010
0000
0100
0000
0001
0000
1000
0000
0000
0001
,
0000
0001
0000
0001
1000
0010
0000
0100
0000
0010
0000
0100
002M
0000
0000
0000
,
1030
002M
0000
1030
0100
0000
0011
0000
,
0001
0000
0000
0000
0000
1000
0000
0000
0100
0000
0000
0000
0000
0000
0000
0000
0010
0000
0000
0000
0000
0000
0000
0000
1100
0000
0000
0000
0000
1000
0000
0000
,
0000
0000
0000
0010
0000
0000
0000
0000
0000
0100
0000
0000
0000
0000
0000
0000
0004
0000
0000
0000
0003
0000
0000
0000
10M1
0000
0000
0000
0000
0000
0000
0000
,
1000
1100
0001
0101
,
1000
1010
0110
1001
,
0001
0011
1000
1100
,
0001
0000
0000
0000
0101
0000
0000
0000
1000
0001
1000
0000
0001
0000
0000
0000
,
1000
0110
0001
0110
,
1000
0010
1000
0000
0001
0000
0000
0000
0011
0000
0000
0000
1001
0000
0000
0000
,
1000
0000
0000
0000
0000
0000
0000
0000
0100
0000
0000
0000
0000
0010
0000
0000
0100
0000
0000
0000
0000
0000
0000
0000
1000
0000
0000
0000
0000
0000
0000
0000
,
0001
0000
1000
0000
0001
0000
0000
0000
0100
0000
0000
0000
0000
0000
0000
0000
0010
0000
1000
0000
0010
0000
0100
0000
0000
0001
0000
0000
0000
0000
0000
0000
,
1010
0000
0000
0000
0010
0000
1000
0010
1000
0000
0100
0000
0010
0000
0001
0000
,
0100
0000
0010
0000
1000
0000
0001
0000
1000
0100
1000
0000
0001
0010
0001
0000
,
1000
0000
0001
0000
0100
0000
0010
1000
0001
0100
0010
0000
1000
0100
1000
0100
,
1000
0000
0001
0000
0010
0000
0100
0000
0010
0000
0001
0000
1000
0100
1000
0000
,
0001
0000
0100
0000
0001
0000
0100
0000
0010
0000
0000
0010
1000
0000
0000
1000
,
0001
1000
0100
0010
0001
0010
0100
1000
,
0010
0000
1000
0000
0001
0000
0000
0001
0010
0000
0000
0010
0100
0000
0000
0100
,
1000
0000
0000
0000
0010
0000
0000
0000
0100
0000
0000
0000
0001
0000
0000
0000
0010
0000
0000
0000
0000
0100
0000
0000
1000
0000
0000
0000
0001
0000
0000
0000
,
0100
0110
1000
1001
,
0001
0010
0100
0000
1000
0000
1010
0000
,
0100
0011
1000
0101
,
0100
0000
0001
0000
0010
0000
0000
0000
0100
1000
0100
0000
0010
0000
0000
0000
,
0001
0000
0101
0000
1000
0000
0100
0010
,
0001
0010
0001
0000
1000
0000
0000
0000
1010
0000
0000
0000
1001
0000
0000
0000
,
0012
0000
0000
0000
0003
0000
0000
0000
0100
0000
0000
0000
0000
0010
0000
0000
1000
0000
0000
0000
0000
0000
0000
0000
0101
0000
0000
0000
0000
0000
0000
0000
,
1000
0010
1000
0000
0001
0000
0000
0000
1000
0100
1000
0000
0001
0000
0000
0000
,
0011
0101
1100
1010
,
0100
0000
0001
0000
1000
0000
0010
0000
0100
0001
0100
0000
0010
1000
0010
1000
,
0010
0000
1000
0000
0100
0000
0000
0100
0010
0000
0000
0010
0001
0000
0000
0001
,
0100
0000
0001
0000
0010
0000
0100
0000
1000
0001
1000
0001
1000
0000
0100
0000
,
0010
0001
0100
0001
0010
1000
0010
0001
,
1000
0100
0001
0100
1000
0010
0001
0010
,
1000
0000
0001
0000
0010
0000
0000
0010
0001
0000
0000
0001
1000
0010
1000
0000
,
0001
0100
0001
0100
0001
0100
0001
0000
,
1100
1100
1010
1010
,
1000
0000
0001
1000
0001
0000
0100
0000
0010
0000
0000
0000
0010
0000
0000
0000
,
1000
0000
0000
0000
0000
0000
0000
0000
0100
0000
0000
0000
1000
0000
0000
0000
0000
0000
0000
0000
0100
0000
0000
0000
1000
0000
0000
0000
0000
0000
0000
0000
0000
0001
0000
0000
0000
0000
0000
0000
0000
0000
0100
0000
0000
0001
0000
0000
,
0100
0000
0010
0000
1000
0000
0001
0000
0000
0000
0000
0000
,
0101
0101
0011
0011
,
1000
0004
0013
0101
,
1000
0000
0010
0000
1000
0000
0000
0000
0001
0000
0100
0000
0001
0000
1000
0100
,
1000
0000
0000
0000
0001
0010
0001
0010
0001
0000
0000
0000
0000
0000
0000
0000
,
1000
0000
0100
1000
0001
0001
0100
0000
,
0010
0000
0010
0000
0100
0100
0001
0000
,
1000
0000
1000
0000
0010
0000
0000
0000
0100
0001
0100
0000
0010
1000
0010
0000
,
0100
0001
1020
0030
,
0100
0010
0100
0000
0001
0000
0100
0000
0040
0000
0000
0000
0000
0000
0000
0000
,
1030
1100
0110
0000
,
0011
0000
0000
0000
0000
0000
1010
0000
0000
0000
0000
0000
0000
0100
0000
0000
0000
0000
0100
0000
0000
0000
0000
0000
,
0000
1001
0000
0000
0000
0000
0000
0000
0000
0000
0000
0000
0000
0000
0000
0000
0000
0000
0000
0000
0000
0000
0000
0000
0000
0000
0000
0000
0000
0000
0000
0000
,
1000
0000
0001
0010
0001
0000
1000
0100
,
1000
0000
0000
0000
0000
0010
0000
0000
0100
0000
0000
0000
0000
0000
0000
0000
0010
0000
0000
0000
1000
0000
0000
0000
0100
0000
0000
0000
0000
0000
0000
0000
,
0010
0000
0001
0100
0010
0000
0100
0001
,
0010
0100
1000
0000
0110
0000
1001
0000
,
1000
0101
0001
1010
,
1000
0011
0001
1100
,
1001
0000
1000
0010
0001
0010
1000
0000
,
1001
0000
0001
1000
0100
0000
0000
0000
,
1001
0000
0000
0000
0001
0000
1000
0000
0001
0100
0001
0000
1000
0000
0100
0000
,
0010
0001
0010
0000
0100
0000
0000
0000
1000
0010
1000
0010
0100
0001
0100
0001
,
1000
0100
0010
0001
0100
1000
0100
0000
,
0001
0010
0001
0000
1000
0000
0100
1000
0100
1000
0100
0000
0010
0000
0000
0000
,
0001
0000
0010
0000
1000
0000
0010
0000
0001
0010
0001
0000
0100
0000
0000
0000
,
0010
0100
0010
0000
1000
0000
0001
0100
0001
0000
0000
0000
0000
0000
0000
0000
,
1001
0000
0000
0000
0000
0000
0000
0000
1000
0000
0000
0000
0000
0001
0000
0000
0100
0000
0000
0000
0000
0000
0000
0000
0010
0000
0000
0000
0000
0000
0000
0000
,
0110
0000
0000
0000
0000
0100
0000
0000
0000
0000
0000
0001
0000
0000
0000
0000
0000
0010
0000
0000
0000
0000
0000
0000
0000
0000
0000
0000
0000
0000
0000
0000
,
1001
0000
0000
0000
;
