#TITLE:NBT;
#SUBTITLE:;
#ARTIST:AAA;
#TITLETRANSLIT:;
#SUBTITLETRANSLIT:;
#ARTISTTRANSLIT:;
#GENRE:;
#CREDIT:;
#BANNER:../banner.png;
#BACKGROUND:../bg.png;
#LYRICSPATH:;
#CDTITLE:;
#MUSIC:NBT.ogg;
#OFFSET:0.006;
#SAMPLESTART:71.842;
#SAMPLELENGTH:10.000;
#SELECTABLE:YES;
#DISPLAYBPM:125.000:190.000;
#BPMS:0.000=190.000,80.000=95.000,96.000=190.000,102.500=6080.000,110.500=380.000,111.000=190.000,196.000=380.000,197.000=190.000,252.000=4000.000,252.250=2000.000,254.000=1000.000,255.063=31.250,257.000=62.500;
#STOPS:;
#BGCHANGES:;
#KEYSOUNDS:;

//---------------dance-single - Nix----------------
#NOTES:
     dance-single:
     Nix:
     Challenge:
     11:
     0.647,0.814,0.100,0.239,0.838:
0000
0000
0000
0000
,
0000
0000
0000
0000
,
0000
0000
0000
0000
,
0000
0000
0000
0000
,
1000
0000
0001
0000
0000
0100
0000
0010
,
0100
0000
0001
0000
0010
0100
0000
0000
,
1000
0000
0010
0000
0010
1000
0000
0100
,
0010
0000
0001
0100
0010
1000
0000
0000
,
0001
0000
0100
0010
0000
0010
0000
0100
,
0001
0010
0100
1000
0010
0100
0000
0000
,
0001
0000
1000
0010
1000
0001
0000
0100
,
0001
0000
0000
1000
0100
0000
1000
0010
1000
0000
0001
0000
0000
0000
0000
0000
,
0010
0000
0000
0000
0100
0000
0000
1000
0001
0000
1000
0000
0000
0000
0010
0000
,
0000
0010
1000
0000
0010
0000
0100
0000
0001
1000
0001
0000
0000
0000
0010
0000
,
0100
0000
0000
0000
1000
0010
1000
0000
0001
0000
0100
0000
0001
0000
0010
0000
,
0100
0000
1000
0000
0001
0000
1000
0010
1000
0000
0100
0000
0000
0000
0000
0000
,
1000
0000
0000
0000
0001
0000
000M
0000
0001
0000
1000
0000
1000
0000
0001
0100
,
0001
0000
1000
0000
0100
0000
0000
0010
0001
0000
1000
0000
0000
0000
0010
1000
,
0001
0000
0000
0001
0200
0000
0000
0000
0300
0000
0200
0000
0000
0000
0000
0000
,
0320
0000
2030
0000
,
3002
0000
0000
0000
0200
0003
2000
0300
0000
0000
0000
0000
0200
3000
0000
0000
,
0000
0000
0002
0300
0000
0000
0000
0000
0003
0000
0000
0000
MMMM
0000
1000
0000
,
2100
0000
0M00
0000
0200
3000
0002
0300
0000
0000
0000
0003
0200
0010
0000
0000
,
1000
0000
2000
0300
0000
0000
0000
0000
3001
0000
0000
0000
MMMM
0000
0000
0000
,
0001
0000
0000
0000
0100
0000
0010
0000
0000
0000
1000
0000
0001
0010
0001
0010
,
0001
0000
1000
0000
0100
0000
1000
0010
0100
0010
2000
0000
0000
0000
0000
0000
,
0000
0000
0000
0000
0000
0M0M
0M0M
0M0M
,
0M0M
0M0M
0M0M
0M0M
0M0M
0M0M
0M0M
0M0M
,
3M0M
0M0M
0M0M
0M0M
0M0M
0M0M
0M0M
0M0M
,
0MMM
0000
M000
0000
,
0MM0
0000
0000
0000
0000
M00M
0000
0000
,
0000
0M00
0000
0000
00M0
M000
0000
0M0M
,
0000
00M0
0000
0MM0
,
M00M
0MM0
0000
0000
,
2001
0000
0000
0000
3010
0000
0100
0001
0100
0010
0000
1000
0000
0001
0000
0010
,
0100
1000
0100
0000
0010
0000
0001
0000
1000
0100
0010
0000
0001
0010
0100
0010
,
0000
0000
0001
0000
1000
0000
0010
0000
0100
0000
0010
0000
1000
0000
0000
0000
0001
0000
0100
0000
0001
0000
0100
0000
0010
0000
0000
0100
0000
0001
0000
0000
,
1000
0000
0100
1000
0100
0010
0000
0001
0010
0001
0000
1000
0000
0010
0100
0000
,
0001
0000
0010
0000
0001
0000
0000
0000
1000
0000
0010
0000
0100
0000
0010
0000
2000
0000
0000
0000
3000
0000
0000
0000
0010
1000
0000
0000
0000
0000
0000
0001
,
1000
0000
0000
0000
0000
0000
0000
0100
0000
1000
0000
0000
0000
0000
0000
0000
0000
0001
0100
0000
0000
0000
0010
0000
0000
0000
1000
0000
0001
0000
0000
0000
,
0010
0000
0100
0000
0010
0000
0001
0000
0100
0010
0000
1000
0100
0010
0100
1000
,
0001
0100
0000
0001
1000
0100
0010
0000
0001
0010
0001
0000
1000
0000
0010
0100
,
0001
0000
0100
0000
0010
0000
0000
0000
1000
0000
0001
0000
0100
0000
0000
0010
0000
0000
1000
0000
0000
0010
0000
0000
0000
0000
0000
0100
0001
0000
0100
0000
,
0000
0010
1000
0000
0001
0010
0100
1000
0002
0000
0000
0000
MMM0
0000
0000
0000
,
1003
0000
0010
0000
0100
0000
0010
0000
1000
0001
0000
0010
0000
0100
0000
1000
,
0001
0100
0001
0000
0010
0000
0100
0000
0010
0000
0001
2000
0000
0000
0000
3010
,
0000
0100
0001
0100
0010
0100
0000
0000
0000
0010
0100
0000
0001
0000
1000
0100
,
1000
0100
0000
0010
0001
0010
0000
0100
1000
0100
0010
0000
0001
1000
0010
0000
,
0000
0000
0000
0100
0000
0000
0000
0000
,
1001
0000
0000
0000
0000
0000
0000
0000
0000
0000
0000
0000
0000
0110
0000
0000
,
0000
0000
0000
0000
0000
0000
0000
0001
1000
0000
0000
0000
0000
0000
0000
0000
,
0000
0000
0000
0110
0000
0000
0000
0001
0000
0100
0001
1000
0000
0100
1000
0001
,
0000
0000
0000
0000
0000
0000
0000
0000
0001
0010
0001
0000
0000
0000
0000
0000
,
0000
0000
0000
1000
0010
0000
0000
0000
0100
0000
0001
0000
0000
0001
0000
0000
,
0001
0000
0010
0000
1000
0000
0010
0000
0001
0000
0000
0000
1000
0100
1000
0100
,
1000
0000
0001
0100
0000
0001
0100
0000
0010
0000
1000
0010
0000
1000
0010
0000
,
0100
0000
0001
0010
0001
0000
1000
0000
0010
0100
0001
0000
0010
0000
0100
0010
,
0100
0000
0010
0001
0000
0010
0100
0000
1000
0000
0010
0100
0000
0010
1000
0000
,
0100
0010
0001
0100
0010
0000
0010
0000
0100
0010
1000
0002
0000
0000
0013
0000
,
0001
0000
1000
0010
0000
1000
0100
0000
0010
0000
0001
1000
0000
0001
1000
0010
,
1000
0000
1000
0000
0001
0000
0001
0000
0020
0000
0000
0030
0100
0000
1000
0100
,
0010
0001
1000
0000
0010
0100
0001
1000
0010
0100
0010
0000
1000
0001
1000
0000
,
0110
0000
0000
0000
0001
0000
0110
0000
0000
0000
1000
0000
0001
1000
0001
0000
,
0220
0000
0000
0000
0000
0000
0000
0000
M00M
M00M
M00M
M00M
M00M
M00M
M00M
M00M
,
M33M
0000
M00M
0000
MMMM
0000
M00M
0000
0M00
0000
0000
0000
0000
0000
M000
0000
0010
0000
0000
0100
0000
0000
000M
0000
1000
0000
10M0
0000
0000
0001
0000
0000
,
M100
0000
0000
0000
001M
0000
1000
0000
0100
0000
0010
0000
0001
0000
M000
0000
0100
0010
010M
0000
0000
0010
0000
0000
1000
0001
0010
0000
0000
0100
0000
0000
,
10M0
0000
0000
0000
0000
0000
0000
0000
0000
0000
0000
0000
1000
0000
0000
0000
0000
0000
0000
0000
0000
0000
0000
0000
0001
0000
0000
0000
0000
0000
0010
0000
0000
0000
0000
0000
0001
0000
0000
0000
0000
0000
0100
0000
0000
0000
0000
0000
M000
0000
0000
0000
0000
0000
0010
0000
0000
0000
0000
0000
0000
0000
0000
0000
0000
0000
0100
0000
0000
0000
0000
0000
001M
0000
0000
0000
0000
0000
0100
0000
0000
0000
0000
0000
0010
0000
0000
0000
0000
0000
1000
0000
0000
0000
0000
0000
0000
0000
0000
0000
0000
0000
0000
0000
0000
0000
0000
0000
1001
0000
0000
0000
0000
0000
0000
0000
0000
0000
0000
0000
0000
0000
0000
00M0
0000
0000
0000
0000
0000
0000
0000
0000
0000
0000
0000
0000
0000
0000
0000
0000
0000
0000
0000
0000
1001
0000
0000
0000
0000
0000
0000
0000
0000
0000
0000
0000
0000
0000
0000
0000
0000
0000
0000
0000
0000
0000
0000
0000
0100
0000
0000
0000
0010
0000
0000
0000
0100
0000
0000
0000
001M
0000
0000
0000
0100
0000
0000
0000
0010
0000
0000
0000
,
2000
0000
0M0M
00M0
0M0M
00M0
0M0M
00M0
0M0M
00M0
0M0M
00M0
0M0M
00M0
0M00
0000
,
3000
0000
0000
0000
;
