#TITLE:My Aggressive Skill;
#SUBTITLE:;
#ARTIST:Komprex;
#TITLETRANSLIT:;
#SUBTITLETRANSLIT:;
#ARTISTTRANSLIT:;
#GENRE:;
#CREDIT:;
#BANNER:../banner.png;
#BACKGROUND:../bg.png;
#LYRICSPATH:;
#CDTITLE:;
#MUSIC:My Aggressive Skill.ogg;
#OFFSET:-1.605;
#SAMPLESTART:39.997;
#SAMPLELENGTH:12.000;
#SELECTABLE:YES;
#BPMS:0.000=150.000;
#STOPS:;
#BGCHANGES:;
#KEYSOUNDS:;

//---------------dance-single - Nix (SOP)----------------
#NOTES:
     dance-single:
     Nix (SOP):
     Hard:
     11:
     0.878,0.986,0.300,0.128,1.000:
0000
0000
0000
0000
,
0000
0000
0000
0000
,
0000
0000
0000
0000
,
0000
0000
0000
0000
,
1001
0000
0000
0000
0000
0000
0001
1000
,
0100
0000
0010
0000
0001
0000
1000
0000
0000
0000
0010
0100
0001
0100
0000
0000
,
0110
1010
1000
0001
0000
0100
0010
1000
,
0001
0000
0010
0000
0110
0000
1100
0000
0001
0000
0000
1000
0000
0000
1000
0000
,
1001
0000
0000
0000
0001
0000
1000
0100
1000
0100
0020
0000
0031
0000
0000
0000
,
1010
0000
0001
0100
0000
0001
0000
0001
,
1000
0000
1000
0000
0001
0100
0001
0100
0001
0000
0001
0000
0010
0000
0200
0000
,
1300
0000
0010
0000
0100
0000
0001
0000
0010
0001
0000
0000
1000
0000
0020
0000
,
0130
0000
0000
0000
0010
0000
0000
0010
0100
0001
0100
0000
0010
0000
0000
0000
,
0110
0000
0010
0000
0100
0000
0001
0100
0010
1000
0001
0010
0001
0000
1000
0000
,
1100
0000
0000
0000
0001
0000
1000
0010
0100
0000
0101
0000
0001
1000
0002
0003
,
1001
0000
0101
0000
0100
0010
1000
0001
0010
0000
0000
0110
0000
0000
0001
0000
,
1001
0000
0000
0000
,
0100
0100
0000
0000
0000
0000
0000
0000
,
1001
1001
0000
0000
0000
0000
0000
0000
,
0000
0000
0000
0000
0000
0000
0000
1000
,
0001
0000
1000
0000
0020
0000
1030
0001
1000
0000
0001
0000
1000
0001
1000
0001
,
0010
0000
0100
1000
0000
0001
0000
0400
,
0310
0000
1010
0000
0000
0000
0001
0010
0001
0000
0011
0000
0010
0000
0100
0000
,
1000
0000
0001
1000
0001
0000
0100
0000
0010
0100
0010
0000
4000
0000
3004
0000
,
1003
0100
0010
0001
1000
0010
1000
0001
0100
0010
1000
0001
0020
0000
0230
0000
,
0310
0001
1000
0001
0100
0010
1000
0001
0010
0100
1000
0001
0200
0000
0320
0000
,
1030
0001
0100
0001
1000
0100
4000
0000
3010
0100
0001
1000
0010
0100
0020
0000
,
1030
0001
0010
0001
1000
0010
1000
0001
0100
0010
4000
0000
3001
1000
0400
0000
,
0310
0100
1000
0001
1000
0010
0100
0001
1000
0001
0010
0100
2000
0000
3002
0000
,
0103
0010
1000
0001
0010
0100
1000
0010
0100
0001
1000
0100
4000
0000
0000
0000
,
3001
0000
0100
0000
0001
0000
0100
0000
0010
0000
1000
0000
0004
0000
0000
0000
0013
0000
0100
0000
1000
0000
0010
0000
0400
0300
0000
0000
0400
0300
0000
0000
,
0101
0000
0000
1001
0000
0000
1100
0000
1001
0000
0000
0101
0000
0000
0001
0100
,
0010
1000
0010
1000
0001
0010
0100
1000
0001
0100
0010
0100
0001
1000
0400
0000
,
0310
0000
0001
0000
1000
0000
0001
0000
0100
0000
0010
0000
4000
0000
0000
0000
3100
0000
0010
0000
0004
0003
0100
0000
0001
0000
0040
0030
0400
0000
0000
0300
,
1000
0100
1000
0010
0100
0001
1000
0001
0010
0100
1000
0001
1000
0010
0100
0001
,
0010
0100
4000
3001
0100
0010
4000
0000
3001
0000
0001
0000
1000
0000
1000
0000
,
0001
0100
0010
0100
0001
1000
0100
0010
0100
1000
0010
0100
0010
1000
0004
0000
,
0013
0000
0100
0000
0010
0000
0001
0000
0100
0000
0010
0000
4000
0000
0000
0000
3010
0000
0100
0000
0004
0003
0010
0000
0004
0003
1000
0000
0400
0000
0000
0000
,
0310
0000
0001
0000
0010
0000
0001
0000
0100
M00M
0100
0000
1000
0000
0010
0000
1000
0000
0001
0000
0100
0000
0001
0000
1000
0000
0010
0000
0100
0000
0001
0000
,
1000
0000
0010
0000
0100
0001
0010
0000
0100
0000
0000
0010
0000
0000
0010
0000
,
1001
0000
1000
0000
0010
0101
0000
0010
,
1001
0000
0000
0000
0001
0000
0010
0000
0100
1000
0100
0000
0010
0000
0010
0000
,
1002
0000
0003
0000
0010
1100
0000
0010
,
0100
0000
0010
0001
1000
0000
0010
0000
0100
0001
0100
0001
1000
0000
0010
0000
,
2001
0000
3000
0000
0100
0011
0000
0100
,
1000
0000
0010
0000
0100
0001
0000
0001
0100
0010
1000
0000
0001
0010
0100
0000
,
1001
0000
0000
0000
0010
0000
0000
0000
0000
0000
0100
0000
0110
0000
1000
0001
,
1000
0000
1000
0000
0001
0000
0001
0000
0100
0010
0100
0000
0001
0000
1000
0000
,
1001
0000
0000
0000
,
0000
0000
0000
0000
,
0010
0000
0000
0000
,
0000
0000
0000
0000
0000
0000
0000
0001
,
1000
0001
1000
0001
1000
0001
1000
0001
1000
0001
1000
0001
1000
0001
1000
0001
,
1000
0001
1000
0001
1000
0001
1000
0001
1000
0001
1000
0001
1000
0001
1000
0001
,
4000
0004
0000
0000
0000
0000
0000
0000
0000
0000
0000
0000
0000
0000
0000
3000
,
1003
0001
1000
0001
1000
0001
1000
0001
1000
0000
1000
0000
0001
0000
0110
0000
,
1000
0001
1000
0010
0100
0001
0100
0010
1000
0001
0010
0100
1000
0100
0010
0001
,
1000
0001
0100
0010
0100
0001
1000
0010
0100
0000
0010
0000
1000
0000
0010
0100
,
0001
0010
0100
0010
0100
1000
0100
0010
0001
0100
0010
0100
0010
1000
0010
0100
,
0001
1000
0100
0010
0001
1000
0010
0100
0001
0000
1000
0000
1000
0000
0040
0000
,
0130
0001
0010
0001
1000
0010
1000
0100
0010
0001
0100
0010
1000
0001
0010
0100
,
1000
0010
0100
0001
0010
0100
1000
0100
0010
0000
0001
0000
0100
0010
0100
0000
,
0001
0010
0100
0010
0001
1000
0010
0100
0010
1000
0001
0100
0010
1000
0100
0010
,
0001
0000
0001
0000
1000
0001
1000
0001
1000
0000
1000
0000
0001
0000
0001
0000
,
1000
0010
0100
0001
0010
0100
1000
0010
0100
0010
1000
0100
0010
0001
0100
0010
,
1000
0010
0100
0001
0010
0100
1000
0100
4000
0000
0000
0000
3004
0000
0000
0000
,
0103
0010
1000
0001
0100
0001
0010
0100
0010
0001
0100
0010
4000
0000
0000
0000
,
3010
0100
0001
1000
0001
0010
0100
1000
0004
0000
0000
0000
4003
0000
3010
0100
,
0001
1000
0001
0010
0100
1000
0010
0100
0001
0010
0001
0100
0010
1000
0100
1000
,
0100
1000
0010
0100
0010
0100
0001
0010
0400
0000
4300
0000
3001
0010
0400
0000
,
1300
0010
1000
0100
0010
0001
0100
0010
1000
0001
0100
0001
4000
0000
3400
0000
,
1300
0001
0010
0100
2000
0000
3010
0100
0004
0000
0000
0000
0403
0000
0310
0000
,
1001
0000
0000
0000
;

//---------------dance-single - Nix & Peter----------------
#NOTES:
     dance-single:
     Nix & Peter:
     Challenge:
     11:
     0.874,0.986,0.411,0.017,1.000:
0000
0000
0000
0000
,
0000
0000
0000
0000
,
0000
0000
0000
0000
,
0000
0000
0000
0000
,
1001
0000
0000
0000
0000
0000
0001
1000
,
0100
0000
0010
0000
0001
0000
1000
0000
0000
0000
0001
0100
0010
0100
0000
0000
,
0110
1010
1000
0001
0000
0100
0010
1000
,
0001
0000
0010
0000
0110
0000
1100
0000
0001
0000
0000
1000
0000
0000
0010
0000
,
1001
0000
0000
0000
0001
0000
1000
0100
1000
0100
0010
0000
0001
0000
0000
0000
,
1010
0000
0001
0100
0000
0001
0000
0001
,
1000
0000
1000
0000
0001
0100
0001
0000
0100
0000
0001
0000
0010
0000
0100
0000
,
1000
0010
0100
1001
0000
0001
1000
0010
,
0100
0000
0000
0000
0010
0000
0000
0010
0100
0001
0100
0000
0010
0000
0000
0000
,
0110
0000
0010
0000
0100
0000
0001
0100
0010
1000
0001
0010
0001
0000
1000
0000
,
1100
0000
0000
0000
0001
0000
1000
0010
0100
0000
0101
0000
0001
1000
0001
0000
,
1001
0000
0101
0000
0100
0010
1000
0001
0010
0000
0000
0110
0000
0000
0010
0000
,
1001
0000
0000
0000
,
0100
0100
0000
0000
0000
0000
0000
0000
,
1001
2002
0000
0000
0000
0000
0000
0000
,
0000
0000
0000
3003
,
0001
0000
1000
0000
0010
0000
1000
0001
1000
0000
0001
0000
1000
0001
1000
0001
,
0010
0000
0100
1000
0000
0001
0000
0100
,
0010
1000
0010
0100
0001
0010
0100
1000
0001
0000
0011
0000
0010
0000
0100
0000
,
1000
0000
0001
1000
0001
0000
0100
0000
0010
0100
0010
0000
1000
0000
0001
0000
,
1000
0100
0010
0001
1000
0010
1000
0001
0100
0010
1000
0001
0010
0000
0110
0000
,
0010
0001
1000
0001
0100
0010
1000
0001
0010
0100
1000
0001
0100
0000
0110
0000
,
1000
0001
0100
0001
1000
0100
4000
0000
3010
0100
0004
0000
1003
0010
100M
0100
,
0100
0001
0010
0001
1000
0010
1000
0001
0100
0010
4000
0010
3000
0000
0400
0000
,
0310
0100
0001
1000
0001
0010
0100
1000
0001
1000
0010
0100
0001
0000
1001
0000
,
0100
0010
1000
0001
0010
0100
1000
0010
0100
0001
1000
0100
1000
0000
M100
0100
,
0001
0100
0001
0100
0010
1000
0004
0000
0013
0100
1000
0010
0400
0000
0340
0000
,
0131
0000
0000
1001
0000
0000
1100
0000
1001
0000
0000
0101
0000
0000
1000
0000
,
0010
1000
0010
1000
0001
0010
0100
1000
0001
0100
0010
0100
0001
1000
040M
0000
,
0301
1000
0001
0100
0010
1000
040M
0000
0301
0100
0010
1000
0001
0010
040M
0000
,
0301
0010
0100
1000
0010
0100
0001
1000
0010
0100
0001
1000
0001
0010
0100
1000
,
0010
0100
0001
1000
0100
0010
040M
0000
0301
0000
0001
0000
1000
0000
1000
0000
,
0001
0100
0010
0100
0001
1000
0100
0010
0100
1000
0010
0100
0010
1000
004M
0000
,
0031
0010
0001
0100
0010
1000
004M
0000
0031
0100
0001
0010
0001
1000
040M
0000
,
0301
0010
0001
1000
010M
0100
0001
0010
0001
1000
0010
1000
0001
0100
0010
1000
,
0001
0000
0100
0000
0010
1000
0101
0000
1010
0000
0000
0101
0000
0000
0110
0000
,
1001
0000
1000
0000
0010
0101
0000
0010
,
1001
0000
0000
0000
0001
0000
0010
0000
0100
1000
0100
0000
0040
0000
0430
0000
,
1301
0000
0000
0000
0010
1100
0000
0010
,
0100
0000
0010
1000
0001
0000
0001
0000
0100
0001
0100
0001
4000
0000
3004
0000
,
0113
0000
0000
0000
0100
1010
0000
0100
,
0001
0000
1000
0000
0100
1000
0000
0010
0100
0001
1000
0000
0100
0010
0001
0000
,
0011
0000
0000
0000
0001
0000
0000
0000
0000
0000
0000
0000
0110
0000
0100
1000
,
0001
0000
0010
0000
0001
0000
1000
0000
0100
0010
0100
0000
1000
0000
0010
0000
,
1001
0000
0000
0000
,
0000
0000
0000
0000
,
0110
0000
0000
0000
,
0000
0000
0000
0000
,
1000
0001
1000
0001
1000
0001
1000
0001
1000
0001
1000
0001
1000
0001
1000
0001
,
1000
0001
1000
0001
1000
0001
1000
0001
1000
0001
1000
0001
1000
0001
1000
0001
,
4000
0000
0000
0000
0000
0000
0000
0000
0000
0000
0000
0000
0000
0000
0000
3000
,
0001
1000
0001
1000
0001
1000
0001
1000
0001
0000
1000
0000
0001
0000
0110
0000
,
1000
0001
1000
0010
0100
0001
0100
0010
1000
0001
0010
0100
1000
0100
0010
0001
,
1000
0001
0100
0010
0100
0001
1000
0010
0100
0000
0010
0000
1000
0000
M100
0100
,
0001
0010
0100
1000
0001
1000
0100
0010
0001
0100
0010
0100
0001
1000
0010
0100
,
0001
1000
0100
0010
0001
1000
0010
0100
0001
0000
1000
0000
1010
0000
0010
0000
,
0100
0001
0010
0001
1000
0010
1000
0100
0010
0001
0100
0010
1000
010M
0100
M010
,
0010
0001
0100
0001
0010
0100
1000
0100
0010
0000
0011
0000
0001
0000
1000
010M
,
0100
0001
0100
0010
1000
0001
0010
0100
0010
0001
1000
0001
0100
0010
1000
0001
,
0100
0000
0000
0000
0100
0001
1000
0001
0010
0000
0011
0000
0110
0000
1100
0000
,
1000
0010
0100
0001
0010
0100
1000
0010
0100
0010
1000
0100
0010
0001
0100
0010
,
1000
0010
0100
0001
0010
0100
1000
0100
4000
0000
0000
0000
3004
0000
0000
0000
,
0103
0010
1000
0001
0100
0001
0010
0100
0010
0001
0100
0010
4000
0000
0000
0000
,
3010
0100
0001
1000
0001
0010
0100
1000
0004
0000
0000
0000
4003
0000
310M
0100
,
0001
1000
0001
0010
0100
1000
0010
0100
0001
0010
0001
0100
0010
1000
0001
0010
,
0100
1000
0010
0100
0010
1000
0001
0010
0400
0000
4300
0000
3001
0010
0400
0000
,
1300
0010
1000
0100
0010
0001
0100
0010
1000
0001
0100
0001
4000
0000
3400
0000
,
1300
0001
0010
0100
1000
0000
0010
0100
0004
0000
0000
0000
0403
0000
0310
0000
,
1001
0000
0000
0000
;
