#TITLE:Murdah!;
#SUBTITLE:;
#ARTIST:DJ K;
#TITLETRANSLIT:;
#SUBTITLETRANSLIT:;
#ARTISTTRANSLIT:;
#GENRE:;
#CREDIT:;
#BANNER:../banner.png;
#BACKGROUND:../bg.png;
#LYRICSPATH:;
#CDTITLE:;
#MUSIC:Murdah!.ogg;
#OFFSET:0.003;
#SAMPLESTART:83.150;
#SAMPLELENGTH:12.000;
#SELECTABLE:YES;
#BPMS:0.000=184.000;
#STOPS:;
#BGCHANGES:;
#KEYSOUNDS:;

//---------------dance-single - Nix----------------
#NOTES:
     dance-single:
     Nix:
     Challenge:
     12:
     0.843,0.920,0.217,0.069,0.771:
0000
0000
0000
0000
,
0000
0000
0000
0000
,
0000
0000
0000
0000
,
0000
0000
0000
0000
,
0000
0000
0000
0000
,
0000
0000
0000
0000
,
0000
0000
0000
0000
,
0000
0000
0000
0000
,
2100
0000
0000
0100
0000
0000
0010
0000
,
0100
0000
0000
0100
0000
0000
3002
0000
,
0100
0000
0000
0100
0000
0000
0010
0000
,
0100
0000
0003
0100
0010
0000
1000
0000
,
0102
0000
0000
0100
0000
0000
2003
0000
,
0100
0000
0000
0100
0000
0000
3001
0000
,
0000
0000
0000
0000
,
0000
0MM0
0MM0
0MM0
,
1000
0000
0001
0000
0010
0000
0100
1000
0100
1000
0001
0000
000M
0000
0001
0000
,
0010
0000
0001
0000
0100
0000
0010
1000
0010
1000
0001
0000
0100
0001
0100
0001
,
1000
0000
0001
0000
0010
0000
0100
1000
0100
1000
0001
0000
000M
0000
0001
0000
,
1000
0000
0010
0000
0100
0000
0010
1000
0010
1000
0001
0000
0101
0000
0100
0000
,
0010
0000
1000
0000
0100
0000
0010
0001
0010
0001
1000
0000
M000
0000
1000
0000
,
0100
0000
1000
0000
0010
0000
0100
0001
0100
0001
1000
0000
0100
1000
0100
1000
,
0001
0000
0100
0000
0010
0000
0100
0001
0100
0001
1000
0000
M000
0000
1000
0000
,
0010
0000
0100
0000
0001
0000
0010
0100
0010
0100
1000
0000
1010
0000
0010
0000
,
0100
0000
0001
0000
0010
0000
0100
1000
0100
1000
0001
0000
0000
0000
0000
0000
,
0010
0000
0001
0000
1000
0000
0010
1000
0001
0000
0000
0000
0000
0000
0000
0000
,
0100
0000
0010
0000
1000
0000
0100
0010
0100
0010
0001
0000
0000
0000
0000
0000
,
0010
0000
0100
0000
1100
0000
1000
0010
0100
0000
0000
0000
0000
0000
0000
0000
,
0001
0000
0100
0000
0010
0000
0100
0001
0100
0001
1000
0000
0000
0000
0000
0000
,
0010
0000
1000
0000
0001
0000
0010
0001
2000
0000
0000
0000
0000
0000
0000
0000
,
3000
0000
0000
0000
,
0000
0000
0000
0000
,
0001
0000
1000
0000
0010
0000
1000
0100
1000
0001
0010
0000
0001
0010
0001
1000
,
0100
0000
0010
0000
0001
0000
1000
0100
0010
0000
0001
1000
0000
0001
0100
0000
,
0010
0000
1000
0000
0100
0000
1000
0001
0100
0010
1000
0000
0010
1000
0010
0100
,
0001
0000
1000
0100
1000
0000
0010
1000
0010
0000
1000
0001
0000
1000
0100
0000
,
1000
0000
0001
0000
0100
0000
0001
0010
0001
1000
0100
0000
1000
0100
1000
0001
,
0010
0000
0100
0000
1000
0000
0001
0010
0100
0000
1000
0001
0000
1000
0010
0000
,
0100
0000
0001
0000
0010
0000
0001
1000
0010
0100
0001
0000
0100
0001
0100
0010
,
1000
0000
0010
0000
0100
0000
0001
0100
0001
0000
0010
0001
0010
0001
1000
0000
,
0001
0000
0100
0000
1000
0000
0100
0010
0100
0010
1000
0000
0010
0100
0010
0100
,
0001
0000
0010
0000
0100
0000
1000
0001
0010
0000
0001
1000
0000
0001
0100
0000
,
0010
0000
0100
0000
1000
0000
0100
0010
0100
0010
1000
0000
0100
0010
0100
0010
,
0001
0000
0100
0010
0100
0000
0010
0100
0010
0000
1000
0001
0000
1000
0100
0000
,
1000
0000
0010
0000
0001
0000
0010
0100
0010
0100
0001
0000
0100
0010
0100
0010
,
2000
3000
0100
0000
0010
0000
0002
0013
0001
1000
0010
0000
0000
0000
0000
0000
,
0000
0000
0000
0000
,
0000
0000
0000
0000
,
0100
1100
0101
0100
,
0001
0000
1000
0010
0010
0000
0001
0000
1000
0100
0100
0000
0001
0000
1000
0010
,
0100
0101
1100
0100
,
1000
0000
0010
0100
0010
1000
0001
0000
0010
0100
0010
0100
1000
0000
0001
0100
,
0010
1010
0011
0010
,
0001
0000
1000
0100
0100
0000
0001
0000
1000
0010
0010
0000
0001
0000
1000
0100
,
0010
0011
1010
0010
,
1000
0000
0100
0010
0100
1000
0001
0000
0100
0010
0100
0010
2000
0000
0000
0000
,
3100
0101
1100
0100
,
1000
0000
0001
0010
0010
0000
1000
0000
0001
0100
0100
0000
1000
0000
0001
0010
,
0100
1100
0101
0100
,
0001
0000
0010
0100
0010
0001
1000
0000
0010
0100
0010
0100
0001
0000
1000
0100
,
0010
0011
1010
0010
,
1000
0000
0001
0100
0100
0000
1000
0000
0001
0010
0010
0000
1000
0000
0001
0100
,
0010
1010
0011
0010
,
0004
0003
0000
0000
0000
0000
1001
0000
,
1000
0000
0100
0000
0001
0000
0100
1000
0100
1000
0001
0000
0100
0001
0100
0001
,
1000
0000
0100
0000
0010
0000
0001
1000
0010
0000
1000
0001
0000
1000
0100
0000
,
1000
0000
0010
0000
0001
0000
0010
1000
0010
1000
0001
0000
0010
0001
0010
0001
,
1000
0000
0010
1000
0010
0000
0100
0001
0100
0000
0001
1000
0000
0001
0010
0000
,
0001
0000
0100
0000
1000
0000
0100
0001
0100
0001
1000
0000
0100
1000
0100
1000
,
0001
0000
0100
0000
0010
0000
1000
0001
0010
0000
0001
1000
0000
0001
0100
0000
,
0001
0000
0010
0000
1000
0000
0010
0001
0010
0001
1000
0000
0010
1000
0010
1000
,
0001
0000
0010
0001
0010
0000
0100
1000
0100
0000
1000
0010
1000
0000
0001
0100
,
0001
0000
0100
0000
1000
0000
0100
0010
0100
0010
1000
0000
0100
0010
0100
0010
,
0001
0000
0010
0000
1000
0000
0010
0100
1000
0000
0010
1000
0000
0100
1000
0000
,
0010
0000
0100
0000
1000
0000
0100
0010
0100
0010
1000
0000
0010
0100
0010
0100
,
0001
0000
0010
0001
1000
0000
0010
0100
0001
0000
0010
0001
0000
0100
0001
0000
,
1000
0000
0100
0000
0001
0000
0100
1000
0100
1000
0010
0000
0100
0010
1000
0001
,
0010
0000
0100
0000
0001
0000
0100
0010
0001
0000
1000
0100
0000
1000
0010
0000
,
0100
0000
0010
0000
0001
0000
0010
1000
0010
1000
0100
0000
0010
0100
1000
0100
,
0010
0000
0100
1000
0001
0000
0100
0001
1000
0000
0010
0100
0000
0010
0100
0000
,
0001
0000
1000
0000
0100
0000
0010
0001
0010
0001
1000
0000
0000
0000
0000
0000
,
0100
0000
1000
0000
0001
0000
0100
0001
1000
0000
0000
0000
0000
0000
0000
0000
,
0010
0000
0100
0000
0001
0000
0010
0100
0010
0100
1000
0000
0000
0000
0000
0000
,
0100
0000
0010
0000
0011
0000
0001
0100
0010
0000
0000
0000
0000
0000
0000
0000
,
1000
0000
0010
0000
0001
0000
0010
0100
0010
0100
0001
0000
0000
0000
0000
0000
,
0010
0000
0100
0000
0001
0000
0100
0010
0001
0000
0000
0000
0000
0000
0000
0000
,
1000
0000
0010
0000
0001
0000
0010
1000
0010
1000
0100
0000
0000
0000
0000
0000
,
1000
0000
0010
0000
0110
0000
0100
0001
0000
000M
0000
0000
0000
0000
0000
0000
,
0000
0000
1001
0000
;
