#TITLE:Look At Me Now;
#SUBTITLE:(Streams of Pleasure special);
#ARTIST:Chris Brown feat. Lil Wayne & Busta Rhymes;
#TITLETRANSLIT:;
#SUBTITLETRANSLIT:;
#ARTISTTRANSLIT:;
#GENRE:;
#CREDIT:;
#BANNER:../banner.png;
#BACKGROUND:../bg.png;
#LYRICSPATH:;
#CDTITLE:;
#MUSIC:Look At Me Now.ogg;
#OFFSET:0.424;
#SAMPLESTART:100.660;
#SAMPLELENGTH:12.000;
#SELECTABLE:YES;
#BPMS:0.000=73.000;
#STOPS:;
#BGCHANGES:;
#KEYSOUNDS:;

//---------------dance-single - Nix----------------
#NOTES:
     dance-single:
     Nix:
     Challenge:
     12:
     0.836,0.977,0.097,0.509,1.000:
0000
0000
0000
0000
,
0000
0000
0000
0000
,
0000
0000
0000
0000
,
0000
0000
0000
0000
,
2000
0100
3002
0010
1003
0000
0002
0000
0000
0100
2003
0010
3002
0000
0100
0000
,
0013
0000
0000
0010
0200
0000
1000
0000
0000
0310
0001
0100
0010
0000
2020
3030
,
0002
0010
2003
0100
3001
0000
2000
0000
0000
0010
3002
0100
2003
0000
0010
0000
,
3100
0000
0000
0000
0000
0000
0000
0000
0000
0100
0000
0000
0020
0000
0000
0000
0000
0000
0001
0000
0000
0000
0000
0000
0100
0000
0000
0030
0000
0000
0100
1000
0000
0000
0000
0000
0001
0000
0000
0000
0000
0000
1001
0000
0000
0000
0000
0000
,
2000
0000
3001
0010
0100
1000
0001
1000
0001
0100
0010
1000
0010
0100
0001
1000
0001
0010
0100
1000
0001
0100
0010
0000
1000
0000
0010
0000
0100
0000
0000
0000
,
0001
0100
0001
1000
0002
0003
0010
0100
1000
0010
0100
0001
1000
0100
0010
0100
1000
0001
0100
0010
0100
0001
1000
0000
0010
0000
0100
0000
0010
0000
0000
0000
,
1000
0000
0100
0000
0001
0000
0000
0000
0100
0000
1000
0000
0010
0000
0000
0000
0100
0001
1000
0001
0010
0100
1000
0000
0010
0000
0001
0000
0010
0000
0000
0010
,
1000
0000
1000
0000
0100
0000
0010
0001
0010
0000
0100
0000
1000
0000
0000
0000
0001
0000
0001
0100
0010
1000
0010
0000
0100
0000
0001
0000
0010
0000
0000
0100
,
0000
1000
0000
0000
0000
0000
0000
0000
0000
0000
0000
0000
0000
0000
0000
0000
0000
0000
0000
0000
0000
0000
0000
0000
0000
0000
0000
0000
0000
0000
0000
0000
,
0000
0000
0000
0000
0000
0000
0000
0000
0000
0000
0000
0000
1001
0000
0000
0110
,
0000
0000
0000
0000
1001
0000
0000
0000
0000
0000
1000
0000
0001
0000
0000
0000
0020
0000
0000
0000
0031
0000
0000
0000
1001
0000
0000
0000
0000
0000
1000
0001
,
1000
0010
0100
0010
1000
0001
0010
0001
1000
0010
0100
0001
1000
0100
1000
0100
2000
0000
3001
0100
0002
0000
1003
0010
2000
0000
3001
0010
0002
0000
0013
0100
,
0020
0000
0130
1000
0200
0000
0310
0001
0020
0000
0130
1000
0001
0010
0100
1000
0200
0000
1300
0010
1000
0000
1000
0000
1010
0000
0000
0000
0010
1000
0001
0010
,
0100
1000
0001
0100
0020
0000
0130
0000
0201
0000
0310
0000
1000
0000
0100
0000
1000
0001
0100
0010
0200
0000
0301
0000
1000
0000
0010
1000
0001
1000
0100
0010
,
0100
1000
0001
0100
0010
0000
2000
0000
0001
0000
0000
0000
3100
0000
0010
0001
1000
0100
0010
0100
2000
0000
3001
0000
0100
0010
1000
0100
1000
0001
0010
0001
,
0100
0001
1000
0001
0100
0001
0100
0001
0010
0001
0100
0001
0100
0001
1000
0001
0100
0001
0100
0001
0010
0001
0100
0001
0100
0001
1000
0001
0100
0001
0100
0001
,
0010
0001
0100
0001
0100
0001
0100
0001
1000
0010
1000
0010
0100
0001
0100
0001
0010
0100
1000
0010
0100
0001
1000
0100
0010
0001
0100
0010
1000
0001
0010
0100
,
1000
0001
0100
0010
0100
0001
1000
0010
0100
0001
1000
0001
0010
0001
1000
0001
0100
0010
1000
0100
0010
0001
0010
0100
1000
0001
0100
0001
1000
0010
1000
0100
,
0010
0001
0100
0010
1000
0010
0100
0001
0010
0100
1000
0010
0100
0001
1000
0100
1000
0001
0100
0001
0020
0000
MM0M
0000
0000
0000
0000
0000
0000
0130
1000
0010
,
1000
0001
1000
0100
0010
0001
0100
0010
1000
0001
1000
0100
1000
0010
0100
0001
1000
0001
0010
0100
1000
0001
1000
0010
0100
0001
1000
0001
0010
0100
1000
0001
,
0100
0010
1000
0001
0200
0000
0310
1000
0010
0100
0001
0100
0001
1000
0100
1000
0001
0010
0100
1000
0020
0000
1030
0100
2000
0000
3001
0100
0002
0000
1003
0010
,
0100
0001
1000
0001
0020
0000
0130
1000
0100
1000
0001
1000
0010
1000
0001
0100
0001
1000
0001
0010
0002
0000
0013
0100
0010
0100
1000
0100
1000
0001
0100
0010
,
1000
0001
0010
0100
2000
0000
3001
0010
0100
1000
0100
0010
0200
0000
0320
0000
0032
0000
0103
0000
0110
0000
0000
0000
1000
0010
0100
0010
1000
0001
0010
0100
,
0010
0001
1000
0100
0020
0000
0031
1000
0010
0100
0001
0010
0100
1000
0001
1000
0010
0100
0001
1000
0020
0000
1030
0100
0010
0001
0010
0001
1000
0010
1000
0010
,
0100
0001
0100
0001
1000
0100
1000
0100
0010
0001
1000
0001
0010
0100
1000
0001
1000
0100
0010
0001
2000
0000
3001
0100
0010
0000
0100
0000
0010
1000
0010
1000
,
0010
0000
0100
0000
0001
0010
0001
0010
0100
0000
1000
0000
0001
0000
0100
0000
0010
0000
1000
0000
0100
0000
0001
0000
0100
0000
1000
0010
1000
0000
0001
0100
,
0001
0000
0010
0100
1000
0010
0100
0001
0010
0000
0100
0000
0000
0000
0000
0000
M00M
0000
0000
0000
0000
0000
0000
0000
0200
0000
0001
0000
0320
0000
1000
0000
,
0130
0000
0020
0000
0000
1000
0230
0001
0320
0000
1000
0000
1030
0000
0000
1000
,
0002
0000
0100
0000
0000
1003
0010
1000
0100
0000
2200
3300
0020
0001
0230
1000
,
0310
0000
0200
0000
0000
1000
0320
0001
0230
0000
1000
0000
0301
0000
0000
0010
,
2000
0000
0000
0000
0000
0000
0010
0000
0000
0000
0000
0000
0001
0000
0000
3000
0000
0000
0001
0100
0000
0000
0000
0000
0010
0000
0000
0000
0000
0000
1000
0000
0000
0000
0000
0000
1001
0000
0000
0000
0000
0000
0000
0000
0000
0000
0000
0000
;
