#TITLE:LEADING CYBER;
#SUBTITLE:;
#ARTIST:dj TAKA;
#TITLETRANSLIT:;
#SUBTITLETRANSLIT:;
#ARTISTTRANSLIT:;
#GENRE:;
#CREDIT:;
#BANNER:../banner.png;
#BACKGROUND:../bg.png;
#LYRICSPATH:;
#CDTITLE:;
#MUSIC:LEADING CYBER.ogg;
#OFFSET:-4.325;
#SAMPLESTART:1.130;
#SAMPLELENGTH:8.500;
#SELECTABLE:YES;
#DISPLAYBPM:150.000;
#BPMS:0.000=150.000;
#STOPS:;
#BGCHANGES:;
#KEYSOUNDS:;

//---------------dance-single - Nix----------------
#NOTES:
     dance-single:
     Nix:
     Challenge:
     10:
     0.902,0.834,0.411,0.000,1.000:
0000
0000
0000
0000
,
0000
0000
0000
0000
,
1000
0000
1000
0000
0001
0000
0000
0100
0000
0000
0100
0000
0010
1000
0000
1000
,
0100
0000
0100
0000
0010
0000
0000
0001
0000
0000
0001
0000
0100
0010
0000
0010
,
0100
0000
0100
0000
0001
0000
0000
0010
0000
0000
0010
0000
0100
1000
0000
1000
,
0001
0100
0001
0000
1000
0010
1000
0010
0000
0010
0100
0001
0100
0001
0100
0001
,
1000
0000
1000
0010
0000
0010
0100
0000
0100
0001
0000
0001
0010
0000
0100
1000
,
0100
0000
0100
0010
0000
0010
0001
0000
0001
0100
0000
0100
0010
0000
1000
0100
,
0010
0000
0010
0100
0000
0100
1000
0000
1000
0010
0000
0010
0100
0000
0001
0010
,
0001
0000
0100
0000
1000
0000
0100
0000
0010
1000
0010
0000
0100
0001
0100
0001
,
0100
0000
0100
0010
0000
0010
1000
0000
1000
0010
0000
0010
0100
0000
0001
0010
,
0000
0010
0100
0000
1000
0010
0000
0010
0100
0000
0001
0010
0000
0010
0001
0000
,
1000
0100
0010
0001
0000
0001
0010
0000
0010
0100
0000
0100
1000
0000
0001
0100
,
0001
0000
0101
0000
1001
0000
0010
1000
0010
1000
0010
0100
0010
0100
0001
0100
,
0001
0000
0000
0000
,
1001
0000
1000
0000
0100
0000
1000
0000
0001
0100
0001
0100
0001
0000
1000
0000
,
0010
0000
0010
0000
0100
0000
0001
0000
1000
0100
1000
0100
1000
0000
0001
0000
,
0100
0000
0100
0000
0010
0000
1000
0000
0001
0010
0001
0010
0001
0000
0001
0000
,
1000
0010
1000
0010
1000
0000
1000
0000
0010
0100
0010
0100
0010
0000
0100
0000
,
1001
0000
1000
0000
0100
0000
0000
0000
0100
0010
0001
0010
0100
0000
1000
0000
,
1001
0000
0001
0000
0100
0000
0000
0000
0100
0001
1000
0001
0010
0000
0100
0000
,
1000
0100
1000
0100
0010
0000
0010
0000
0001
0100
0001
0100
0010
1000
0001
1000
,
0100
0010
0001
1000
0010
1000
0001
0100
0010
0000
0000
0000
0010
0000
0000
0000
,
0101
0000
0010
0000
1001
0000
0000
1000
0100
0000
0110
0000
0011
0000
0000
0000
,
0010
0100
1000
0000
1000
0001
0000
0001
0100
0000
0110
0000
1010
0000
0000
0000
,
1010
0000
0100
0000
1001
0000
0000
0001
0010
0000
1100
0000
0110
0000
0000
0000
,
0001
0100
0010
0000
0010
1000
0000
1000
0010
0000
0100
0000
0101
0000
0000
0000
,
0100
0010
0000
1010
0000
1000
0100
0010
0001
0000
0011
0000
1001
0000
1000
0001
,
1000
0100
0000
0110
0000
0010
0001
0100
0010
0000
0110
0000
1010
0000
1000
0010
,
1000
0010
0000
0110
0000
0100
0001
0010
0001
0010
0000
0110
0000
0100
1000
0010
,
0100
0001
1000
0001
0010
0100
1000
0001
1000
0010
0100
0001
0010
0100
1000
0100
,
0110
0001
0011
0000
0000
0000
1001
0000
,
0010
0001
0010
0000
0110
0000
0100
1000
0001
1000
0010
0000
0110
0000
0100
0001
,
1000
0010
0100
0001
0010
0000
0000
0000
0000
0000
0000
0000
1001
0000
0000
0000
,
0100
0001
0100
0000
0110
0000
0010
1000
0001
1000
0100
0000
0110
0000
0010
0001
,
0100
0010
0000
1000
0001
0000
0010
0100
1000
0001
0010
0000
0110
0000
0100
1000
,
0010
0100
0000
0001
1000
0000
0100
0010
0001
1000
0100
0000
0110
0000
0010
0001
,
1000
0010
0000
1010
0000
1000
0001
0010
0100
1000
0000
1100
0000
0100
0010
0001
,
1000
0010
0100
0001
1000
0100
0010
0001
0100
0010
1000
0001
0010
0001
0100
0010
,
1000
0000
1000
0000
0010
0000
0000
0100
0000
0000
0100
0000
0001
0010
0000
0010
,
0100
0000
0100
0000
0001
0000
0000
0100
0000
0000
0100
0000
1000
0010
0000
0010
,
0001
0000
0001
0000
0010
0000
0000
0100
0000
0000
0100
0000
0001
0100
0000
0100
,
1000
0000
1000
0000
0100
0000
0100
0010
0000
0010
1000
0000
0100
0010
0001
1000
,
0100
0000
0100
0000
0010
0000
0000
1000
0000
0000
1000
0000
0001
0100
0000
0100
,
1000
0000
1000
0000
0010
0000
0000
0001
0000
0000
0001
0000
0010
0100
0000
0100
,
0001
0000
0001
0000
0010
0000
0000
0100
0000
0000
0100
0000
0001
0100
0000
0100
,
1000
0000
1000
0000
0010
0000
0010
0100
0000
0100
0001
0010
0100
1000
0100
0010
,
0001
0000
0001
1000
0000
1000
0010
0000
0010
0100
0000
0100
0010
1000
0001
1000
,
0100
0000
0100
0010
0000
0010
0001
0000
0001
0100
0010
1000
0010
0100
0001
0000
,
1000
0000
1000
0100
0000
0001
0010
0000
1000
0100
0000
0001
0010
0000
0110
0000
,
0100
0000
0100
1000
0100
0010
0001
0000
0001
0100
0000
1000
0010
0000
0001
0100
,
0010
0000
0010
1000
0000
1000
0010
0000
0010
0001
0000
0001
0010
0000
0010
1000
,
0000
1000
0100
0000
0100
0001
0000
0001
0100
0000
0100
0010
0000
0010
1000
0000
,
0010
0000
0010
0100
0000
0100
1000
0000
1000
0010
0000
0010
0100
0001
1000
0001
,
0010
0000
0010
0100
1000
0001
0100
0010
0000
0010
1000
0001
0010
0100
1000
0000
,
1001
0000
0000
0000
;
