#TITLE:Inna Row;
#SUBTITLE:(Streams of Pleasure special);
#ARTIST:Bugz in the Attic;
#TITLETRANSLIT:;
#SUBTITLETRANSLIT:;
#ARTISTTRANSLIT:;
#GENRE:;
#CREDIT:;
#BANNER:../banner.png;
#BACKGROUND:../bg.png;
#LYRICSPATH:;
#CDTITLE:;
#MUSIC:Inna Row.ogg;
#OFFSET:0.007;
#SAMPLESTART:38.182;
#SAMPLELENGTH:12.000;
#SELECTABLE:YES;
#BPMS:0.000=132.000;
#STOPS:;
#BGCHANGES:;
#KEYSOUNDS:;

//---------------dance-single - Nix----------------
#NOTES:
     dance-single:
     Nix:
     Challenge:
     12:
     1.000,0.880,0.028,0.084,1.000:
0000
0000
0000
0000
,
0000
0000
0000
0000
,
0000
0000
0000
0000
,
2000
0000
0000
3001
0000
0000
0000
0000
1000
0001
0000
0100
0000
0010
1000
0000
,
0002
0000
0000
1003
0000
0000
0000
0000
0001
1000
0000
0100
0000
0010
0001
0000
,
0200
0000
0000
0310
0000
0000
0000
0000
0100
0010
0000
0100
0000
0001
0010
0000
,
0220
0000
0330
0000
1002
0000
0000
0000
0203
0000
0000
0310
0000
1020
0000
0000
,
1030
0001
1000
0010
0100
0010
0100
0001
1000
0100
0010
0001
1000
0010
0100
0001
,
1000
0001
1000
0100
0010
0100
0010
0001
1000
0010
0100
0001
0010
0001
1000
0100
,
0010
0001
0010
0001
0100
0010
0100
0010
1000
0100
1000
0100
1000
0010
0100
0010
,
1000
0001
1000
0010
0100
0010
0100
0010
1000
0010
0100
0001
1000
0010
0100
0001
,
1000
0001
1000
0100
0010
0100
0010
0100
0010
0001
1000
0100
0010
0001
1000
0100
,
1000
0001
1000
0010
0100
0001
0100
0010
1000
0100
1000
0010
1000
0001
0100
0001
,
0010
0001
0010
0001
0100
0001
0100
0001
1000
0010
1000
0010
1000
0001
0010
0001
,
1000
0100
1000
0010
0100
0010
0100
0010
0100
0001
0100
0010
1000
0001
0010
0100
,
1000
0010
1000
0100
0010
0100
0010
0100
0010
0001
1000
0010
0100
0001
0100
0010
,
1000
0100
1000
0100
0010
0001
0010
0001
0100
0010
0100
0010
0100
0001
0100
0001
,
1000
0010
1000
0001
0100
0001
0100
0001
1000
0100
1000
0001
0010
0001
0010
0001
,
0100
0010
0100
0001
1000
0001
1000
0001
0010
0100
0010
0001
1000
0001
1000
0001
,
1000
0010
1000
0001
0100
0001
0100
0001
1000
0010
1000
0100
0010
0100
0010
0100
,
0010
0001
0010
0001
1000
0010
1000
0010
0100
0001
0100
0001
0100
0010
1000
0001
,
0010
0100
1000
0001
1000
0001
0100
0010
1000
0001
1000
0010
0100
0001
0010
0100
,
1000
0100
0010
0001
1000
0001
0010
0100
1000
0010
1000
0001
0100
0001
1000
0100
,
0010
0001
0100
0010
1000
0010
0100
0010
1000
0001
0100
0010
1000
0010
0100
0001
,
1000
0100
0010
0001
0010
0100
0010
0001
0100
0010
1000
0010
0100
0010
1000
0001
,
0010
0100
0010
0001
1000
0010
1000
0001
0100
0010
0100
0001
1000
0010
1000
0100
,
0010
0001
0010
0100
1000
0010
1000
0001
0100
0010
0100
0001
1000
0010
1000
0100
,
0010
0001
1000
0001
1000
0001
1000
0010
0100
0001
1000
0001
1000
0001
1000
0010
,
0100
0001
0100
0001
0100
0001
0100
0001
1000
0010
0100
0001
1000
0100
0010
0001
,
1000
0010
1000
0010
1000
0001
0010
0100
1000
0100
1000
0100
1000
0010
0100
0001
,
0010
0100
0010
0100
0010
0001
1000
0010
0100
0001
0100
0001
0100
0001
0100
0001
,
0010
0100
0010
0100
1000
0010
0100
0010
1000
0010
0100
0001
0100
0010
1000
0001
,
0010
0100
0010
0100
0010
0100
0010
0100
1000
0001
1000
0010
0100
0010
1000
0001
,
0010
0100
0010
0100
1000
0100
1000
0001
0100
0010
1000
0010
0100
0001
0010
0100
,
1000
0001
0100
0001
0100
0010
0100
0010
1000
0010
0100
0001
0010
0100
1000
0010
,
0100
0001
0100
0001
1000
0100
1000
0100
0010
0001
0010
0001
0100
0010
0100
0010
,
1000
0001
1000
0001
0010
0100
0010
0100
1000
0001
1000
0010
0100
0010
1000
0001
,
0010
0100
1000
0100
0010
0001
0010
0100
1000
0001
0100
0010
1000
0010
0100
0001
,
0100
0010
1000
0010
0100
0001
1000
0100
0010
0001
0100
0010
0100
0010
1000
0100
,
0010
0001
0010
0001
1000
0010
1000
0010
0100
0001
0100
0010
1000
0010
1000
0001
,
0010
0100
1000
0010
0100
0010
1000
0100
0010
0001
0100
0010
0100
0010
1000
0100
,
1000
0100
1000
0010
1000
0001
1000
0001
0100
0001
0100
0010
1000
0010
0100
0001
,
1000
0010
1000
0100
0010
0001
1000
0001
0100
0010
1000
0001
0100
0001
0010
0100
,
1000
0001
1000
0001
1000
0001
1000
0001
0010
0100
0010
0100
0010
0100
0010
0100
,
1000
0100
0010
0001
1000
0001
1000
0001
0100
0010
1000
0001
0100
0001
0100
0001
,
0010
0100
1000
0100
0010
0100
1000
0001
0100
0010
1000
0010
0100
0010
1000
0010
,
0100
0001
0100
0010
0100
0001
0100
0010
1000
0001
0010
0100
0010
0001
0010
0100
,
1000
0001
0100
0001
1000
0001
0100
0001
1000
0100
1000
0001
1000
0100
1000
0001
,
0010
0100
0010
0100
1000
0001
0100
0010
1000
0001
0010
0100
1000
0010
0100
0001
,
1000
0100
1000
0100
1000
0100
1000
0100
1000
0010
1000
0010
1000
0010
1000
0010
,
0100
0001
0100
0001
0100
0001
0100
0001
0010
0001
0010
0001
0010
0001
0010
0001
,
0100
0010
0100
0010
0100
0010
0100
0010
1000
0001
1000
0001
1000
0001
1000
0001
,
1000
0010
1000
0010
1000
0100
1000
0100
1000
0010
0100
0001
0100
0001
0100
0001
,
0010
0001
0010
0001
0100
0001
0100
0001
0010
0100
1000
0010
0100
0010
1000
0001
,
0010
0100
1000
0010
0100
0001
0010
0001
0100
0010
1000
0100
1000
0010
0100
0001
,
1000
0001
0010
0100
1000
0001
1000
0010
0100
0001
0010
0100
1000
0010
1000
0100
,
0010
0001
0100
0010
1000
0010
0100
0001
1000
0001
0010
0100
1000
0010
1000
0100
,
0010
0001
0100
0001
1000
0100
1000
0001
0010
0001
0100
0010
1000
0100
0010
0001
,
2000
0000
0000
0000
,
3000
0000
0000
0000
;
