#TITLE:Goat Sperm;
#SUBTITLE:;
#ARTIST:Otto Von Schirach;
#TITLETRANSLIT:;
#SUBTITLETRANSLIT:;
#ARTISTTRANSLIT:;
#GENRE:;
#CREDIT:;
#BANNER:Goat Sperm-bn.png;
#BACKGROUND:Goat Sperm-bg.png;
#LYRICSPATH:;
#CDTITLE:;
#MUSIC:Goat Sperm.ogg;
#OFFSET:0.001;
#SAMPLESTART:15.910;
#SAMPLELENGTH:12.000;
#SELECTABLE:YES;
#BPMS:0.000=98.000
,24.000=196.000
,45.000=98.000
,45.500=196.000
,67.000=392.000
,77.000=98.000
,109.000=196.000
,121.000=98.000
,123.000=196.000
,135.000=98.000
,135.750=196.000
,152.000=392.000
,182.000=196.000
,191.000=49.000
,192.000=98.000
;
#STOPS:24.000=0.459,
24.500=0.459,
26.500=0.612,
28.500=0.612,
38.500=0.612,
40.500=0.612,
45.500=0.765,
47.500=0.612,
49.500=0.612,
59.500=0.612,
61.500=0.612,
109.000=0.612,
135.750=0.689
;
#BGCHANGES:;
#KEYSOUNDS:;
#ATTACKS:;

//---------------dance-single - Nix----------------
#NOTES:
     dance-single:
     Nix:
     Challenge:
     12:
     0.745,0.929,0.034,0.216,0.654,436.000,3.000,19.000,0.000,0.000,0.000,0.745,0.929,0.034,0.216,0.654,436.000,3.000,19.000,0.000,0.000,0.000:
0000
0000
0000
0000
,
0000
0000
0000
0000
,
0100
0001
0010
0000
0100
1000
0010
1000
,
0100
0000
0010
0000
0001
0000
0000
0000
0100
0001
1000
0001
0010
0001
1000
0001
,
0100
0010
1000
0010
0100
0001
1000
0001
0010
0100
1000
0001
1000
0010
1000
0100
,
0010
0001
1000
0001
0010
0100
1000
0010
0100
0010
0001
0010
0100
0010
1000
0100
,
0010
1001
0100
0001
0010
0001
0100
0010
,
1000
0100
0010
0001
0100
0001
0100
0001
,
0010
0000
0100
0000
1000
0010
1000
0010
0100
0001
0100
0001
1000
0100
1000
0100
,
0010
0001
0010
0001
1000
0000
0010
0000
0001
0000
0010
0000
1000
0000
0100
0000
,
0001
0100
1000
0010
0100
0001
0010
1000
,
0010
0000
0100
0000
1002
0000
0203
0300
0010
0000
1000
0000
0001
0000
0010
0000
,
0100
1000
0010
0100
0001
0100
1000
0100
,
0010
0000
1000
0000
0100
0000
0010
0000
0100
1000
0100
1000
0001
0100
0001
0100
,
0010
1000
0010
1000
0010
0100
0010
0100
0001
0000
0100
0000
0010
0000
1000
0000
,
0100
0001
0100
0010
0001
0100
1000
0100
,
0010
0001
0010
1000
1200
0000
0000
0000
,
0000
0000
0000
0000
,
0000
0000
0000
0000
,
0000
0000
0000
0000
0000
0000
0000
0000
0310
0000
0000
0000
0000
0000
0000
0000
0001
0100
0001
0100
0001
0100
0001
0100
0010
0000
0000
0000
0000
0000
0000
0000
,
1000
0100
1000
0100
1000
0100
1000
0100
0010
0000
0000
0000
0000
0000
0000
0000
0002
0000
0000
0000
0000
0000
0000
0000
0203
0000
0000
0000
0000
0000
0000
0000
,
0320
0000
0000
0000
0000
0000
0000
0000
2030
0000
0000
0000
0000
0000
0000
0000
3100
0010
0100
0010
0100
0010
0100
0010
0001
0000
0000
0000
0000
0000
0000
0000
,
0010
0100
0010
0100
0010
0100
0010
0100
1000
0000
0000
0000
0000
0000
0000
0000
0020
0000
0000
0000
0000
0000
0000
0000
0230
0000
0000
0000
0000
0000
0000
0000
,
0302
0000
0000
0000
0000
0000
0023
0000
0000
0000
0000
0000
0230
0000
0000
0000
1300
0001
1000
0001
1000
0001
1000
0001
0000
0000
0000
0000
0010
0000
0000
0000
,
0001
1000
0001
1000
0001
1000
0001
1000
0100
0000
0000
0000
0000
0000
0000
0000
0020
0000
0000
0000
0000
0000
0000
0000
0230
0000
0000
0000
0000
0000
0000
0000
,
1300
0000
0010
0000
0100
0000
0001
0000
0100
0000
0010
0000
0000
0000
0000
0000
0100
0001
0100
0001
0100
0001
0100
0001
0010
0000
0000
0000
0000
0000
0000
0000
,
0100
1000
0100
1000
0100
1000
0100
1000
0010
0000
0000
0000
0000
0000
0000
0000
0200
0000
0000
0000
0000
0000
0000
0000
0302
0000
0000
0000
0000
0000
0000
0000
,
0013
0000
0000
0000
0000
0000
0000
0000
0000
0000
0000
0000
0010
0000
0000
0000
0000
0000
0000
0000
0000
0000
0000
0000
0010
0000
0000
0000
0000
0000
0000
0000
0000
0000
0000
0000
0010
0000
0000
0000
0000
0000
0000
0000
0000
0000
0000
0000
0200
1300
0000
0000
0000
0000
0000
0000
0000
0000
0000
0000
0000
0000
0000
0000
0000
0000
0000
0000
0000
0000
0000
0000
0000
0000
0000
0000
0000
0000
0000
0000
0000
0000
0000
0000
0000
0000
0000
0000
0000
0000
0000
0000
0000
0000
0000
0000
1000
0000
0000
0000
0000
0000
0000
0000
0000
0000
0000
0000
0000
0000
0000
0000
0000
0000
0000
0000
0000
0000
0000
0000
0010
0000
0000
0000
0000
0000
0000
0000
0000
0000
0000
0000
0100
0000
0000
0000
0000
0000
0000
0000
0000
0000
0000
0000
0010
0000
0000
0000
0000
0000
0000
0000
0000
0000
0000
0000
0000
0000
0000
0000
0000
0000
0000
0000
0000
0000
0000
0000
0000
0000
0000
0000
0000
0000
0000
0000
0000
0000
0000
0000
0000
0000
0000
0000
0000
0000
0000
0000
0000
0000
0000
0000
,
0010
0000
0100
0001
0100
0000
0000
0000
0100
0000
0001
1000
0001
0000
0000
0000
,
0001
0000
0010
0100
1000
0000
1000
0000
0010
0000
0100
0001
0100
0000
0010
0000
,
1000
0000
0100
0010
0001
0100
0010
1000
0010
0100
0001
0010
0100
0000
0000
0000
,
0100
0000
1000
0001
0100
0000
0000
0000
0100
0000
0010
1000
0001
0000
0000
0000
,
0001
0000
0010
0100
1000
0000
0000
0000
1000
0000
0010
0100
0001
0000
0001
0000
,
0010
0000
0100
1000
0010
0000
0100
0000
0001
0000
1000
0010
0100
0010
0100
0010
,
0100
0001
0010
0100
1000
0010
0100
0001
,
0100
0010
1000
0100
0010
0001
0100
0001
,
0010
1000
0010
0001
0100
1000
0100
0010
,
1000
0100
0010
0001
0010
1000
0010
0000
,
0001
0100
0001
0100
0001
0100
0001
0100
,
0010
1000
0010
1000
0010
1000
0010
1000
,
0001
0010
0001
0010
0001
0010
0001
0010
,
0100
1000
0100
1000
0100
1000
0100
1000
,
0010
0100
0010
0100
0001
0100
0001
0100
,
0010
1000
0010
1000
0010
0100
0010
0100
,
0001
0010
0001
0010
0100
1000
0100
1000
,
0010
0100
0001
0100
0010
0000
1000
0100
,
0010
0100
1000
0000
0010
0000
0100
0000
,
0001
0010
0100
2000
,
3001
0100
0010
0000
0100
0001
0010
1000
,
0001
0000
0000
0000
0100
0000
0000
0000
1000
0000
0000
0000
0000
0000
0000
0000
0010
0000
0100
0000
0001
0010
0100
1000
0001
0000
0010
0000
0100
0000
0010
0000
,
0002
0000
0000
0000
,
0003
0000
0000
0000
;

//---------------dance-single - Nixot----------------
#NOTES:
     dance-single:
     Nixot:
     Hard:
     9:
     0.597,0.696,0.125,0.125,0.307,345.000,11.000,11.000,0.000,0.000,0.000,0.597,0.696,0.125,0.125,0.307,345.000,11.000,11.000,0.000,0.000,0.000:
0000
0000
0000
0000
,
0000
0000
0000
0000
,
1000
1000
0001
0001
,
0010
0010
0100
0100
,
1000
1000
0010
0010
0100
0100
0001
0001
,
1000
0100
1000
0100
0010
0001
0010
0001
1000
0010
1000
0010
0100
0001
0100
0001
,
1000
0110
1000
0100
0010
0001
1000
0010
,
0100
0001
1000
0100
1000
0100
0010
0001
,
0010
0100
1000
0001
0010
0001
1000
0010
,
0100
0001
0010
0100
1000
0010
0100
0001
,
0010
0001
0100
0010
1000
0100
0010
0100
,
1000
0010
1001
0200
0301
0010
0100
1000
,
0001
0100
0010
1000
0010
0100
0001
0010
,
0100
0010
0100
1000
0010
0100
0010
0001
,
0010
1000
0100
0010
0001
0100
0001
0010
,
0100
1000
0010
0100
0001
0010
0001
0100
,
0010
1000
0100
1000
0120
0000
0000
0000
,
0000
0000
0000
0000
,
0000
0000
0000
0000
,
0000
0000
0000
0000
1030
0000
0000
0000
0100
1000
0100
1000
0010
0000
0000
0000
,
0100
0001
0100
0001
0010
0000
0000
0000
0100
1000
0001
1000
0010
0100
0001
1000
,
0001
0010
1000
0010
0002
0000
0000
0000
1003
0010
1000
0010
0100
0000
0000
0000
,
0001
0010
0001
0010
0100
0000
0000
0000
1000
0010
1000
0010
0001
0010
0001
0010
,
2000
0000
0000
3200
0000
0000
0320
0000
0031
1000
0001
1000
0000
0000
0010
0000
,
1000
0001
1000
0001
0100
0000
0000
0000
0010
1000
0010
0001
1000
0100
0001
0100
,
0020
0000
0000
0000
0000
0030
0000
0000
1000
0100
1000
0100
0001
0000
0000
0000
,
1000
0010
1000
0010
0001
0000
0000
0000
0200
0000
0000
0000
0320
0000
0000
0000
,
1030
0000
0000
0000
0000
0000
0000
0000
0000
0000
0000
0000
1000
0000
0000
0000
0000
0000
0000
0000
0000
0000
0000
0000
1000
0000
0000
0000
0000
0000
0000
0000
0000
0000
0000
0000
1000
0000
0000
0000
0000
0000
0000
0000
0000
0000
0000
0000
1000
0001
0000
0000
0000
0000
0000
0000
0000
0000
0000
0000
0000
0000
0000
0000
0000
0000
0000
0000
0000
0000
0000
0000
0000
0000
0000
0000
0000
0000
0000
0000
0000
0000
0000
0000
0000
0000
0000
0000
0000
0000
0000
0000
0000
0000
0000
0000
0001
0000
0000
0000
0000
0000
0000
0000
0000
0000
0000
0000
0000
0000
0000
0000
0000
0000
0000
0000
0000
0000
0000
0000
0001
0000
0000
0000
0000
0000
0000
0000
0000
0000
0000
0000
0000
0000
0000
0000
0000
0000
0000
0000
0000
0000
0000
0000
0010
0000
0000
0000
0000
0000
0000
0000
0000
0000
0000
0000
0000
0000
0000
0000
0000
0000
0000
0000
0000
0000
0000
0000
0000
0000
0000
0000
0000
0000
0000
0000
0000
0000
0000
0000
0000
0000
0000
0000
0000
0000
0000
0000
0000
0000
0000
0000
,
0010
0010
0100
0000
0100
0100
1000
0000
,
1000
1000
0010
0010
1000
1000
0100
0100
,
0010
0000
0010
0000
0001
1000
0100
1000
0001
0100
0001
0010
0100
0000
0000
0000
,
0100
0100
1000
0000
1000
1000
0010
0000
,
0010
0010
0100
0000
0100
0100
0001
0001
,
0010
0000
0010
0000
1000
0000
1000
0000
0010
0000
0010
0000
0001
0100
1000
0100
,
0010
1000
0010
1000
0001
0100
0001
0100
,
0001
0010
0001
0010
0100
1000
0100
1000
,
0010
0001
0010
1000
0100
0001
1000
0010
,
0001
0100
1000
0100
0001
0010
0100
0000
,
1000
0010
1000
0000
0001
0100
0001
0000
,
0101
0000
1001
0000
,
1000
0100
1000
0000
0001
0010
0001
0000
,
0011
0000
1001
0000
,
0001
0100
0001
0000
1000
0010
1000
0000
,
1010
0000
0110
0000
,
0001
0010
0001
0000
1000
0100
1000
0000
,
1100
0000
0000
0000
0110
0000
0001
0010
,
0001
0100
0010
0000
1000
0000
0001
0000
,
0010
0100
1000
0020
,
0130
0001
0100
0000
0010
1000
0010
0100
,
0001
0000
0000
0000
0010
0000
0000
0000
0100
0000
0000
0000
0000
0000
0000
0000
1000
0000
0010
0000
0100
0001
0100
0001
0100
0000
0010
0000
1000
0000
0001
0000
,
2000
0000
0000
0000
,
3000
0000
0000
0000
;

//---------------dance-single - Nixot----------------
#NOTES:
     dance-single:
     Nixot:
     Medium:
     6:
     0.372,0.406,0.068,0.080,0.006,216.000,6.000,7.000,0.000,0.000,0.000,0.372,0.406,0.068,0.080,0.006,216.000,6.000,7.000,0.000,0.000,0.000:
0000
0000
0000
0000
,
0000
0000
0000
0000
,
1000
0000
0100
0000
,
0001
0000
0010
0000
,
1000
1000
0001
0001
,
0100
0100
0010
0010
1000
0100
0010
0001
,
1000
1000
0010
0000
0010
0000
0100
0000
,
0100
0001
0010
0100
,
1000
0010
0100
0001
,
1000
0100
0100
0010
,
0010
0001
0100
1000
,
0100
1001
1000
1000
,
0001
0001
0010
0100
,
1000
0001
0100
0010
,
1000
0100
0010
0010
,
0100
0100
0001
0100
,
0010
1000
0110
0000
,
0000
0000
0000
0000
,
0000
0000
0000
0000
,
0000
0000
0001
0000
1000
0100
1000
0000
,
0001
0010
0001
0000
0100
0010
0100
0010
,
1000
0001
1000
0001
1000
0100
0010
0000
,
0001
0010
0100
0000
1000
0010
1000
0010
,
0100
0001
0100
0001
0010
0001
0100
0000
,
0010
1000
0100
0000
0010
0001
1000
0010
,
0100
0001
0001
0000
0010
0100
1000
0000
,
0010
0100
0001
0000
2000
0000
3200
0000
,
0310
0000
0000
0000
0000
0000
0000
0000
0000
0000
0000
0000
0000
0000
0000
0000
0000
0000
0000
0000
0000
0000
0000
0000
0010
0000
0000
0000
0000
0000
0000
0000
0000
0000
0000
0000
0000
0000
0000
0000
0000
0000
0000
0000
0000
0000
0000
0000
0010
0001
0000
0000
0000
0000
0000
0000
0000
0000
0000
0000
0000
0000
0000
0000
0000
0000
0000
0000
0000
0000
0000
0000
0000
0000
0000
0000
0000
0000
0000
0000
0000
0000
0000
0000
0000
0000
0000
0000
0000
0000
0000
0000
0000
0000
0000
0000
0001
0000
0000
0000
0000
0000
0000
0000
0000
0000
0000
0000
0000
0000
0000
0000
0000
0000
0000
0000
0000
0000
0000
0000
0000
0000
0000
0000
0000
0000
0000
0000
0000
0000
0000
0000
0000
0000
0000
0000
0000
0000
0000
0000
0000
0000
0000
0000
0010
0000
0000
0000
0000
0000
0000
0000
0000
0000
0000
0000
0000
0000
0000
0000
0000
0000
0000
0000
0000
0000
0000
0000
0000
0000
0000
0000
0000
0000
0000
0000
0000
0000
0000
0000
0000
0000
0000
0000
0000
0000
0000
0000
0000
0000
0000
0000
,
0100
1000
1000
0010
,
0100
0001
0101
1000
,
1100
0020
0000
1030
,
1000
0010
0100
0001
,
0001
0000
0010
0000
0100
0000
1000
0010
,
1000
0000
0001
0100
0001
0000
0110
0000
,
1000
0010
1000
0000
0001
0010
0001
0000
,
1000
0100
1000
0000
0001
0100
0001
0000
,
1000
0100
0010
0000
0001
0100
0010
0000
,
1000
0010
0100
0000
0001
0010
0100
0000
,
1000
0001
1000
0001
,
1000
0001
1000
0001
,
1000
0001
1000
0001
,
1000
0001
1000
0001
,
0100
0010
0100
0010
,
0100
0010
0100
0010
,
0100
0010
0100
0010
,
0100
0010
0100
0001
,
0001
0001
1000
1000
,
1000
0010
0100
1001
,
0020
0031
0002
0103
,
0200
0000
0310
0000
0010
1000
0001
0100
,
0020
0000
0000
0000
,
0030
0000
0000
0000
;

//---------------dance-single - Nixot----------------
#NOTES:
     dance-single:
     Nixot:
     Easy:
     4:
     0.289,0.377,0.239,0.080,0.006,150.000,21.000,7.000,0.000,0.000,0.000,0.289,0.377,0.239,0.080,0.006,150.000,21.000,7.000,0.000,0.000,0.000:
0000
0000
0000
0000
,
0000
0000
0000
0000
,
1000
0000
0001
0000
,
1000
0000
0001
0000
,
1000
0001
0100
0010
,
1000
0001
0010
0100
,
1000
0001
0000
1000
,
0000
0010
0010
0100
,
0100
0001
0010
0100
,
1000
0001
0000
1000
,
0000
0100
0010
0100
,
0010
1001
0001
0000
,
1000
0000
0001
0010
,
0100
1000
0001
0100
,
0010
1000
0100
0000
,
0010
0000
0001
0100
,
0010
1000
0110
0000
,
0000
0000
0000
0000
,
0000
0000
0000
0000
,
0000
0000
1000
0100
,
0001
0100
1000
0010
,
0020
0030
0001
0010
,
1000
0010
0001
0100
,
0100
0010
0010
1000
,
0001
0100
0010
1000
,
0200
0300
0010
0010
,
0100
0100
0010
0001
,
1001
0000
0000
0000
0000
0000
0000
0000
0000
0000
0000
0000
0000
0000
0000
0000
0000
0000
0000
0000
0000
0000
0000
0000
0000
0000
0000
0000
0000
0000
0000
0000
0000
0000
0000
0000
0000
0000
0000
0000
0000
0000
0000
0000
0000
0000
0000
0000
0000
1000
0000
0000
0000
0000
0000
0000
0000
0000
0000
0000
0000
0000
0000
0000
0000
0000
0000
0000
0000
0000
0000
0000
0000
0000
0000
0000
0000
0000
0000
0000
0000
0000
0000
0000
0000
0000
0000
0000
0000
0000
0000
0000
0000
0000
0000
0000
1000
0000
0000
0000
0000
0000
0000
0000
0000
0000
0000
0000
0000
0000
0000
0000
0000
0000
0000
0000
0000
0000
0000
0000
0000
0000
0000
0000
0000
0000
0000
0000
0000
0000
0000
0000
0000
0000
0000
0000
0000
0000
0000
0000
0000
0000
0000
0000
1000
0000
0000
0000
0000
0000
0000
0000
0000
0000
0000
0000
0000
0000
0000
0000
0000
0000
0000
0000
0000
0000
0000
0000
0000
0000
0000
0000
0000
0000
0000
0000
0000
0000
0000
0000
0000
0000
0000
0000
0000
0000
0000
0000
0000
0000
0000
0000
,
1000
0001
0001
0001
,
0001
1000
0010
0110
,
0100
0001
0000
0010
,
0010
0100
0100
0010
,
0010
0100
0100
1000
,
0010
0110
0100
0001
,
0001
0001
0010
0010
,
1000
1000
0100
0100
,
0001
0001
0010
0010
,
1000
0100
0001
0001
,
1001
0000
1001
0000
,
1001
0000
1001
0000
,
1001
0000
1001
0000
,
1001
0000
1001
0000
,
0110
0000
0110
0000
,
0110
0000
0110
0000
,
0110
0000
0110
0000
,
0110
0000
0110
1000
,
0000
0100
0000
0010
,
0000
0001
0000
2000
,
3002
0103
0200
0310
,
0020
0000
1030
0000
1000
0100
0010
0001
,
2000
0000
0000
0000
,
3000
0000
0000
0000
;
