#TITLE:Giant Steps;
#SUBTITLE:(Streams of Pleasure special);
#ARTIST:John Coltrane, arr. Nix's Computer Band;
#TITLETRANSLIT:;
#SUBTITLETRANSLIT:;
#ARTISTTRANSLIT:;
#GENRE:;
#CREDIT:;
#BANNER:../banner.png;
#BACKGROUND:../bg.png;
#LYRICSPATH:;
#CDTITLE:;
#MUSIC:Giant Steps.ogg;
#OFFSET:0.003;
#SAMPLESTART:14.570;
#SAMPLELENGTH:12.000;
#SELECTABLE:YES;
#BPMS:0.000=280.000;
#STOPS:;
#BGCHANGES:;
#KEYSOUNDS:;

//---------------dance-single - Nix----------------
#NOTES:
     dance-single:
     Nix:
     Challenge:
     12:
     0.927,0.991,0.344,1.000,0.000:
0000
0000
0000
0000
,
0000
0000
0000
0000
,
0000
0000
0000
0000
,
0000
0000
0000
0000
,
0000
0000
0000
0000
,
2002
0000
0000
3003
0022
0000
0000
0033
,
0220
0000
0000
0330
2200
0000
3300
2002
,
0000
0000
0000
3003
,
0002
0000
0000
0000
0203
0000
0000
0320
,
0000
0000
0000
0030
,
2000
0000
0000
0000
3200
0000
0000
0320
,
0000
0000
0000
0030
,
0002
0000
0000
0000
2003
0000
0000
3200
,
0000
0000
0000
0300
,
2000
0000
0000
0000
3002
0000
0000
0023
,
0000
0000
0000
0030
,
0100
1000
0001
0100
0000
0000
0000
0000
,
2002
0000
0000
3003
0220
0000
0000
0330
,
2002
0000
0000
3003
0220
0000
0330
2002
,
0000
0000
0000
3003
,
0020
0000
0000
0230
0000
0000
0300
0000
,
2002
0000
0000
3003
2020
0000
0000
3030
,
0220
0000
0000
0330
0202
0000
0303
2002
,
0000
0000
0000
3003
,
2000
0000
0000
0000
3200
0000
0000
0320
,
0000
0000
0000
0030
,
0002
0000
0000
0000
0203
0000
0000
0320
,
0000
0000
0000
0030
,
2000
0000
0000
0000
3002
0000
0000
0203
,
0000
0000
0000
0300
,
0002
0000
0000
0000
2003
0000
0000
3020
,
0000
0000
0000
0030
,
0100
0001
1000
0010
1000
0001
0010
0100
,
1000
0100
0010
0001
1000
0100
0010
0001
,
1000
0001
1000
0010
1000
0001
0100
0001
,
0010
0001
1000
0010
0100
0001
1000
0100
,
1000
0001
0010
0001
1000
0010
0100
0002
,
0000
0023
0000
0230
0000
1300
0100
0010
,
0001
0010
0100
1000
0001
0100
0010
2000
,
0000
0000
3000
0000
0010
1000
0001
1000
,
0100
0010
0001
1000
0001
0100
0010
1000
,
0000
0010
1000
0100
0010
0001
0100
0010
,
0000
1000
0001
0100
0010
1000
0100
0010
,
0100
0010
0100
1000
0001
0010
0100
1000
,
0010
0100
0001
1000
0100
0010
0100
2000
,
0000
3020
0000
0230
0000
0302
0000
0023
,
0000
0130
1000
0001
1000
0100
0010
0002
,
0000
0103
0010
1000
0001
1000
0100
1000
,
0001
0100
0010
0100
0000
0000
0000
0000
,
0000
0001
0100
0010
1000
0100
0010
0001
,
1000
0010
0100
0001
1000
0010
0100
0002
,
0000
0000
0000
0013
0100
1000
0001
1000
,
0100
0010
0001
0100
0001
1000
0010
0200
,
0000
0301
0100
0001
0100
0010
1000
0010
,
0100
0001
0010
0100
1000
0100
0010
0002
,
0000
0000
0000
0003
,
1000
0001
1000
0010
0100
0001
1000
0001
,
0020
0000
0130
1000
0001
1000
0010
0100
,
0010
0100
0010
1000
0001
0010
0100
2000
,
0000
0000
3010
1000
0001
1000
0100
0010
,
0001
1000
0010
0100
0001
0100
0010
1000
,
0000
0000
1000
0100
0010
0001
0100
0020
,
0000
1030
0010
0100
0001
0200
0000
0320
,
0000
2030
0000
3200
0000
0302
0000
0203
,
0000
2300
0000
3020
0000
0032
0000
0023
,
0000
1030
0010
0100
0001
1000
0100
0010
,
0001
1000
0010
0100
0001
0010
0100
2000
,
0000
3200
0000
0320
0000
0032
0000
0203
,
0000
0320
0000
2030
0000
3001
0100
0010
,
1000
0100
0010
0001
0010
0100
1000
0001
,
0100
0010
1000
0001
0100
0010
1000
0010
,
0100
0001
1000
0002
0000
0013
0100
1000
,
0001
0100
0010
1000
0010
0100
0001
0020
,
0000
0000
0000
0030
,
0001
1000
0100
0010
0001
1000
0001
0100
,
0010
1000
0001
1000
0100
0010
0100
0010
,
0001
1000
0010
0100
0001
0100
0010
2000
,
0000
0000
0000
3000
,
0001
0010
0100
1000
0001
1000
0100
0010
,
0000
0010
0100
1000
0010
0100
0001
1000
,
0010
1000
0100
0010
0000
0000
0000
0000
,
0020
0000
0230
0000
,
2300
0000
0000
0000
3002
0000
0000
0203
,
0000
0000
0000
0300
0001
1000
0100
1000
,
0001
0100
0010
1000
0001
0010
0001
2000
,
0000
0000
3020
0000
,
0130
0001
0100
0010
1000
0010
1000
0200
,
0000
0320
0000
0032
0000
2003
0000
3010
,
1000
0100
0010
0001
1000
0001
0100
0010
,
0100
0001
1000
0100
0010
0100
1000
0001
,
0100
0010
0100
0001
1000
0010
0100
0001
,
2000
3200
0302
0203
,
2300
3020
0032
0023
,
2030
0000
3010
0100
0001
0010
0100
0010
,
0001
0000
1000
0100
0010
0100
1000
0002
,
0000
0103
0000
0010
0100
0001
0010
0100
,
1000
0001
0100
0010
0000
0000
0000
0000
,
2002
0000
0000
3003
2020
0000
0000
3030
,
0220
0000
0000
0330
0202
0000
0303
2002
,
0000
0000
0000
3003
,
0220
0000
0330
1001
0000
0000
0000
0000
,
0022
0000
0000
0033
0202
0000
0000
0303
,
2200
0000
0000
3300
2020
0000
0000
3030
,
2002
0000
0000
3003
,
0002
0000
0000
0000
0203
0000
0000
2300
,
0000
0000
0000
3000
,
0002
0000
0000
0000
0023
0000
0000
2030
,
0000
0000
0000
3000
,
0002
0000
0000
0000
2003
0000
0000
3200
,
0000
0000
0000
0300
,
2000
0000
0000
0000
3002
0000
0000
0023
,
0000
0000
0000
0030
,
0100
1000
0001
0100
0000
0000
0000
0000
,
2020
0000
0000
3030
2200
0000
0000
3300
,
0202
0000
0000
0303
0022
0000
0033
2002
,
0000
0000
0000
3003
,
0020
0000
0000
0230
0000
0000
0300
0000
,
2200
0000
0000
3300
0202
0000
0000
0303
,
2020
0000
0000
3030
0022
0000
0033
2002
,
0000
0000
0000
3003
,
2000
0000
0000
0000
3200
0000
0000
0302
,
0000
0000
0000
0003
,
2000
0000
0000
0000
3020
0000
0000
0032
,
0000
0000
0000
0003
,
2000
0000
0000
0000
3002
0000
0000
0203
,
0000
0000
0000
0300
,
0002
0000
0000
0000
2003
0000
3000
0220
,
0000
0000
0000
0000
,
0000
0000
0000
0000
,
0330
0000
0000
0000
;
