#TITLE:Front 2 Da Back;
#SUBTITLE:;
#ARTIST:Shitmat;
#TITLETRANSLIT:;
#SUBTITLETRANSLIT:;
#ARTISTTRANSLIT:;
#GENRE:;
#CREDIT:;
#BANNER:../banner.png;
#BACKGROUND:../bg.png;
#LYRICSPATH:;
#CDTITLE:;
#MUSIC:Front 2 Da Back.ogg;
#OFFSET:0.003;
#SAMPLESTART:41.991;
#SAMPLELENGTH:12.000;
#SELECTABLE:YES;
#BPMS:0.000=160.000;
#STOPS:;
#BGCHANGES:;
#KEYSOUNDS:;

//---------------dance-single - Nix----------------
#NOTES:
     dance-single:
     Nix:
     Challenge:
     12:
     0.886,0.900,0.333,0.202,0.813:
0000
0000
0000
0000
,
0000
0000
0000
0000
,
0000
0000
0000
0000
,
0000
0000
0000
0000
,
0000
1000
0000
0000
0000
0010
0000
1000
0100
1000
0100
0010
0000
0001
0100
0001
,
0100
0000
0000
0000
0010
0000
1000
0100
1000
0100
0010
0000
0001
0100
0001
0100
,
0010
0000
0000
0000
1000
0000
0001
0010
0001
0010
0100
0000
1000
0010
1000
0010
,
0000
0000
0000
0000
0100
0000
0001
0010
0001
0010
0100
0000
0000
0000
0000
0000
,
1000
0001
0101
0000
0010
0100
0001
0010
,
0100
1000
0100
0000
0010
0000
0001
0000
1000
0000
0010
0000
0010
0000
0100
0000
,
0001
1000
1100
0000
0010
0100
1000
0010
,
0100
0001
0100
0000
0010
0000
1000
0000
0001
0000
0010
0000
0000
0000
0000
0000
,
0001
1000
1010
0000
0100
0010
1000
0100
,
0010
0001
0010
0000
0100
0000
1000
0000
0001
0000
0100
0000
0100
0000
0010
0000
,
1000
0001
0011
0000
0100
0010
0001
0100
,
0010
1000
0010
0100
0001
0100
0020
0000
0030
0000
0110
0000
2002
0000
3003
0000
,
1000
0100
0110
0000
0010
0001
0100
0010
,
1000
0100
1000
0000
0010
0000
0100
0000
0001
0000
0010
0000
0010
0000
0100
0000
,
1000
0010
0110
0000
0100
0001
0010
0100
,
1000
0010
1000
0000
0100
0000
0010
0000
0001
0000
0100
0000
0010
0100
0001
0000
,
0010
0100
2100
0000
3010
1000
0100
0010
,
0001
0010
0100
0000
0010
0000
0100
0000
1000
0000
0010
0000
0010
0000
0100
0000
,
0001
0100
0210
0000
0301
1000
0100
0010
,
0022
0033
0100
1000
2002
0000
0000
3003
,
1000
0100
1000
0000
1100
0000
0100
1000
0001
0000
0100
0001
1000
0000
0000
0000
,
0001
0010
0001
0000
0011
0000
0010
0001
1000
0000
0010
1000
0001
0000
0000
0000
,
0100
0001
0100
0000
0101
0000
0001
0010
0100
0000
1000
0010
0100
0000
0000
0000
,
0001
0000
0010
0000
0100
0000
0000
0000
1000
0001
0000
0100
0000
0100
0001
0100
,
0010
1000
0010
0000
0110
0000
0100
0001
0010
0000
0100
1000
0010
0000
0000
0000
,
0100
0010
0100
0000
0110
0000
0010
1000
0100
0000
0010
0001
0100
0000
0000
0000
,
0010
1000
0001
0000
0011
0000
0010
0100
1000
0000
0010
0100
0001
0000
0000
0000
,
1000
0000
0001
1000
0001
0000
0000
0000
0011
0000
0000
0000
1010
0000
1000
0001
,
0100
M00M
0100
1000
0010
M00M
0010
0001
0100
0000
0000
0000
0001
1000
0001
0000
,
0010
M00M
0010
1000
0100
M00M
0100
0001
0010
0000
0000
0000
0001
1000
0001
0000
,
0100
M00M
0100
1000
0010
M00M
0010
0001
0100
0000
0000
0000
0001
1000
0001
0000
,
0010
M00M
0010
1000
0100
M00M
0100
0001
0010
0000
0100
0010
0000
0100
1000
0000
,
1001
0000
1000
0100
0001
0MM0
0001
0010
0100
0000
1000
0000
0010
0100
0001
0000
,
0101
0000
0001
0100
1000
0MM0
1000
0010
0100
0000
0001
0000
0100
0010
1000
0000
,
1010
0000
1000
0010
0001
0MM0
0001
0100
0010
0000
1000
0000
0100
0010
0001
0000
,
0011
0000
0001
0010
1000
0MM0
1000
0100
0010
0001
0010
0001
1000
0100
1000
0100
,
0010
0000
0001
0100
0001
1000
0010
0000
1000
0000
0100
0000
0110
0000
0000
0000
,
0010
0001
1000
0001
0100
0000
0010
0000
1000
0000
0100
0000
0010
0000
0100
0000
,
0010
0000
0001
0100
0001
1000
0010
0000
1000
0100
1000
0001
0010
0000
0000
0000
,
0000
0000
0000
0000
0000
0000
0000
0000
0000
0000
1000
0000
0001
0100
0010
0100
,
0001
1000
0100
0000
0110
0000
0010
0001
0100
M00M
0100
1000
0010
0000
0000
0000
,
1000
0001
0010
0000
0110
0000
0100
1000
0010
M00M
0010
0001
0200
0000
0000
0300
,
1000
0100
0001
0000
0011
0M00
0010
1000
0100
M00M
0100
0001
0010
0000
0000
0000
,
0100
0000
0100
0010
0001
0000
0100
0000
0110
0000
0000
0000
1001
0000
1000
0100
,
0010
M00M
0010
0100
0001
0MM0
0001
0010
1000
0000
0000
0000
0001
0100
0010
0000
,
1010
0000
1000
0010
0001
0MM0
0001
0100
1000
0000
0100
0000
0010
1000
0100
0000
,
0102
0000
0013
0100
1000
0MM0
1000
0010
0001
0000
0000
0000
1000
0001
0100
0000
,
0010
M00M
0010
0100
1000
0MM0
1000
0010
0002
0000
0203
0000
0320
0000
0030
0000
,
1000
0000
0010
0000
0100
0000
0001
0000
0010
0000
0100
1000
0100
0000
0010
0001
,
1000
0100
0001
0100
0010
0001
1000
0010
,
0100
0001
0100
0000
0010
0000
1000
0000
0100
0000
0010
0001
0010
0000
0100
0000
,
1000
0001
1000
0000
0010
0000
0100
0000
1000
0000
0100
0001
0000
0000
0000
0000
,
0010
0100
0010
0001
0100
0010
0001
0010
,
2000
0000
0000
0000
3001
0100
0010
0100
0001
1000
0010
0100
0010
1000
0001
0010
,
0100
1000
0000
0100
0010
0000
1000
0000
0010
0001
0010
0001
1000
0010
1000
0010
,
0100
0001
1000
0000
0100
1000
0001
0100
0010
0000
1000
0001
0100
0000
0001
0000
,
1000
0001
0100
0010
0001
1000
0100
0001
,
0010
0100
0010
0000
1000
0000
0010
0000
0100
0000
1000
0000
0010
0000
0100
0000
,
0001
0000
0000
1000
0010
0000
1000
0000
0100
0000
0010
0000
0001
0000
0100
0000
,
0001
1000
0000
0010
1000
0000
0001
0000
0010
0000
0100
1000
0100
0000
0010
0000
,
1002
0003
0002
0003
2000
3000
0200
0300
,
0200
0000
0000
0000
0000
0000
0000
0000
0000
0000
M000
000M
00M0
0000
000M
0000
,
0300
0000
0000
0000
;
