#TITLE:EXTRAVAGANZA;
#SUBTITLE:;
#ARTIST:BANYA;
#TITLETRANSLIT:;
#SUBTITLETRANSLIT:;
#ARTISTTRANSLIT:;
#GENRE:;
#CREDIT:;
#BANNER:../banner.png;
#BACKGROUND:../bg.png;
#LYRICSPATH:;
#CDTITLE:;
#MUSIC:Extravaganza.ogg;
#OFFSET:-0.070;
#SAMPLESTART:30.767;
#SAMPLELENGTH:7.836;
#SELECTABLE:YES;
#BPMS:0.000=195.000;
#STOPS:;
#BGCHANGES:;
#KEYSOUNDS:;

//---------------dance-single - Nix----------------
#NOTES:
     dance-single:
     Nix:
     Hard:
     9:
     0.727,0.726,0.272,0.000,0.178:
0000
0000
0000
0000
,
0000
0000
0000
0000
,
0000
0000
0000
0000
,
0000
0000
0000
0000
,
0010
0000
0001
0000
1000
0000
0010
0000
0100
0000
0001
0000
1000
0100
1000
0000
,
0001
0000
0100
0000
0010
0000
1000
0000
0100
0000
1000
0000
0001
0100
0001
0000
,
1000
0000
0010
0000
0100
0000
0001
0000
0010
0100
0010
0000
0001
0000
1000
0000
,
0010
0000
0100
0000
0010
0000
1000
0000
0100
0010
0100
0000
1000
0000
0001
0000
,
0010
0000
0100
0000
1000
0000
0100
0000
0010
0000
0001
0000
1000
0010
1000
0000
,
0100
0000
0010
0000
0001
0000
0100
0000
0010
0000
1000
0000
0001
0010
0001
0000
,
1000
0000
0010
0000
0100
0000
0010
0000
1000
0001
1000
0000
0100
0000
0010
0000
,
0001
0000
1000
0000
0010
0000
0100
0000
0001
1000
0001
0000
0100
0000
0010
0000
,
0100
0000
0001
0000
1000
0000
0100
0000
0010
0000
0001
0000
1000
0010
1000
0000
,
0001
0000
0010
0000
0100
0000
1000
0000
0010
0000
1000
0000
0001
0010
0001
0000
,
1000
0000
0100
0000
0010
0000
0001
0000
0100
0010
0100
0000
0001
0000
1000
0000
,
0100
0000
0010
0000
0100
0000
1000
0000
0010
0100
0010
0000
1000
0000
0001
0000
,
0100
0000
0010
0000
1000
0000
0010
0000
0100
0000
0001
0000
1000
0100
1000
0000
,
0010
0000
0100
0000
0001
0000
0010
0000
0100
0000
1000
0000
0001
0100
0001
0000
,
1000
0000
0100
0000
0010
0000
0100
0000
1000
0001
1000
0000
0010
0000
0100
0000
,
0001
0000
1000
0000
0100
0000
0010
0000
0001
1000
0001
0000
0010
0000
0100
0000
,
1100
0000
0000
0000
,
0001
0000
1000
0000
0100
0000
1000
0000
0001
0000
1000
0000
0100
0000
0010
0001
,
0010
1100
0010
1100
,
0001
0000
1000
0000
0010
0000
1000
0000
0001
0000
1000
0000
0010
0000
0100
0001
,
0100
1010
0100
1010
,
0100
0000
0001
0000
0010
0000
0001
0000
0100
0000
0001
0000
0010
0000
0100
1000
,
0100
0011
0100
0011
,
0100
0000
1000
0000
0010
0000
1000
0000
0100
0000
1000
0000
0010
0000
0100
0001
,
0100
1010
0100
1010
,
1000
0000
0010
0000
0100
0000
0010
0000
1000
0000
0010
0000
0100
0000
0001
0010
,
0001
1100
0001
1100
,
0001
0000
0010
0000
0100
0000
0010
0000
0001
0000
0010
0000
0100
0000
1000
0010
,
1000
0101
1000
0101
,
0001
0100
0010
0100
1000
0100
0010
0100
,
0101
0110
1001
0110
,
1001
0101
0110
1100
,
0110
0011
0110
1001
,
1000
0000
0000
0000
,
0001
0000
0000
0000
,
1000
0000
0001
0001
0000
0000
0000
0000
,
0001
0000
1000
1000
0000
0000
0000
0000
,
1000
0000
0001
0001
0000
0100
0000
0010
,
1000
0000
0001
0001
0000
0100
0000
0010
,
1000
0000
0001
0001
0000
0100
0000
0010
,
1000
0000
0001
0001
0000
0100
0000
0010
,
1000
0000
0001
0001
0000
0010
0000
0001
,
0100
0000
0010
0010
0000
0100
0000
0001
,
1000
0000
0010
0010
0000
0100
0000
0010
,
1000
0000
0100
0100
0000
0000
0000
0000
,
1000
0000
0000
0000
,
0010
0000
0000
0000
,
0100
0000
0000
0000
,
0001
0000
0000
0000
,
0001
0000
1000
0000
0010
1000
0100
1000
,
0010
0000
0100
0000
0001
1000
0010
1000
,
0100
0000
0010
0000
0001
0100
0010
0100
,
0001
0000
1000
0000
0010
0100
0001
0100
,
0010
0000
0000
0000
1000
0000
0000
0000
0001
0000
1000
0100
1000
0100
1000
0100
,
1000
0000
0000
0000
0010
0000
0000
0000
0100
0000
0001
1000
0001
1000
0001
1000
,
0001
0000
0000
0000
1000
0000
0000
0000
0010
0000
0100
0001
0100
0001
0100
0001
,
0010
0000
0000
0000
0100
0000
0000
0000
1000
0000
0010
1000
0010
1000
0010
1000
,
0100
0000
1000
0000
0010
0100
1000
0100
,
0010
0000
1000
0000
0010
0001
0010
0100
,
0001
0000
1000
0000
0100
0010
1000
0010
,
0001
0000
0100
0000
0010
1000
0100
0001
,
0100
0000
1000
0000
0001
0100
0010
0100
,
0000
0001
0000
1000
,
0001
0000
1000
1000
0000
0010
0000
0100
,
0001
0000
0010
0100
0000
1000
0001
0000
,
0010
0100
1000
0100
0001
0100
1000
0010
,
0001
0010
0100
0001
1000
0100
0001
0100
,
1000
0010
0100
1000
0100
0010
0001
0010
,
0001
1000
0100
0001
1000
0010
0001
0010
,
1000
0010
0100
0001
0010
1000
0001
0100
,
0010
0001
0100
0010
0001
1000
0100
0001
,
0010
1000
0010
0001
0100
0001
0010
1000
,
0001
0100
1000
0001
0100
1000
0100
0010
,
1010
0000
0000
0000
;

//---------------dance-single - ANOTHER----------------
#NOTES:
     dance-single:
     ANOTHER:
     Edit:
     14:
     -1.000,-1.000,-1.000,-1.000,-1.000:
0000
0000
0000
0000
,
0000
0000
0000
0000
,
0000
0000
0000
0000
,
0000
0000
0000
0000
,
0001
0000
0100
0000
0010
0000
1000
0000
0100
0000
0010
0000
0001
0100
0010
0000
,
0100
0000
0001
0000
0010
0000
0100
1000
0001
1000
0010
0000
0100
0010
1000
0001
,
0010
0000
0001
0000
1000
0000
0010
0000
1000
0001
0100
0001
0010
0100
0010
0000
,
0001
0000
0100
0000
0010
0000
1000
0100
0010
0001
0010
0001
0100
0000
0010
0000
,
0100
0000
0001
0000
0010
0000
1000
0000
0001
0000
0100
0000
1000
0010
1000
0000
,
0001
0000
0100
0000
1000
0000
0100
0001
0010
0100
1000
0000
0010
0100
0001
0010
,
0100
0000
0001
0000
0100
0000
1000
0000
0001
0010
1000
0010
0001
1000
0100
0000
,
0010
0000
0001
0000
0100
0000
1000
0100
0010
0001
0010
0100
0001
0000
0010
0000
,
0011
0000
0001
0000
1000
0000
0100
0000
0001
0000
1000
0000
0010
0001
1000
0000
,
0010
0000
0001
0000
1000
0000
0001
0010
1000
0001
0100
0000
1000
0001
1000
0100
,
0001
0000
1000
0000
0100
0000
0010
0000
1000
0001
0100
0010
0001
1000
0010
0000
,
0100
0000
1000
0000
0001
0000
0010
0100
0001
0010
1000
0010
0001
0000
1000
0000
,
0101
0000
1000
0000
0010
0000
0100
0000
1000
0000
0001
0000
0010
1000
0001
0000
,
0010
0000
0100
0000
0001
0000
1000
0010
0100
1000
0010
0000
0100
1000
0001
0010
,
0100
0000
0001
0000
0010
0000
0100
0000
0001
1000
0010
0100
1000
0010
0100
0000
,
1000
0000
0001
0000
0010
0000
1000
0100
0001
1000
0010
0001
0100
0000
0010
0000
,
2002
0000
0000
0000
0000
0000
0000
0000
0000
0000
0000
0000
0010
0000
0000
0000
0000
0000
0000
0000
0000
3003
0000
0001
,
0200
0010
0302
0010
2003
0100
3002
0010
,
0103
0000
0000
1000
0000
0000
1010
0000
0000
0001
0000
0000
0101
0000
0000
1000
0000
0000
1010
0000
0000
0001
0000
1000
,
0200
0010
2300
0010
3002
0100
2003
0010
,
3100
0000
0000
0001
0000
0000
0011
0000
0000
1000
0000
0000
1100
0000
0000
0001
0000
0000
0011
0000
0000
1000
0000
0001
,
0200
1000
0302
0100
0023
1000
0230
1000
,
0310
0000
0000
0001
0000
0000
2001
0000
0000
3100
0000
0000
1002
0000
0000
0013
0000
0000
2001
0000
0000
3100
0000
1000
,
0020
0001
2030
0010
3200
0001
0320
0001
,
0130
0000
0000
1000
0000
0000
1002
0000
0000
0013
0000
0000
2001
0000
0000
3100
0000
0000
1002
0000
0000
0013
0000
0001
,
1000
0100
0001
0100
1000
0010
0001
0010
,
0110
0000
0000
0001
0000
0000
0110
0000
0000
1000
0000
0000
0110
0000
0000
0001
0000
0000
0110
0000
0000
1000
0000
0001
,
1000
0100
0001
0100
1000
0020
1000
0100
,
0001
0100
1000
0100
0001
0230
1000
0010
,
0001
0010
1000
0010
0001
0310
1000
0001
,
0102
1003
2100
3001
0012
1003
2010
3001
,
0102
0013
2100
3010
0012
0103
2010
3100
,
0102
0013
2010
3100
0012
0103
2100
3010
,
1000
0000
0000
1000
0000
0000
1000
0000
0000
0000
1000
0000
0000
0000
1000
0000
,
0010
0000
0000
0010
0000
0000
0010
0000
0000
0000
0010
0000
0000
0000
0010
0000
,
0100
0000
0000
0100
0000
0000
0100
0000
0000
0000
0100
0000
0000
0000
0100
0000
,
0001
0000
0000
0001
0000
0000
0001
0000
0000
0000
0001
0000
0000
0000
0001
0000
,
0010
0000
0000
0010
0000
0000
0010
0000
0000
0000
0010
0000
0000
0000
0010
0000
,
0100
0000
0000
0100
0000
0000
0100
0000
0000
0000
0100
0000
0000
0000
0100
0000
,
1000
0000
0000
1000
0000
0000
1000
0000
0000
0000
1000
0000
0000
0000
1000
0000
,
0001
0000
0000
0001
0000
0000
0001
0000
0000
0000
0001
0000
0000
0000
0001
0000
,
1200
0000
0000
0010
0000
0000
0001
0000
0000
0000
0010
0000
0000
0000
1300
0000
,
0021
0000
0000
0100
0000
0000
1000
0000
0000
0000
0100
0000
0000
0000
0031
0000
,
2010
0000
0000
0001
0000
0000
0100
0000
0000
0000
0001
0000
0000
0000
3010
0000
,
0102
0000
0000
1000
0000
0000
0010
0000
0000
0000
1000
0000
0000
0000
0103
0000
,
4004
0000
0000
0000
,
0000
0000
0000
0000
,
0000
0000
0000
0000
,
0000
0000
0000
3003
,
1000
0000
0000
0000
0001
0000
0000
0001
0100
0010
0100
1000
0100
0001
1000
0000
,
0001
0000
0000
0000
1000
0000
0000
1000
0100
0001
0100
0010
0001
0100
0010
0000
,
1000
0000
0000
0000
0010
0000
0000
0010
0100
0010
0001
0010
0100
0001
0010
0000
,
0001
0000
0000
0000
0100
0000
0000
0100
1000
0100
0010
1000
0100
0010
0001
0000
,
2001
0000
0000
0000
3100
0000
0010
0001
0100
0010
1000
0001
0010
1000
0010
0000
,
1002
0000
0000
0000
0103
0000
0010
1000
0010
0001
0010
0100
1000
0100
0001
0000
,
2001
0000
0000
0000
3010
0000
0100
1000
0100
0001
0010
0100
0001
0100
0010
0000
,
1002
0000
0000
0000
0013
0000
0100
1000
0010
0001
0010
1000
0100
0010
0001
0000
,
0200
0000
0010
0000
1000
0000
0000
0301
1000
0001
0010
1000
0010
0001
1000
0000
,
0020
0000
0100
0000
0001
0000
0000
1030
0001
1000
0100
0001
0100
1000
0001
0000
,
0020
0000
1000
0000
0001
0000
0000
0130
0001
0100
1000
0001
0010
1000
0010
0000
,
0200
0000
0001
0000
1000
0000
0000
0310
1000
0010
0001
1000
0100
0001
0100
0000
,
0010
0000
0000
0000
0001
0000
0000
0001
1000
0010
0001
1000
0100
0001
1000
0000
,
0100
0000
0010
0000
0000
0000
0010
0000
0000
0000
0000
0100
1000
0000
0000
0000
0000
0000
0001
0000
0000
0000
0000
0000
,
0100
0000
0000
0100
0000
0000
0100
0000
0000
0000
0100
0000
0000
0000
0100
0000
,
0001
0000
1000
0100
0000
0010
0001
0000
,
1000
0100
0001
0000
1000
0010
0001
0000
1000
0100
0001
0100
1000
0100
0001
0000
,
1000
0010
0001
0000
1000
0100
0001
0000
1000
0010
0001
0010
1000
0010
0001
0000
,
1000
0010
0001
0000
1000
0100
0001
0000
1000
0010
0001
0010
1000
0010
0001
0000
,
1000
0100
0001
0000
1000
0010
0001
0000
1000
0100
0001
0100
1000
0100
0001
0000
,
0010
0001
0100
0000
0010
1000
0100
0000
0010
0001
0100
0001
0010
0001
0100
0000
,
0010
1000
0100
0000
0010
0001
0100
0000
0010
1000
0100
1000
0010
1000
0100
0000
,
1000
0100
0001
0000
1000
0010
0001
0000
1000
0010
0001
1000
0100
0001
0010
0000
,
0001
0100
1000
0000
0001
0010
1000
0000
0001
0010
1000
0001
0100
1000
0010
0000
,
2002
0000
3003
0000
;
