#TITLE:EXH*NOTES;
#SUBTITLE:;
#ARTIST:sanodg;
#TITLETRANSLIT:;
#SUBTITLETRANSLIT:;
#ARTISTTRANSLIT:;
#GENRE:;
#CREDIT:;
#BANNER:../banner.png;
#BACKGROUND:../bg.png;
#LYRICSPATH:;
#CDTITLE:;
#MUSIC:exh-notes.ogg;
#OFFSET:-0.612;
#SAMPLESTART:24.610;
#SAMPLELENGTH:12.000;
#SELECTABLE:YES;
#BPMS:0.000=160.000,188.000=40.000,189.000=160.000;
#STOPS:;
#BGCHANGES:;
#KEYSOUNDS:;

//---------------dance-single - Nix----------------
#NOTES:
     dance-single:
     Nix:
     Challenge:
     11:
     0.847,0.854,0.324,0.736,0.764:
0000
0000
0000
0000
,
0000
0000
0000
0000
,
0000
0000
0000
0000
,
0000
0000
0000
0000
,
0000
0000
0000
0000
,
0000
0000
0000
0000
,
0000
0000
0000
0000
,
0000
0000
0000
0000
,
0002
0000
0000
0203
0000
0000
0000
0000
,
0320
0000
0000
2030
0000
0000
0000
0000
,
3200
0000
0000
0320
0000
0000
0000
0000
,
0000
0000
0000
0030
0011
0000
0101
0000
,
2000
0000
0000
3020
0000
0000
0000
0000
,
0230
0000
0000
0302
0000
0000
0000
0000
,
0023
0000
0000
0230
0000
0000
0000
0300
,
1000
0000
0010
0000
0100
0000
0001
0000
0010
0000
0100
0000
1000
0001
1000
0001
,
0010
0000
0000
0000
0011
0000
0010
0001
0010
0001
0010
0000
0100
1000
0100
1000
,
0100
0000
0100
0000
1000
0010
0100
0001
1000
0010
0100
0001
1000
0001
0100
0000
,
0010
1000
0001
0000
0001
0000
0010
0001
0010
0000
0100
1000
0100
1000
0100
0000
,
0010
0001
0010
0001
1000
0001
1000
0001
4000
3000
0010
0000
0100
0000
0001
0000
,
0101
0000
0000
0000
1010
0000
0010
1000
0010
1000
0010
0000
1000
0100
1000
0100
,
1000
0000
1000
0000
0001
0010
0100
1000
0001
0010
0100
1000
0100
0010
0001
0000
,
1000
0010
0100
0000
0100
0000
0001
1000
0001
0000
1000
0010
1000
0010
1000
0000
,
0001
0100
0010
1000
0010
0100
0001
0010
0400
0300
0010
0000
0100
0000
0010
0000
,
0110
0000
0000
0000
1100
0000
0100
1000
0100
1000
0100
0000
0010
0001
0010
0001
,
1000
0000
1000
0000
0010
1000
0010
1000
0001
0100
0001
0100
0001
0100
0010
0000
,
1000
0010
0100
0000
0100
0000
0001
0010
0001
0000
1000
0100
1000
0100
1000
0000
,
0001
0100
0010
1000
0001
0100
0010
1000
0004
0003
0100
0000
0010
0000
1000
0100
,
1000
0000
0000
0000
0101
0000
0100
0001
0100
0001
0100
0000
0010
1000
0010
1000
,
0001
0000
0001
0000
0010
0100
1000
0001
0010
0100
1000
0001
0010
0100
1000
0000
,
0001
0100
0001
0000
0001
0000
1000
0010
1000
0000
0010
0100
0001
0100
0010
0000
,
1000
0010
1000
0010
1000
0010
1000
0010
0400
0000
0000
0000
0300
0000
0001
0000
,
0021
0000
0000
0230
0000
0000
2300
0000
,
0000
3020
0000
0000
0230
0000
0000
0302
,
0000
0000
1000
0000
1003
0000
0010
1000
0010
0000
0100
0001
0100
0001
0100
0000
,
0010
1000
0010
1000
0001
1000
0001
1000
0004
0003
0010
0000
0010
0000
0000
0000
,
0002
0000
0000
0203
0000
0000
0320
0000
,
0000
0230
0000
0000
0302
0000
0000
0023
,
0000
0000
0100
0000
0130
0000
1000
0001
1000
0000
0010
0100
0010
0100
0001
0000
,
1000
0010
1000
0010
0100
0001
0100
0001
4000
3000
1000
0000
1000
0000
0000
0000
,
0002
0000
0000
0203
0000
0000
0320
0000
,
0000
0032
0000
0000
0023
0000
0000
2030
,
0000
0000
0100
0000
3100
0000
0010
0100
0010
0000
0001
0010
0001
0010
0100
0000
,
1000
0010
1000
0010
1000
0001
1000
0001
0040
0030
0100
0000
0100
0000
0000
0000
,
0020
0000
0000
2030
0000
0000
3002
0000
,
0000
0203
0000
0000
0320
0000
0000
0032
,
0000
0000
0100
0000
0103
0000
0010
1000
0010
0000
0100
0001
1000
0010
0100
0000
,
0001
0000
MMMM
0000
2100
0000
0000
0000
3001
0000
1000
0100
1000
0100
1000
0000
,
0001
0100
0001
0100
0001
0000
0001
0000
1000
0010
1000
0010
1000
0010
1000
0010
,
1000
0001
0010
0000
0001
1000
0100
0000
0100
0000
0010
0001
0010
0000
0100
1000
,
0100
1000
0100
0000
0010
0001
0010
0001
1000
0001
1000
0001
0400
0300
0010
0000
,
0100
0000
0000
0000
0000
0000
0000
0000
1010
0000
0001
0010
0001
0010
0001
0000
,
0100
0010
0100
0010
1000
0000
1000
0000
0001
0100
0001
0100
0010
0100
0010
0100
,
0010
0100
0001
0000
1000
0100
0010
0000
0010
0000
0001
0100
0010
0000
1000
0010
,
1000
0010
0100
0000
0002
0000
0023
0000
0230
0000
2300
0000
3020
0000
0030
0000
,
0020
0000
0030
0000
0110
0000
0000
0000
0100
0000
0001
1000
0001
1000
0001
0000
,
0010
0001
0010
0001
0010
0000
0010
0000
0100
1000
0100
1000
0100
1000
0100
1000
,
0100
1000
0001
0000
0100
0001
0100
0000
0100
0000
0010
1000
0010
0000
0100
0001
,
0100
0001
1000
0000
0100
0010
0100
0010
0001
1000
0100
0010
0004
0003
1000
0000
,
0001
0000
1000
0100
1000
0000
0000
0000
1010
0000
0100
0010
0100
0010
0100
0000
,
0001
0100
0001
0100
0001
0000
0001
0000
1000
0100
1000
0100
0010
0001
0010
0001
,
0010
0001
1000
0000
0010
0100
0001
0000
0001
0000
1000
0100
1000
0000
0001
0100
,
0001
0100
0001
0000
1000
0010
1000
0010
1000
0010
1000
0001
0010
0000
0011
0000
,
2002
0MM0
3003
0000
2020
0000
0000
0000
3030
0000
0220
0000
0000
0000
0330
0000
,
0202
0000
0303
2002
0000
3003
2200
0000
,
3300
0000
0120
0000
0000
0M00
0031
0000
0001
0000
0100
0010
1000
0000
0001
0100
,
0001
0100
0010
0000
1000
0100
0010
0001
0010
0100
0010
0001
4000
3000
0001
0000
,
0100
0000
0220
0000
0330
2020
0000
3030
,
2002
0000
3003
0022
0000
0033
0220
0000
,
0330
0000
1200
0000
0000
M000
0310
0000
0010
0000
0001
0010
0001
0000
1000
0010
,
1000
0010
0100
0000
0001
0100
0010
1000
0010
0100
0001
1000
0400
0300
0010
0000
,
0100
0000
2200
0000
3300
2002
0000
3003
,
0202
0000
0303
0220
0000
0330
2020
0000
,
3030
0000
2001
0000
0000
000M
3010
0000
0010
0000
0100
0001
0100
0000
0010
1000
,
0001
1000
0100
0000
0010
0001
0010
0100
1000
0001
0100
0010
4000
3000
0001
0000
,
1000
0000
0202
0000
0303
0220
0000
0330
,
2020
0000
3030
2002
0000
3003
0022
0000
,
0033
0000
0210
0000
0000
00M0
1300
0000
1000
0000
0010
1000
0100
0000
0010
0001
,
0100
0010
1000
0000
0000
0000
0001
0000
0100
0000
10MM
0000
0100
0000
0001
0000
,
0010
0100
2002
0000
0000
0000
0000
0000
,
0000
0000
0000
0000
,
0000
3003
0000
0000
;
