#TITLE:Cruel Whole;
#SUBTITLE:(Abelcain Remix);
#ARTIST:Venetian Snares;
#TITLETRANSLIT:;
#SUBTITLETRANSLIT:;
#ARTISTTRANSLIT:;
#GENRE:;
#CREDIT:;
#BANNER:../banner.png;
#BACKGROUND:../bg.png;
#LYRICSPATH:;
#CDTITLE:;
#MUSIC:ABELCAIN.ogg;
#OFFSET:-0.092;
#SAMPLESTART:74.222;
#SAMPLELENGTH:12.000;
#SELECTABLE:YES;
#BPMS:0.000=165.000,205.500=82.500,206.500=165.000,212.500=82.500,213.500=165.000,219.500=82.500,220.500=165.000,226.500=82.500,227.500=165.000,233.500=82.500,234.500=165.000,240.500=82.500,241.500=165.000,247.500=82.500,248.500=165.000,254.500=82.500,255.500=165.000;
#STOPS:;
#BGCHANGES:;
#KEYSOUNDS:;

//---------------dance-single - Nix----------------
#NOTES:
     dance-single:
     Nix:
     Challenge:
     11:
     0.851,0.967,0.628,0.216,0.981:
0000
0000
0000
0000
,
0000
0000
0000
0000
,
0000
0000
0000
0000
,
M00M
0000
0000
0000
,
0000
0000
0000
0000
,
MM00
0000
0000
0000
0000
0000
0000
0000
0000
0000
0000
0000
0000
00MM
0000
0000
0000
0000
0000
0000
0000
0000
0000
0000
0000
0000
0000
0000
0000
0000
0000
0000
,
0000
0000
0000
0000
,
MMMM
0000
0000
MMMM
0000
0000
0000
0000
,
0000
0000
0000
0000
,
1100
0000
1000
0100
1000
0000
0011
0000
0001
0010
0001
0000
0000
0000
1010
0000
,
1000
0010
1000
0000
0101
0000
0001
0100
0001
0000
0000
0000
1100
0000
0100
1000
,
0100
0000
0011
0000
0010
0001
0010
0000
0000
0000
1010
0000
0010
1000
0010
0000
,
0101
0000
0100
0001
0100
0000
0000
0000
1001
0000
1000
0100
0010
0000
0011
0000
,
0001
0010
0100
0000
0000
0000
1100
0000
1000
0001
0100
0000
0110
0000
0010
1000
,
0001
0000
0000
0000
1001
0000
1000
0010
0100
0000
0101
0000
0001
0100
0010
0000
,
0000
2020
0000
0000
0000
0000
3030
MMMM
,
1001
0000
0000
0110
0000
0000
1001
0000
0001
1000
0010
0000
0000
0000
1010
0000
,
0100
0001
0010
0000
0011
0000
0100
1000
0010
0000
0000
0000
0110
0000
1000
0001
,
0010
0000
0110
0000
0001
1000
0010
0000
0000
0000
0101
0000
0001
1000
0100
0000
,
1100
0000
1000
0001
0100
0000
0000
0000
0101
0000
0000
1010
0000
0000
0101
0000
,
0010
1000
0100
0000
0000
0000
1100
0000
0010
0001
0100
0000
0101
0000
0010
1000
,
0100
0000
0000
0000
0012
0000
0103
0010
1000
0000
2020
0000
0000
0000
3030
0000
,
0000
0000
1100
0000
0000
1000
0010
0010
0001
0000
MMMM
0000
1101
0000
MMMM
0000
,
0101
0000
1000
0010
1000
0001
0010
0000
0100
1000
0100
0010
0001
0000
1001
0000
,
1000
0010
0100
0001
1000
0000
0001
0100
0001
1000
0100
0000
0110
0000
0010
0001
,
1000
0100
1000
0000
0001
0100
0010
1000
0001
0000
0101
0000
1000
0100
0010
0100
,
1000
0000
0001
0010
0001
0100
0001
0000
0011
0000
1000
0100
0010
0001
0100
0000
,
0001
0010
0100
1000
0010
0000
1010
0000
0100
0001
0010
0001
1000
0000
0010
0100
,
0001
1000
0100
0000
0110
0000
0010
0001
1000
0001
0100
0000
0010
1000
0100
1000
,
0001
0000
0011
0000
0010
0100
1000
0010
0100
0001
1000
0001
0010
0100
1000
0001
,
0010
0000
0100
1000
0100
0010
0001
0000
1000
0010
0100
0001
0100
0000
0101
0000
,
0001
0010
0100
1000
0001
0000
1000
0100
0010
0001
1000
0000
1010
0000
0010
1000
,
0001
1000
0100
0000
0010
0001
0100
0001
1000
0000
1001
0000
0001
0100
0001
0010
,
0100
0000
0010
0100
1000
0001
0100
0000
0110
0000
0010
1000
0001
1000
0010
0000
,
0100
0001
1000
0001
0010
0000
0110
0000
0100
0010
0001
0010
0100
0000
0010
0001
,
0100
0010
1000
0000
1010
0000
0010
0100
0001
0010
0100
0000
1000
0001
0100
0001
,
0010
0000
0110
0000
0100
1000
0001
1000
0040
0000
0000
0000
0000
0000
0030
0000
,
1000
0100
1000
0100
0000
0000
0100
1000
0100
1000
0000
0000
0100
1000
0001
0100
,
0001
0100
0000
0000
0100
0001
0100
0001
0000
0000
0100
0001
1000
0010
1000
0010
,
0000
0000
0010
1000
0010
1000
0000
0000
0010
1000
0001
0010
0001
0010
0000
0000
,
0010
0001
0010
0001
0000
0000
0100
0001
0010
0000
0000
1001
0000
0000
0100
0000
,
0000
1001
0000
0000
0010
1000
0001
0000
0000
0110
0000
0000
1000
0000
0000
0110
,
0000
0000
0001
1000
0100
0000
0000
1001
0000
0000
0010
0000
0000
1001
0000
0000
,
0100
0001
1000
0000
0000
0110
0000
0000
0001
0000
0000
0110
0000
0000
1000
0001
,
0010
0100
1000
0010
0000
0000
0010
1000
0100
0010
0000
0000
0001
1000
0010
0100
,
0001
0010
0000
0000
0010
0001
0100
0010
0000
0000
1000
0010
0100
0001
0010
0100
,
0000
0000
0100
0010
0001
0100
0000
0000
0001
1000
0010
0100
0001
0010
0000
0000
,
0010
0001
0100
0010
0000
0000
0001
1000
0010
0000
0000
2100
0000
0M00
3010
0000
,
0000
0102
0000
0M00
0013
0001
0100
0000
0000
2010
0000
00M0
3100
0000
0000
0012
,
0000
00M0
0103
0001
0010
0000
0000
2100
0000
0M00
3010
0000
0000
0102
0000
0M00
,
0013
0001
0100
0010
0100
0011
0000
0000
0200
0000
0000
0000
0000
0000
0300
0000
,
1101
0000
0100
0001
0000
0000
0020
0000
MM0M
0000
0030
0000
0100
0000
0100
1000
,
0000
0000
0001
0000
0001
0100
0000
0000
0001
0010
1000
0010
0001
0000
1000
0100
,
0000
0000
0020
0000
MM0M
0000
0030
0000
0100
0000
1000
0001
0000
0000
1000
0000
,
0001
0010
0000
0000
0001
0100
0100
1000
0001
0000
0001
0010
0000
0000
0200
0000
,
M0MM
0000
0300
0000
1000
0000
1000
0010
0000
0000
0100
0000
0100
0001
0000
0000
,
1000
0100
0001
0100
1000
0000
0001
0010
0000
0000
0200
0000
M0MM
0000
0300
0000
,
1000
0000
0010
0100
0000
0000
0001
0000
0010
0100
0000
0000
1000
0010
0010
0001
,
0100
0000
0100
0010
0000
0000
2000
0000
0MMM
0000
3000
0000
0001
0000
0001
0010
,
0000
0000
0100
0000
0100
1000
0000
0000
0001
0100
1000
0100
0001
0000
1000
0010
,
0000
0000
2000
0000
0MMM
0000
3000
0000
0100
0000
0010
0001
0000
0000
1000
0000
,
0100
0010
0000
0000
0001
0100
0100
1000
0010
0000
0010
0100
0000
0000
0002
0000
,
MMM0
0000
0003
0000
1000
0000
1000
0010
0000
0000
0001
0000
0001
0010
0000
0000
,
1000
0010
0001
0010
1000
0000
0100
0010
0000
0000
0002
0000
MMM0
0000
0003
0000
,
1000
0000
0001
2000
0002
0000
0000
0000
0MM0
0000
0000
0000
0000
0000
0000
0000
,
0000
0M10
0000
0000
00M0
0000
0000
0000
,
0000
0MM0
0000
0000
,
0000
0000
0000
00M0
,
3003
0000
0000
0000
;
