#TITLE:Cookie Thumper;
#SUBTITLE:;
#ARTIST:Die Antwoord;
#TITLETRANSLIT:;
#SUBTITLETRANSLIT:;
#ARTISTTRANSLIT:;
#GENRE:;
#CREDIT:;
#BANNER:../banner.png;
#BACKGROUND:../bg.png;
#LYRICSPATH:;
#CDTITLE:;
#MUSIC:Cookie Thumper.ogg;
#OFFSET:0.003;
#SAMPLESTART:48.350;
#SAMPLELENGTH:12.000;
#SELECTABLE:YES;
#BPMS:0.000=134.000,107.000=67.000,143.000=134.000;
#STOPS:92.000=0.448
;
#BGCHANGES:;
#KEYSOUNDS:;

//---------------dance-single - Nix----------------
#NOTES:
     dance-single:
     Nix:
     Challenge:
     10:
     0.631,0.711,0.437,0.164,0.665:
0000
0000
0000
0000
,
0000
0000
0000
0000
,
0000
0000
0000
0000
,
0000
0000
0000
0000
,
0000
0000
0000
0000
,
0000
0000
0000
0000
,
2001
0000
3100
1000
0010
0100
0000
0110
,
0000
0100
0001
0010
1000
0000
0010
0000
,
0011
0000
0001
0100
1000
0100
0000
0110
,
0000
0010
1000
0100
0010
0000
0001
0000
,
1000
0000
1000
0100
0000
0100
0010
0000
0001
0000
0100
0010
1000
0000
0100
0000
,
0010
0001
0010
0100
0000
0100
1000
0010
0100
0000
0001
0000
1001
0000
0000
0001
,
0100
0010
1000
0010
0000
0010
0100
0001
0010
0000
0100
0000
1100
0000
0000
1000
,
0020
0000
0230
0000
0301
0100
0001
0000
0101
0000
1001
0000
2020
0000
3030
0000
,
0120
0000
0130
0001
0100
0010
1000
0000
1100
0000
0110
0000
0011
0000
0000
0000
,
0001
0000
0100
0010
1000
0100
0010
0001
1000
0000
0010
0000
0100
0000
0001
0000
,
0010
0100
1000
0001
0000
0001
1000
0010
0100
0000
0001
0000
0020
0000
0000
0000
,
0030
0000
0000
0000
0100
1000
0100
0010
0001
0000
0100
0000
0110
0000
0000
0000
,
1000
0010
0100
0001
1000
0100
1000
0001
0010
0000
0100
0000
0020
0000
0031
0000
,
0100
0010
0000
1000
0000
0010
0000
0010
0100
0000
0001
0000
1000
0000
0100
0010
,
0001
0010
0100
1000
0000
1000
0001
0100
0010
1000
0010
0000
0100
0000
0000
0000
,
0001
0010
0000
1000
0000
0010
0000
0100
1000
0010
0100
0000
0001
0000
0000
0000
,
1000
0100
0010
0100
0001
0100
0010
0000
0022
0000
0000
0000
0033
0000
1000
0000
,
1010
0000
0010
0100
0001
0000
1000
0000
1100
0000
0000
0000
0100
0000
0100
0010
,
0001
0010
0100
1000
0001
0000
0100
0000
0020
0000
0000
0000
0030
0000
0100
0000
,
0001
0000
0000
0000
1000
0000
1000
0010
0100
0001
0100
0000
0220
0000
0330
0000
,
2002
0000
0000
0000
0000
0000
3003
0000
0001
0000
1000
0001
1000
0000
0000
1000
,
0001
0100
0000
0110
0000
0010
1000
0100
0001
0000
0100
0000
1100
0000
0000
1000
,
0010
0100
0000
0110
0000
0100
0001
0010
1000
0000
0010
0000
0110
0000
0100
1000
,
0010
0100
0000
0101
0000
0001
0010
1000
0001
0000
0100
0000
1100
0000
0100
0010
,
0001
0000
0100
0000
0000
0000
0101
0000
0000
0000
0001
0000
1000
0010
1000
0010
1000
0000
0001
0100
0001
0000
0001
0000
0101
0000
0000
0000
0000
0000
0100
0000
,
0010
1000
0000
1100
0000
0100
0001
1000
0010
0000
0100
0000
1100
0000
1000
0010
,
0100
0001
0000
0011
0000
0010
1000
0010
0001
0000
0100
0000
0110
0000
0010
0001
,
0010
1000
0000
1010
0000
0010
0001
1000
0100
0000
0001
0000
1001
0000
1000
0100
,
0001
0000
0100
0000
0000
0000
1100
0000
0000
0000
1000
0000
0001
0010
0001
0010
0001
0000
1000
0100
1000
0000
1000
0000
0200
0000
0000
0000
0000
0000
M0MM
0000
,
0000
0000
0000
0000
0000
0000
M0MM
0000
0000
0000
0000
0000
0000
0000
M0MM
0000
0000
0000
0000
0000
0300
1000
0001
0000
0101
0000
0000
0000
0000
0000
0000
0000
,
0000
0000
0101
1001
1010
1000
0100
0010
,
0001
0000
0100
0001
1000
0000
0010
0000
0110
0000
0000
0000
0100
0001
1000
0000
,
0100
0000
0000
0010
0000
0000
0001
0000
0000
0010
0000
0000
0100
0000
0000
0000
0000
0000
1000
0000
0000
0000
0000
0000
0010
0000
0000
0000
1000
0000
0100
0000
0000
0000
0000
0000
1100
0000
0000
0000
0000
0000
0000
0000
0000
0110
0000
0000
,
0000
0000
0011
0000
0000
1000
0001
0000
1011
0000
0000
1000
0100
0000
0200
0000
,
0310
0000
0001
0000
0100
0000
1000
0000
0100
0000
0000
0000
0001
0010
0000
1000
,
0000
0001
0000
0100
0010
0000
0001
0000
0100
0000
0000
0000
0010
1000
0000
0001
,
0000
0100
0010
1000
0100
0000
0010
0000
0001
0000
0000
0000
1000
0100
0000
0001
,
0000
0100
1000
0010
1000
0000
0100
0000
0010
0000
0000
0010
0001
0000
0100
0000
,
0010
0000
1000
0010
1000
0000
0100
0000
0010
0000
0000
0000
0010
0000
0100
1000
,
0001
0100
0010
1000
0100
0000
0010
0000
0001
0000
0000
1000
0100
1000
0010
0000
,
0100
0001
1000
0000
0100
0000
0010
0000
0001
0000
0000
0000
0101
0000
0110
0000
,
0010
0000
1000
0010
1000
0010
0100
0000
0001
0000
0010
0000
1000
0000
0010
0000
,
0100
0000
1000
0000
0010
0100
0010
0000
1000
0000
0000
0000
0101
0000
0001
0000
,
0010
0000
0100
1000
0001
1000
0010
0000
0100
0000
0110
0000
1010
0000
0001
0010
,
0100
1000
0100
0010
0001
0000
1000
0000
0010
0000
0100
0000
0001
0010
0001
0000
,
0010
0100
1000
0010
0200
0000
0000
0000
,
0300
0000
0000
0000
;
