#TITLE:Best Before 10-11-1992;
#SUBTITLE:(Streams of Pleasure special);
#ARTIST:Shitmat;
#TITLETRANSLIT:;
#SUBTITLETRANSLIT:;
#ARTISTTRANSLIT:;
#GENRE:;
#CREDIT:;
#BANNER:../banner.png;
#BACKGROUND:../bg.png;
#LYRICSPATH:;
#CDTITLE:;
#MUSIC:Best Before 10-11-1992.ogg;
#OFFSET:-0.004;
#SAMPLESTART:13.231;
#SAMPLELENGTH:12.000;
#SELECTABLE:YES;
#BPMS:0.000=145.000;
#STOPS:;
#BGCHANGES:;
#KEYSOUNDS:;

//---------------dance-single - Nix----------------
#NOTES:
     dance-single:
     Nix:
     Challenge:
     12:
     1.000,0.936,0.075,0.057,1.000:
0000
0000
0000
0000
,
0000
0000
0000
0000
,
0000
0000
0000
0000
,
0000
0000
0000
0000
,
1000
0000
0001
0100
0010
1000
0100
0010
,
0010
0000
0001
1000
0010
0100
0001
0000
,
0010
0000
0100
1000
0010
0100
0001
1000
,
1000
0000
0010
0100
0001
1000
0100
0000
,
1000
0100
1000
0001
0010
0001
1000
0100
1000
0001
0100
0010
1000
0001
0010
0100
,
1000
0001
0100
0010
1000
0010
0100
0001
1000
0100
1000
0001
0100
0001
0010
0000
,
0001
1000
0010
0100
0001
0100
0010
1000
0001
0010
0100
1000
0010
0100
0001
1000
,
0100
1000
0001
0100
0001
1000
0010
1000
0001
0010
0100
1000
0001
0100
0010
0000
,
0100
0001
1000
0001
0010
0100
1000
0001
1000
0010
0100
0001
0100
0010
1000
0001
,
0010
0001
1000
0010
1000
0100
0010
0100
1000
0001
0100
0010
0100
0010
1000
0000
,
0001
0010
0100
0010
0100
0010
0001
0100
0010
0100
0010
1000
0001
0010
0100
1000
,
0100
0010
0001
1000
0010
0100
0010
0100
0001
0010
0100
1000
0100
0010
0001
0000
,
1000
0100
1000
0001
1000
0010
0100
0001
0100
0010
1000
0001
0010
0100
1000
0010
,
0100
0010
1000
0100
0010
0001
1000
0010
0100
0001
1000
0100
1000
0001
0100
0000
,
0010
1000
0001
1000
0100
0010
0001
1000
0001
0100
0010
1000
0100
1000
0001
0010
,
0001
0100
0010
1000
0001
0100
0010
1000
0001
0010
0100
1000
0001
0100
0001
0000
,
0100
0010
0100
0010
1000
0100
0010
0001
0100
0010
1000
0010
0100
0001
0010
0100
,
1000
0001
0010
0001
1000
0010
0100
0001
1000
0100
1000
0001
0100
0010
1000
0000
,
0100
0010
0100
1000
0001
0100
0010
0100
0001
1000
0010
0100
0001
0010
0100
0010
,
0100
1000
0010
0100
0001
0100
0010
1000
0100
0010
0100
1000
0001
0100
0010
0000
,
1000
0000
0100
1000
0001
0000
0100
0010
1000
0010
0100
0001
1000
0000
0000
0000
,
0001
0000
0100
0001
1000
0000
0100
0010
0001
0010
0100
1000
0001
0000
0000
0000
,
1000
0000
0010
1000
0001
0000
0010
0100
1000
0100
0010
0001
1000
0001
1000
0000
,
0001
0000
0010
0001
1000
0000
0010
0100
0001
0100
0010
1000
0001
0000
0000
0000
,
1000
0000
0100
1000
0010
0000
0100
0001
1000
0001
0010
0100
1000
0000
0000
0000
,
0001
0000
0100
0001
0010
0000
0100
1000
0001
1000
0010
0100
0001
0000
0000
0000
,
1000
0000
0010
1000
0100
0000
0010
0001
1000
0001
0100
0010
1000
0001
1000
0000
,
0001
0100
0000
0100
0010
1000
0001
0010
0000
0100
1000
0000
0001
1000
0001
0000
,
1000
0100
1000
0000
0001
0100
0001
0000
1000
0010
1000
0000
0001
0010
0001
0000
,
0100
0001
0100
0000
0010
1000
0010
0000
1000
0001
1000
0000
0100
0000
0010
0100
,
0010
0001
0010
0000
0100
1000
0100
0000
0010
0100
1000
0000
0100
0010
0001
0000
,
0010
0100
1000
0000
0010
0100
0001
0000
1000
0010
0100
0000
0001
0000
0010
0100
,
0010
0001
0100
0000
0010
1000
0100
0000
1000
0001
0010
0000
0100
1000
0010
0000
,
0100
0001
1000
0000
0001
0100
0010
0000
0100
0001
0010
0000
0100
0000
1000
0001
,
0010
0001
0010
0000
0010
1000
0010
0000
0100
0001
0100
0000
0100
1000
0100
0000
,
0020
0000
0001
0000
0230
0000
1000
0000
0320
0000
0000
0000
0031
0000
0100
0001
,
1000
0000
0100
0000
0010
0000
0001
0000
0100
0000
0010
0000
1000
0100
1000
0000
,
0001
0000
0010
0000
0100
0000
1000
0000
0010
0000
0100
0000
0001
0100
0001
0100
,
0001
0000
1000
0000
0010
0000
0100
0000
0001
0000
0010
0000
0100
1000
0001
0000
,
0100
0000
0010
0000
1000
0000
0001
0000
0010
0000
0100
0000
0100
0000
1000
0001
,
1000
0000
0100
0000
0010
0000
0001
0000
0100
0000
0001
0000
0010
0100
1000
0000
,
0010
0000
0100
0000
0001
0000
1000
0000
0100
0000
0010
0000
0001
0100
0001
0100
,
0010
0000
1000
0000
0100
0000
0010
0000
0001
0000
1000
0000
0010
0100
0001
0000
,
0200
0000
0001
0000
0320
0000
1000
0000
0130
0001
0100
0001
0100
0000
0010
0000
,
1000
0100
1000
0001
0010
0001
1000
0100
1000
0010
0100
0001
0100
0010
1000
0001
,
0010
0100
1000
0100
0010
0100
0010
0001
0100
0010
1000
0010
0100
0001
0100
0000
,
0010
1000
0001
0010
0100
1000
0001
0100
0001
1000
0010
0100
0001
1000
0100
0010
,
0001
1000
0001
0100
0010
1000
0001
1000
0100
0010
0001
0100
0010
1000
0001
0000
,
0010
0100
1000
0010
0100
0001
0010
0001
0100
0010
1000
0001
1000
0100
0010
0100
,
1000
0001
0100
0010
0100
0001
0010
0100
1000
0001
0100
0001
1000
0010
1000
0000
,
0001
1000
0100
0010
0001
0100
0010
1000
0010
0100
0001
1000
0100
0010
0001
1000
,
0010
0100
0001
0010
0100
1000
0001
0100
0010
1000
0100
0010
0001
0100
0001
0000
,
1000
0000
0001
0000
0101
0000
0100
0010
1000
0100
0010
0001
1000
0000
0000
0000
,
0001
0000
1000
0000
1100
0000
0100
0010
0001
0100
0010
1000
0001
0000
0000
0000
,
1000
0000
0001
0000
0011
0000
0010
0100
1000
0010
0100
0001
1000
0000
0000
0000
,
0001
0000
1000
0000
1010
0000
0010
0100
0001
0010
0100
1000
0001
0000
0000
0000
,
1000
0000
0010
0000
0110
0000
0100
0001
0010
0001
0100
0010
1000
0000
0000
0000
,
0001
0000
0010
0000
0110
0000
0100
1000
0010
1000
0100
0010
0001
0000
0000
0000
,
1000
0000
0100
0000
0110
0000
0010
0001
0100
0001
0010
0100
1000
0000
0000
0000
,
0001
0000
0100
0000
0110
0000
0010
1000
0200
0000
0000
0000
0000
0000
0000
0000
,
0300
0000
0000
0000
;
