#TITLE:BOSS SONG;
#SUBTITLE:;
#ARTIST:AAA;
#TITLETRANSLIT:;
#SUBTITLETRANSLIT:;
#ARTISTTRANSLIT:;
#GENRE:;
#CREDIT:;
#BANNER:../banner.png;
#BACKGROUND:../bg.png;
#LYRICSPATH:;
#CDTITLE:;
#MUSIC:BOSS SONG.ogg;
#OFFSET:0.000075;
#SAMPLESTART:6.860000;
#SAMPLELENGTH:12.000000;
#SELECTABLE:YES;
#DISPLAYBPM:280.000:300.000;
#BPMS:0.000000=280.000000
,128.000000=140.000000
,152.000000=129.000000
,160.000000=290.000000
,288.000000=150.000000
,314.000000=75.000000
,317.000000=300.000000
,395.000000=150.000000
,396.000000=140.000000
;
#STOPS:
;
#BGCHANGES:;
#KEYSOUNDS:;
#ATTACKS:;

//---------------dance-single - Nix----------------
#NOTES:
     dance-single:
     Nix:
     Hard:
     11:
     0.766809,0.947343,0.561388,0.285619,0.443201,459.000000,57.000000,29.000000,68.000000,0.000000,3.000000,0.766809,0.947343,0.561388,0.285619,0.443201,459.000000,57.000000,29.000000,68.000000,0.000000,3.000000:
0000
0000
0000
0000
,
0000
0000
0000
0000
,
0000
0000
0000
0000
,
0000
0000
0000
0000
,
0000
0000
0000
0000
,
0000
0000
0000
0000
,
0000
0000
0000
0000
,
0000
0000
0000
0000
,
1000
0001
0101
1001
,
0000
0010
1010
0000
,
0100
0000
0000
0000
0001
0010
0100
0000
,
0000
1100
0110
0000
,
0001
0000
0000
0100
0010
0100
0000
0000
,
0001
0000
0000
0011
0000
0000
0110
0000
,
0000
0000
1100
0000
0000
0000
0000
0000
1000
0000
0000
0001
0000
0000
0100
0000
,
0000
0010
0000
0000
1000
0000
0000
0000
0000
0000
0100
0000
0000
0000
0000
0000
,
0010
0001
0010
0000
0110
0000
1100
0000
,
1001
0000
0000
0000
0102
0000
0000
0000
0000
0000
0013
0000
0000
0100
0000
0000
,
1000
0000
0000
0010
0000
0000
0100
0000
0001
0000
0100
0000
0000
0000
0010
0000
,
1000
0010
0100
0000
0110
0000
1020
0000
,
0000
1000
0000
0001
0000
0230
0000
1000
,
0000
0000
0302
0000
0020
0003
1000
0000
,
0001
0000
0000
0230
0000
0000
2300
0000
,
0000
0010
0000
3100
0000
1100
0000
0000
,
0110
0011
1001
0101
,
0000
0010
0000
1000
0000
1100
0000
0000
,
0010
0000
0001
0000
0101
0000
0000
0100
,
0000
0010
1000
0001
0100
0001
1000
0010
,
0100
0001
0000
0011
0000
1100
0000
0000
,
1000
0000
0000
0000
1001
0000
0000
0000
0000
0000
0001
0000
0000
0010
0000
0000
,
1000
0000
0000
0000
0000
0000
0000
0000
0010
0000
0000
0000
0000
0000
0000
0000
0001
0000
0000
0000
0000
0000
0000
0000
0100
0000
0000
0000
0000
0000
0000
0000
0000
0010
0000
0000
0000
0000
0000
0000
0000
0000
0001
0000
0000
0000
0000
0000
,
0000
0000
0010
0000
0000
0000
0000
0000
0000
0000
0100
0000
0000
0000
0000
0000
0000
0000
0001
0000
0000
0000
0000
0000
0000
0000
0000
0010
0000
0000
0000
0000
0000
0000
0000
0000
0100
0000
0000
0000
0000
0000
1000
0000
0000
0000
0000
0000
,
0001
0000
0000
010M
0000
0000
0M10
0000
0000
10M0
0000
0000
M010
0000
0000
01M0
,
0000
0000
0M01
0000
0000
001M
0000
0000
01M0
0000
0000
1M00
0000
0000
M010
0000
,
0000
00M1
0000
0000
100M
0000
0000
M100
0000
0000
0M10
0000
0000
10M0
0100
0000
,
0110
0000
0000
0M10
0000
0000
00M1
0000
0000
010M
0000
0000
0M10
0000
0000
00M1
,
0000
0000
100M
0000
0000
M100
0001
0000
0101
0000
0000
010M
0000
0000
0M10
0000
,
0000
10M0
0000
0000
M100
0000
0000
0M10
0000
0000
10M0
0000
0000
M001
0100
0000
,
4004
0000
0000
0000
,
0000
0000
0000
0000
0000
0000
0000
3003
,
1001
0001
0100
1000
,
0100
0001
0010
1000
,
0010
0000
0000
0000
0001
0100
0010
1000
,
0000
1000
0010
0000
0100
0010
0100
0000
,
0001
0010
1000
0001
,
0100
0000
0000
1000
0000
0010
0000
0110
,
0000
0100
0000
0000
0001
0100
0010
0000
,
1000
0100
0010
0001
0000
0001
0010
0100
,
1000
0010
0100
0000
0010
0000
0100
0010
,
0000
0010
1000
0001
0000
0101
0000
0110
,
0000
0000
0010
0000
0000
1000
0000
0000
0100
0000
0000
0010
0000
0000
0001
0000
,
0100
0000
0000
0001
0000
0000
0100
0000
0001
0000
0100
0000
0001
0000
0000
0100
0000
0000
0000
0000
0000
0001
0000
0000
,
1000
1100
1001
0011
,
0110
0000
0100
1000
0000
1000
0001
0000
,
0000
0100
0000
0100
0010
0000
1000
0010
,
1000
0000
1001
0000
0001
0100
0000
0100
,
0010
1000
0100
0010
0000
0001
0000
0010
,
0100
0000
0000
1100
0000
0000
0101
0000
,
0000
0001
0100
0010
1000
0010
0000
0110
,
0000
0100
0001
0000
0010
0100
1000
0000
,
0001
0010
0100
1000
0100
0010
0000
0011
,
0000
1001
0000
0000
0100
0010
0100
0010
,
0000
0000
0000
1000
0000
0000
0010
0000
1000
0000
0010
0000
1000
0000
0010
0000
1000
0000
0010
0000
0000
1000
0000
0000
,
0001
0000
0100
0000
0010
0000
0000
1000
0000
0000
0100
0000
0000
0010
0000
0000
,
0001
0000
0010
0100
0000
0100
1000
0001
,
0100
0001
1000
0010
0000
0010
0000
0100
,
0001
0000
0000
0000
0000
0000
0000
0000
0010
0000
0000
0000
0000
0000
0000
0000
0001
0000
0000
0000
0000
0000
0000
0000
1000
0000
0000
0000
0000
0000
0000
0000
0000
0010
0000
0000
0000
0000
0000
0000
0000
0000
1000
0000
0000
0000
0000
0000
,
0000
0000
0000
0100
0000
0000
0000
0000
0000
0000
0000
0000
1000
0000
0000
0000
0000
0000
0000
0000
0001
0000
0000
0000
0000
0000
0000
0000
0100
0000
0000
0000
0000
0000
0000
0000
0001
0000
0000
0000
0000
0000
0010
0000
0000
0000
0000
0000
,
0001
0000
0101
0000
0100
0010
1000
0010
,
0100
0000
0001
0000
1000
0000
0000
0000
0100
0000
0000
1000
0000
0000
0010
0000
,
0000
0000
0000
0100
0000
0000
0000
0000
0001
0000
0000
0000
0000
0000
0000
0100
0000
0000
0000
0000
0000
0010
0000
0000
0000
0000
1000
0000
0000
0000
0000
0000
0100
0000
0000
0000
0000
0000
0010
0000
0000
0000
0000
0000
0100
0000
0000
0000
,
0000
1000
0001
0000
0100
0000
0001
0000
1000
0000
0000
0010
0000
0100
0000
0000
,
0001
0000
0000
0000
0000
0000
0000
0000
M1MM
0000
0000
0000
0000
0000
0000
MMMM
,
0000
0000
0000
0000
0000
0000
MM1M
0000
0000
0000
0000
0000
0000
MMMM
0000
0000
,
0000
0000
0000
0000
1MMM
0000
0000
0000
0000
0000
0000
MMMM
0000
0000
0000
0000
,
0000
0000
MMM1
0000
0000
0000
0000
0000
0020
0000
0000
0032
0000
0000
0203
0000
,
0000
0000
0000
0000
0320
0000
0000
2030
0000
0000
3200
0000
0000
0000
0000
0000
,
0320
0000
0000
0230
0000
0000
2300
0000
0000
0000
0000
0000
3002
0000
0000
0203
,
0000
0000
0000
0000
0320
0000
0000
0000
0000
0000
0000
0000
0000
0000
0000
0000
2030
0000
0000
3002
0000
0000
2003
0000
0000
0000
0000
0000
3002
0000
0000
2003
,
0000
3002
0000
0000
1003
0000
0100
0000
1000
0000
0100
0000
1000
0000
0000
0000
,
11MM
M11M
MM11
1MM1
,
4000
0000
3001
0100
0010
1000
0000
1010
,
0000
0010
0100
0001
1000
0100
0010
0000
,
0000
0010
0100
0000
1100
0000
1000
0001
,
0100
0010
0000
0010
0100
0001
1000
0000
,
0100
0000
1000
0100
1000
0000
0100
0000
1000
0000
0001
0000
1000
0000
0010
0000
,
0100
0001
0000
0101
0000
1001
0000
1010
,
0000
0010
0100
0001
0000
0000
0101
0000
0000
0100
0000
0000
,
0200
0001
0000
1000
0000
0320
1000
0000
,
0001
0000
0130
0010
0000
1000
0000
0001
,
0010
0000
0000
0100
0000
0000
0000
0000
1000
0000
0001
0000
1000
0000
0001
0000
1000
0000
0001
0000
1000
0000
0001
0000
,
1000
0001
1000
0001
0000
0100
0000
0010
0000
1000
0000
0000
,
1001
0000
0001
0010
0100
1000
0001
0000
,
0100
0000
0010
0000
0000
0000
0110
0000
0000
0000
0101
0000
0000
0000
0000
1001
,
0000
0000
1000
0100
1000
0100
0010
0100
,
0010
0001
1000
0001
0100
0001
0100
0010
,
1000
0000
0001
0000
1000
0000
0001
0000
0000
1000
0000
0000
0001
0000
1000
0000
0001
0000
1000
0000
0000
0001
0000
1000
,
0000
0000
0001
0000
0000
0000
0000
0000
0000
0000
0000
0000
1000
0000
0000
0000
0000
0000
0000
0000
0000
0100
0000
0000
0000
0000
0000
0000
0000
0000
0001
0000
0000
0000
0000
0000
0000
0000
0000
0100
0000
0000
0000
0000
0000
0000
0000
0000
,
1000
0000
0000
0010
0000
0000
0001
0000
0000
0010
0000
0000
1000
0000
M00M
0000
,
20M2
0000
0000
0000
,
0000
0MM0
0000
0000
0000
0000
0000
0000
,
0000
3MM3
0000
0000
;

//---------------dance-single - Nix----------------
#NOTES:
     dance-single:
     Nix:
     Challenge:
     13:
     0.904693,1.000000,0.738669,0.502295,0.753442,515.000000,75.000000,51.000000,333.000000,10.000000,2.000000,0.904693,1.000000,0.738669,0.502295,0.753442,515.000000,75.000000,51.000000,333.000000,10.000000,2.000000:
0000
0000
0000
0000
,
0000
0000
0000
0000
,
0000
0000
0000
0000
,
0000
0000
0000
0000
0000
0000
0000
0000
0000
0000
0000
0000
0000
0000
0000
0M00
,
000M
M000
00M0
0M00
000M
00M0
M000
000M
0M00
M000
00M0
0M00
0000
000M
M000
0M00
,
0000
0000
0000
00M0
0000
0000
M000
0000
0M00
0000
0000
0000
000M
0000
0000
0000
0000
0000
0000
0000
M000
0000
0000
0000
00M0
0000
0000
0000
0M00
0000
0000
0000
000M
0000
0000
0000
M000
0000
0000
0000
00M0
0000
0000
0000
0M00
0000
0000
0000
,
0000
0000
M000
0000
0000
0000
00M0
0000
0000
0000
0M00
0000
0000
0000
000M
0000
0000
0000
M000
0000
0000
0M00
0000
0000
,
000M
0000
00M0
M000
0000
0000
0M00
0000
,
0001
0000
0100
00M0
1000
000M
0100
00M0
,
0000
M000
0110
0000
1002
0000
00M0
0000
,
0203
0000
00MM
0300
1000
0100
00M1
0000
,
M000
0000
0101
M000
0021
0000
0M00
0000
,
1000
0000
0M00
0001
0000
0230
M000
0000
,
M0M1
0000
0000
0000
0000
0000
10M0
0000
0000
0000
M000
0000
0301
0000
M000
0M00
,
00M0
0000
M100
000M
0000
0000
0000
0000
1M00
0000
0000
0010
0M00
0000
M001
0000
,
0M00
0010
000M
0000
1M00
0000
00M0
0000
0000
0000
110M
0000
0000
0000
0000
0000
,
0010
0001
M100
00M0
M101
0000
M011
0M00
,
1010
0000
0000
0000
1200
0000
000M
0000
0000
0000
031M
0000
0000
1000
0000
0000
,
0010
0000
MM00
0001
0000
0000
0010
0000
1000
0000
0001
0000
00M0
0000
0100
0000
,
1000
0010
0001
0M00
10M0
0000
010M
00M0
,
M000
0110
0000
1001
0000
11M0
0000
0201
,
0000
0000
1000
00M0
0001
0000
0320
0000
,
2000
003M
0000
02M0
3000
00M0
M002
0300
,
0000
2M00
0003
0020
3000
0001
M030
0000
,
01M1
0000
1100
000M
1010
0000
2M02
0000
,
0000
0010
0000
0M10
0000
0010
3003
0000
,
M011
0000
0101
0000
0021
0000
0000
103M
,
0000
0010
0001
0100
10MM
0100
0001
0010
,
0200
1000
0000
M001
0000
100M
0300
0000
,
0011
0000
0000
0000
1100
0000
0000
0000
0000
0000
0100
0000
0000
1000
0000
0000
,
0010
0000
0000
0000
0000
0000
0000
0000
0000
0000
0000
0000
0000
0000
0000
0000
0000
0000
0000
0000
0000
0000
0000
0000
0000
0000
0000
0000
0000
0000
0000
0000
0001
0000
0000
0000
0000
0000
0000
0000
0000
0000
0000
0000
0000
0000
0000
0000
0000
0000
0000
0000
0000
0000
0000
0000
0000
0000
0000
0000
0000
0000
0000
0000
0010
0000
0000
0000
0000
0000
0000
0000
0000
0000
0000
0000
0000
0000
0000
0000
0000
0000
0000
0000
0000
0000
0000
0000
0000
0000
0000
0000
0000
0000
0000
0000
1000
0000
0000
0000
0000
0000
0000
0000
0000
0000
0000
0000
0000
0000
0000
0000
0000
0000
0000
0000
0000
0000
0000
0000
0000
0000
0000
0000
0000
0000
0000
0000
0000
0000
0000
0000
0100
0000
0000
0000
0000
0000
0000
0000
0000
0000
0000
0000
0000
0000
0000
0000
0000
0000
M00M
0000
0000
0000
0000
0000
0000
0000
0000
0000
0000
0000
0000
0000
0000
0000
0000
0000
0100
0000
0000
0000
0000
0000
0000
0000
0000
0000
0000
0000
0000
0000
0000
0000
0000
0000
0000
0000
0000
0000
0000
0000
,
0000
0000
0001
0000
0000
0000
0000
0000
0000
0000
1000
0000
0000
0000
0000
0000
0000
0000
0001
0000
0000
0000
0000
0000
0000
0000
0000
0010
0000
0000
0000
0000
0000
0000
0000
0000
1000
0000
0000
0000
0000
0000
0010
0000
0000
0000
0000
0000
,
0001
0100
M001
0010
0100
1000
0100
0000
0010
0001
1000
0001
0100
0010
1000
0000
,
0100
0010
M001
0100
0010
1000
0100
0000
001M
0100
1000
0010
0100
0001
M010
0000
,
0100
1000
001M
1000
010M
1000
0010
0000
0100
0001
1000
0010
0100
0001
M010
0000
,
0100
1000
010M
1000
0010
0001
0010
0000
1000
0100
0010
0100
0001
0100
M010
0000
,
0001
0100
M010
0001
0010
0100
M001
0000
0010
1000
0001
0100
1000
0010
0100
0000
,
0001
0100
1000
0100
0010
0001
0010
0000
0100
1000
0001
0010
1000
0010
0100
0000
,
0001
0000
0000
0000
0000
0000
0000
0000
0MM0
0000
0000
0000
0000
0000
0000
0000
0000
1000
0000
0000
0000
0000
0000
0000
0MM0
0000
0000
0000
0001
0000
0000
0000
,
0000
0000
0000
0000
0000
0000
0000
0000
0000
0000
0000
0000
0000
0000
0000
0000
0000
0000
0000
0000
0000
0000
0000
0000
1000
0000
0000
0000
0000
0000
0000
0000
0000
0000
0000
0000
0000
0000
0000
0000
0000
0000
0000
0000
0000
0000
0000
0000
0MM0
0000
0000
0000
0000
0000
0000
0000
0000
0000
0000
0000
0000
0000
0000
0000
0001
0000
0000
0000
0000
0000
0000
0000
0000
0000
0000
0000
0000
0000
0000
0000
0000
0000
0000
0000
0000
0000
0000
0000
0000
0000
1000
0000
0000
0000
0000
0000
0000
0000
0000
0000
0000
0000
0000
0000
0000
0000
0000
0000
0001
0000
0000
0000
0000
0000
0000
0000
0000
0000
0000
0000
0000
0000
0000
1000
0000
0000
0000
0000
0000
0000
0000
0000
0000
0000
0000
0000
0000
0000
0001
0000
0000
0000
0000
0000
0MM0
0000
0000
0000
0000
0000
1000
0000
0000
0000
0000
0000
0000
0000
0000
0001
0000
0000
0000
0000
0000
0000
0000
0000
1000
0000
0000
0000
0000
0000
0001
0000
0000
0000
0000
0000
1000
0000
0000
0000
0000
0000
0001
0000
0000
0000
0000
0000
,
1000
11M0
0110
M1M1
,
0110
0011
0101
11M0
,
0101
0000
0000
0000
0001
0100
1000
0100
,
M00M
0100
0010
0000
0001
01M0
1000
00MM
,
0100
0000
0001
0M00
0010
0000
1000
0MM0
,
0001
0000
00M0
0200
0000
1000
0000
00M1
,
0000
1000
0000
0000
0301
1000
0010
0000
,
0001
0100
1000
0100
M00M
0100
0001
0100
,
1000
0010
0M02
M000
0M10
M000
0M00
0013
,
0000
1000
0200
0001
M300
0120
0000
0M31
,
0000
0000
0100
0000
0000
1000
00MM
0000
0100
0000
0000
0001
M000
0000
0010
0000
,
010M
0000
0000
100M
0000
0000
001M
0000
1000
000M
0100
0000
100M
0000
0000
001M
0000
0000
000M
0000
0000
M01M
0000
0000
,
040M
000M
100M
0000
0001
00M0
1000
0000
,
0301
0000
0000
10M1
0000
0100
0101
00M0
,
0000
1MM1
0000
0100
110M
0000
1M00
0020
,
M001
0M00
2030
0000
31M0
0001
00M0
010M
,
1000
0010
0100
M001
0000
0M11
0000
0100
,
10MM
0000
0000
111M
0000
0000
11M1
0000
,
0000
0001
10M0
0100
000M
11M0
0000
0120
,
0000
M031
0100
00M0
1000
010M
0010
0000
,
1000
010M
0000
0011
0000
1M1M
0000
01M1
,
0000
0021
M000
0000
0130
0001
1000
0M10
,
0000
0000
0000
M001
0000
0000
0010
0000
0001
0000
0100
0000
0010
0000
1000
0000
0001
0000
0100
0000
0000
10M0
0000
0000
,
0100
0000
0001
0000
0010
0000
0M00
1000
0000
0000
001M
0000
0000
0100
0000
0000
,
10M0
0000
0M20
M001
0000
1M30
0001
1000
,
0100
00M1
0100
1000
000M
0110
0000
0001
,
01M0
0000
0000
0000
0000
0000
0000
0000
1000
0000
0000
0000
0000
0000
0000
0000
0001
0000
0M00
0000
0000
0000
0000
0000
0010
0000
0000
0000
0000
0000
0M00
0000
0000
1000
0000
0000
0000
0000
0000
0000
0000
0000
01M0
0000
0000
0000
0000
0000
,
0000
0000
0000
0001
0000
0000
0000
0000
0000
0000
0000
0000
1M00
0000
0000
0000
0000
0000
0000
0000
0010
0000
0000
0000
0000
0000
0000
0000
0001
0000
M000
0000
0000
0000
0000
0000
0100
0000
0000
0000
0000
0000
0001
0000
0000
0000
0000
0000
,
M010
0000
011M
0000
0100
1000
0010
0001
,
1000
0000
0000
0000
0100
0000
0000
0000
0001
0000
0000
0000
0000
0000
0000
0000
0010
0000
0000
0000
0000
0000
0100
0000
0000
M00M
0000
0000
0100
0000
0000
0000
,
0000
0000
0000
0001
0000
0000
0000
0000
0100
0000
0000
0000
0000
0000
0000
1000
0000
0000
0000
0000
0000
0100
0000
0000
0000
0000
0010
0000
0000
0000
0000
0000
1000
0000
0000
0000
0000
0000
0100
0000
0000
0000
0000
0000
0001
0000
0000
0000
,
0000
0000
1000
0000
0010
0000
0000
0000
0100
0000
0000
0000
1000
0000
0000
0000
0010
0000
0000
M00M
0000
0000
0010
0000
0000
0000
0100
0000
000M
0000
0000
0000
,
22M0
000M
00M0
000M
0010
000M
00M0
000M
,
00M0
000M
00M0
0001
00M0
000M
33M0
MMMM
,
M202
00M0
1000
00M0
M000
00M0
M000
00M0
,
M000
0000
0010
0000
M303
0000
00M0
0000
2M00
0000
00M0
3200
000M
0000
032M
0000
,
M00M
0000
0M00
0000
M032
0000
M000
0203
00M0
0000
23M0
0000
000M
0M00
00M0
000M
,
3200
00M0
0000
0302
M000
0000
0023
0M00
M000
0000
0M0M
0000
2030
0M00
0000
30M2
,
0000
0000
0000
0000
02M3
0000
0000
0000
00M0
0000
0000
0000
000M
0000
000M
0000
032M
0000
000M
0230
000M
0000
230M
0000
000M
0000
00MM
0000
320M
0000
0000
0320
,
0000
0032
0000
0000
1M03
0000
0010
0000
0100
0000
M001
0000
0010
0000
M000
0000
,
0110
M000
0011
M000
0101
0000
1100
0000
,
MMMM
0000
0001
0000
0200
1000
0000
0001
,
0000
0000
0310
0000
1000
0000
0100
0000
0001
0000
0100
0000
1000
0000
0000
MMMM
,
0000
1000
0010
M000
0101
M000
0011
M010
,
0100
M001
00M0
M001
0100
1000
0001
0000
,
1000
0000
0100
1000
001M
0000
0100
0000
1000
0000
0001
0000
0010
0000
0100
0000
,
M001
0010
0000
410M
0000
0010
0000
3100
,
0000
0000
0010
0000
0001
0000
0100
0000
0000
0000
0000
0000
M110
0000
0000
0000
0000
0000
0101
0000
0000
00M0
0000
0000
,
1100
1001
0000
1010
0000
0M11
1001
0000
,
0101
0000
0100
0010
0000
0110
0000
0100
,
0001
0000
0000
0000
0000
0000
0010
0000
0000
0000
0000
M00M
0000
0000
0000
0000
0010
0000
0000
0000
1000
0000
0000
0000
0001
0000
0000
0000
1000
0000
0000
0000
0010
0000
0000
0000
0100
0000
0000
0000
0001
0000
0000
0000
1000
0000
0000
0000
,
0001
0000
0010
0000
0100
0000
1000
0000
0000
0000
0100
0000
0000
0000
0001
0000
0000
0000
0100
0000
0000
M00M
0000
0000
,
0110
0000
0M10
1000
0001
01M0
1000
0000
,
1M10
0000
0020
0000
0000
0000
0M01
0000
0000
0000
1000
0000
0M00
0000
0000
0001
,
M000
0000
0130
M001
0010
100M
0010
010M
,
1000
0010
0001
1000
0100
0010
1000
0100
,
0010
0000
0000
0000
0001
0000
0000
0000
0010
0000
0000
0000
0100
0000
0000
M00M
0000
0000
0100
0000
0000
0000
0000
0000
0010
0000
0000
0000
0100
0000
0000
0000
0001
0000
0000
0000
0010
0000
0000
0000
0000
0000
0100
0000
0000
0000
1000
0000
,
0000
0000
0010
0000
0000
0000
0000
0000
0000
0000
0000
0000
1010
0000
0000
0000
0000
0000
0000
0000
0000
1001
0000
0000
0000
0000
0000
0000
0000
0000
0011
0000
0000
0000
0000
0000
0000
0000
0000
1001
0000
0000
0000
0000
0000
0000
0000
0000
,
1100
0000
0000
1001
0000
0000
0101
0000
0000
0110
0000
0000
2002
0000
00M0
0000
,
0M10
00M0
0000
0000
0MM0
0000
0MM0
0000
,
0000
0MM0
0MM0
0000
,
0MM0
3MM3
MMMM
0000
;
